osu file format v5

[General]
AudioFilename: sonic Metal.mp3
AudioLeadIn: 0
PreviewTime: -1
Countdown: 1
SampleSet: Normal
StackLeniency: 0.7
Mode: 0
LetterboxInBreaks: 1

[Metadata]
Title:sonic the hedgehog - rock version
Artist:
Creator:xikitin
Version:Normal
Source:
Tags:

[Difficulty]
HPDrainRate:5
CircleSize:5
OverallDifficulty:5
SliderMultiplier:1
SliderTickRate:2

[Events]
//Background and Video events
0,0,"sonic guitar copia.jpg"
//Break Periods
//Storyboard Layer 0 (Background)
//Storyboard Layer 1 (Failing)
//Storyboard Layer 2 (Passing)
//Storyboard Layer 3 (Foreground)
//Storyboard Sound Samples
//Background Colour Transformations
3,100,163,162,255

[TimingPoints]
10215,363.680446114681,4,1,0,100

[HitObjects]
64,96,10215,1,0
64,96,10396,2,0,B|232:96,1,150
216,160,11306,1,0
216,160,11487,2,0,B|48:160,1,150
64,224,12397,2,0,B|168:224,2,100
64,296,13669,1,4
64,296,13851,1,0
176,296,14579,2,4,B|400:296,1,200
112,48,16033,6,0,B|112:120,1,50
112,160,16579,2,0,B|112:312,1,150
192,312,17488,6,0,B|192:256,1,50
192,200,18034,2,0,B|64:88,1,150
16,88,18943,6,0,B|37:369|204:375|256:244|256:244|343:0|488:360,1,800
384,320,22398,5,0
384,320,22580,1,2
384,320,22761,1,0
288,320,23134,1,2
288,320,23315,1,0
192,320,23677,1,2
192,320,23857,1,0
96,320,24216,6,0,B|96:168,1,150
192,168,25307,1,0
192,168,25489,1,2
192,168,25671,1,0
288,168,26026,1,2
288,168,26206,1,0
376,168,26580,1,2
376,168,26762,1,0
376,272,27126,6,0,B|208:272,1,150
128,272,28217,1,0
128,272,28399,1,2
128,272,28580,1,0
128,184,28944,1,2
128,184,29126,1,0
128,96,29490,1,2
128,96,29671,1,0
224,96,30035,6,0,B|224:248,1,150
224,328,31126,1,0
224,328,31308,1,2
224,328,31490,1,0
312,328,31853,1,2
312,328,32035,1,0
400,328,32399,1,2
400,328,32581,1,0
400,232,32945,6,0,B|240:232,1,150
408,312,34217,5,0
376,312,34399,1,0
304,312,34763,1,0
272,312,34945,1,0
200,312,35308,1,0
160,312,35490,1,0
88,312,35854,1,0
88,192,36399,1,4
56,80,36945,5,0
88,80,37127,1,0
128,80,37309,1,0
200,80,37672,1,0
232,80,37854,1,0
304,80,38218,1,0
336,80,38400,1,0
408,80,38763,1,0
408,192,39309,1,4
312,192,39854,5,0
312,192,40036,1,0
312,192,40218,1,0
312,192,40582,1,0
312,192,40764,1,0
312,192,41127,1,0
312,192,41309,1,0
312,192,41673,1,0
312,192,42218,1,4
200,192,42764,5,0
200,192,42946,1,0
200,192,43128,1,0
200,192,43491,1,0
200,192,43673,1,0
200,192,44037,1,0
200,192,44219,1,0
200,192,44582,1,0
200,192,45128,1,4
256,192,45492,12,2,47299
248,192,47492,1,0
248,192,47674,1,2
248,192,47855,1,0
248,192,48037,1,4
256,192,48401,12,2,50208
256,192,50401,5,0
256,192,50583,1,2
256,192,50765,1,0
256,192,50947,1,4
256,192,51310,12,2,53298
256,184,53492,5,0
256,184,53674,1,0
256,184,53856,2,4,B|400:234|264:339|134:265|184:192|272:184,1,300
232,136,55311,2,4,B|296:136,7,50
408,312,57493,5,0
376,312,57675,1,0
304,312,58038,1,0
272,312,58220,1,0
200,312,58584,1,0
160,312,58766,1,0
88,312,59130,1,0
88,192,59675,1,4
56,80,60221,5,0
88,80,60402,1,0
128,80,60584,1,0
200,80,60948,1,0
232,80,61130,1,0
304,80,61493,1,0
336,80,61675,1,0
408,80,62039,1,0
408,192,62584,1,4
336,192,63130,6,0,B|280:192,2,50
216,192,63857,2,0,B|160:192,1,50
96,192,64403,2,0,B|40:192,1,50
40,256,64948,1,0
112,256,65494,1,4
216,264,66039,6,0,B|216:208,2,50
216,152,66767,2,0,B|160:152,1,50
104,152,67312,2,0,B|32:152,1,50
64,72,67858,1,0
72,72,68403,6,0,B|585:-2|595:324|376:336,1,700
384,336,71313,6,0,B|-160:484|-72:122|80:72,1,700
136,72,74222,6,0,B|200:72,3,50
248,72,75131,1,0
312,72,75495,1,0
312,72,75677,2,0,B|382:72,3,50
424,72,76586,1,0
424,136,76950,1,0
424,136,77132,2,0,B|424:192,3,50
424,248,78041,1,0
360,248,78405,1,0
360,248,78586,2,0,B|64:168,1,300
72,168,80041,6,0,B|112:72|112:72|160:176|160:176|200:96|200:96|232:200|232:200|280:104|280:104|312:200|312:200|368:128|368:128|368:136,1,700
352,144,82951,6,0,B|312:48|312:48|264:152|264:152|224:72|224:72|192:176|192:176|144:80|144:80|112:176|112:176|56:104|56:104|56:112,1,700
64,192,85860,6,0,B|176:192|176:192|320:64|320:64|496:320,1,600
256,192,88406,12,0,90213
256,168,90406,2,4,B|255:239,6,50
112,72,92406,5,2
112,72,92588,1,0
208,72,92952,1,2
208,72,93134,1,0
304,72,93497,1,2
304,72,93679,1,0
400,72,94043,6,0,B|400:224,1,150
304,224,95134,1,0
304,224,95316,1,2
304,224,95498,1,0
208,224,95861,1,2
208,224,96043,1,0
120,224,96407,1,2
120,224,96589,1,0
120,120,96952,6,0,B|288:120,1,150
368,120,98043,1,0
368,120,98225,1,2
368,120,98407,1,0
368,208,98771,1,2
368,208,98953,1,0
368,296,99316,1,2
368,296,99498,1,0
272,296,99862,6,0,B|272:144,1,150
272,64,100953,1,0
272,64,101135,1,2
272,64,101316,1,0
184,64,101680,1,2
184,64,101862,1,0
96,64,102226,1,2
96,64,102407,1,0
96,160,102771,6,0,B|256:160,1,150
344,160,103862,1,0
384,160,104044,1,0
424,160,104226,1,0
424,232,104590,1,0
424,272,104771,1,0
424,344,105135,1,0
384,344,105317,1,0
304,344,105681,1,0
208,344,106226,1,4
96,344,106772,5,0
96,344,106953,2,2,B|96:280,1,50
96,232,107499,2,0,B|160:232,1,50
208,232,108045,2,2,B|280:232,1,50
336,232,108590,2,0,B|336:112,1,100
336,128,109136,1,4
256,128,109681,6,0,B|200:128,2,50
136,128,110408,1,2
96,128,110590,1,0
96,200,110954,2,0,B|96:256,1,50
184,248,111500,1,2
272,248,112045,1,4
368,248,112591,5,0
408,248,112772,1,2
448,248,112954,1,0
448,176,113318,2,0,B|448:120,1,50
448,56,113863,1,2
408,56,114045,1,0
320,56,114409,2,0,B|208:56,1,100
220,56,114954,1,4
216,152,115500,5,0
216,256,116046,1,0
304,256,116591,1,0
400,256,117137,2,0,B|400:104,1,150
400,106,117864,1,4
304,104,118409,5,0
208,104,118955,1,0
112,104,119500,1,0
112,200,120046,2,0,B|280:200,1,150
262,200,120773,1,4
400,200,121319,5,0
400,296,121864,1,0
304,296,122410,1,0
208,296,122955,1,0
88,296,123501,6,4,B|88:40|408:80,1,450
256,192,125501,12,0,126585
256,192,126865,12,4,129485
