osu file format v5

[General]
AudioFilename: sonic Metal.mp3
AudioLeadIn: 0
PreviewTime: -1
Countdown: 1
SampleSet: Normal
StackLeniency: 0.7
Mode: 0
LetterboxInBreaks: 1

[Metadata]
Title:sonic the hedgehog - rock version
Artist:
Creator:xikitin
Version:Easy
Source:
Tags:

[Difficulty]
HPDrainRate:3
CircleSize:3
OverallDifficulty:3
SliderMultiplier:1
SliderTickRate:1

[Events]
//Background and Video events
0,0,"sonic guitar copia.jpg"
//Break Periods
//Storyboard Layer 0 (Background)
//Storyboard Layer 1 (Failing)
//Storyboard Layer 2 (Passing)
//Storyboard Layer 3 (Foreground)
//Storyboard Sound Samples
//Background Colour Transformations
3,100,163,162,255

[TimingPoints]
10215,363.680446114681,4,1,0,100

[HitObjects]
64,96,10215,2,0,B|280:96,1,200
352,96,11306,2,0,B|128:96,1,200
64,96,12397,2,0,B|168:96,2,100
64,208,13851,1,0
168,208,14579,1,4
120,56,16033,6,0,B|120:264,1,200
200,256,17124,1,0
120,256,17488,6,0,B|120:40,1,200
208,56,18579,1,0
16,88,18943,6,0,B|37:369|204:375|256:244|256:244|343:0|488:360,1,800
384,320,22580,5,2
288,320,23125,1,2
192,320,23671,1,2
96,320,24216,6,0,B|96:168,1,150
192,168,25489,1,2
288,168,26035,1,2
376,168,26580,1,2
376,272,27126,6,0,B|208:272,1,150
128,272,28399,1,2
128,184,28944,1,2
128,96,29490,1,2
224,96,30035,6,0,B|224:248,1,150
224,328,31308,1,2
312,328,31853,1,2
400,328,32399,1,2
400,232,32945,6,0,B|240:232,1,150
448,312,34217,5,0
320,312,34945,1,0
192,312,35672,1,0
64,312,36399,1,0
64,192,37127,1,0
64,72,37854,1,0
192,72,38582,1,0
320,72,39309,1,0
448,72,40036,1,0
448,192,40764,1,0
448,312,41491,1,0
320,312,42218,1,0
192,312,42946,1,0
64,312,43673,1,0
64,192,44400,1,0
24,48,45128,6,0,B|81:214|200:-28|173:172|475:1|219:258|512:312,1,600
504,304,48037,2,0,B|392:328|296:320|160:280|88:200|16:96|0:40,1,600
8,32,50947,6,0,B|528:368,1,600
512,352,53492,1,2
512,352,53856,1,2
392,344,54402,5,0
256,296,54947,1,0
216,192,55311,2,0,B|280:192,7,50
448,312,57493,5,0
320,312,58220,1,0
192,312,58948,1,0
64,312,59675,1,0
64,192,60402,1,0
64,72,61130,1,0
192,72,61857,1,0
320,72,62584,1,0
448,72,63312,1,0
448,192,64039,1,0
448,312,64767,1,0
320,312,65494,1,0
192,312,66221,1,0
64,312,66949,1,0
64,192,67676,1,0
72,72,68403,6,0,B|585:-2|595:324|376:336,1,700
384,336,71313,6,0,B|-160:484|-72:122|80:72,1,700
64,72,74586,5,0
192,72,75313,1,0
320,72,76041,1,0
448,72,76768,1,0
448,312,77495,5,0
320,312,78223,1,0
192,312,78950,1,0
72,312,79677,1,0
72,312,80041,6,0,B|112:216|112:216|160:320|160:320|200:240|200:240|232:344|232:344|280:248|280:248|312:344|312:344|368:272|368:272|368:280,1,700
360,280,82951,6,0,B|320:184|320:184|272:288|272:288|232:208|232:208|200:312|200:312|152:216|152:216|120:312|120:312|64:240|64:240|64:248,1,700
64,192,85860,6,0,B|176:192|176:192|320:64|320:64|496:320,1,600
487,307,88406,2,0,B|368:304|368:304|256:152|256:152|56:128,1,500
65,129,90406,2,0,B|64:200,6,50
112,72,92406,5,2
208,72,92952,1,2
304,72,93494,1,2
400,72,94043,6,0,B|400:224,1,150
304,224,95316,1,2
208,224,95861,1,2
120,224,96407,1,2
120,120,96952,6,0,B|288:120,1,150
368,120,98225,1,2
368,208,98771,1,2
368,296,99316,1,2
272,296,99862,6,0,B|272:144,1,150
272,64,101135,1,2
184,64,101680,1,2
96,64,102226,1,2
96,160,102771,6,0,B|256:160,1,150
88,72,104044,2,2,B|144:72,1,50
208,72,104590,2,2,B|272:72,1,50
336,72,105135,2,2,B|392:72,1,50
392,160,105681,6,0,B|232:160,1,150
144,192,106953,2,2,B|144:248,1,50
224,248,107499,2,2,B|288:248,1,50
352,248,108045,2,2,B|424:248,1,50
400,336,108590,6,0,B|240:336,1,150
160,336,109863,2,2,B|160:280,1,50
160,208,110409,2,2,B|160:136,1,50
160,80,110954,2,2,B|160:16,1,50
248,32,111500,6,0,B|416:32,1,150
400,120,112772,2,2,B|400:176,1,50
400,256,113318,2,2,B|328:256,1,50
264,256,113863,2,2,B|192:256,1,50
264,344,114409,6,0,B|88:344,1,150
112,256,115500,1,0
208,256,116046,1,0
304,256,116591,1,0
400,256,117137,2,0,B|400:104,1,150
304,104,118409,5,0
208,104,118955,1,0
112,104,119500,1,0
112,200,120046,2,0,B|280:200,1,150
400,200,121319,5,0
400,296,121864,1,0
304,296,122410,1,0
208,296,122955,1,0
88,296,123501,6,0,B|88:40|408:80,1,450
256,192,125319,12,0,126403
256,192,126774,12,0,129394
