osu file format v14

[General]
AudioFilename: i will.mp3
AudioLeadIn: 0
PreviewTime: 48313
Countdown: 0
SampleSet: Soft
StackLeniency: 0.7
Mode: 0
LetterboxInBreaks: 0
SkinPreference:Default
WidescreenStoryboard: 1

[Editor]
Bookmarks: 12209,35930,36627,79360,100813
DistanceSpacing: 1.5
BeatDivisor: 4
GridSize: 4
TimelineZoom: 2.899999

[Metadata]
Title:I will
TitleUnicode:I will
Artist:solfa feat.Chata
ArtistUnicode:solfa feat.茶太
Creator:khy200610140
Version:Hard
Source:晴のちきっと菜の花びより
Tags:Parasol Hare Nochi Kitto Nanohana Biyori galgame konomi A s h e m u
BeatmapID:901293
BeatmapSetID:415998

[Difficulty]
HPDrainRate:5
CircleSize:3.5
OverallDifficulty:6
ApproachRate:8
SliderMultiplier:2.5
SliderTickRate:1

[Events]
//Background and Video events
0,0,"@Ariesbto_EV_B03_05.png",0,0
//Break Periods
//Storyboard Layer 0 (Background)
//Storyboard Layer 1 (Fail)
//Storyboard Layer 2 (Pass)
//Storyboard Layer 3 (Foreground)
//Storyboard Sound Samples

[TimingPoints]
1744,697.674418604651,4,2,1,30,1,0
11860,-100,4,2,0,50,0,0
12209,-100,4,2,1,50,0,0
12557,-100,4,2,0,50,0,0
12906,-100,4,2,0,40,0,0
34534,-100,4,2,1,55,0,0
43604,-100,4,2,1,65,0,0
46395,-100,4,2,1,60,0,0
49185,-100,4,2,1,70,0,1
57209,-100,4,2,1,70,0,1
71511,-100,4,2,1,75,0,1
93837,-100,4,2,2,30,0,0
109185,-100,4,2,2,5,0,0

[Colours]
Combo1 : 255,100,255
Combo2 : 105,130,255
Combo3 : 100,220,255
Combo4 : 255,100,100

[HitObjects]
52,48,1744,6,0,L|60:248,1,187.5,4|0,0:0|0:0,0:0:0:0:
192,360,2790,2,0,L|188:288,1,62.5
248,232,3139,6,0,P|348:252|432:220,1,187.5,4|0,0:0|0:0,0:0:0:0:
304,80,4011,2,0,L|321:14,2,62.5
312,172,4534,6,0,P|256:152|176:180,1,125,4|0,0:0|0:0,0:0:0:0:
111,215,5057,1,0,0:0:0:0:
111,215,5232,2,0,B|103:137|103:137|127:97,1,125
193,166,5755,1,0,0:0:0:0:
224,256,5930,6,0,P|164:316|76:308,1,125
270,191,6627,2,0,P|295:223|304:264,2,83.3333333333333
360,104,7325,6,0,P|272:80|178:108,1,187.5,4|0,0:0|0:0,0:0:0:0:
32,228,8197,2,0,L|32:164,1,62.5
80,84,8546,1,0,0:0:0:0:
160,24,8720,2,0,P|176:108|104:180,1,187.5,4|0,0:0|0:0,0:0:0:0:
260,292,9592,2,0,L|328:292,1,62.5
392,352,9941,1,0,0:0:0:0:
452,280,10116,6,0,B|492:220|452:152,1,125,4|0,0:0|0:0,0:0:0:0:
392,60,10639,2,0,P|368:76|368:128,1,62.5
87,163,11511,6,0,L|72:224,2,62.5,0|0|8,0:0|0:0|0:0,0:0:0:0:
192,288,12209,2,0,L|212:368,2,62.5,0|0|8,0:0|0:0|0:0,0:0:0:0:
340,156,12906,6,0,P|408:140|472:168,1,125,4|0,0:0|0:0,0:0:0:0:
400,236,13430,1,0,0:0:0:0:
308,244,13604,2,0,P|260:192|256:128,1,125,8|0,0:0|0:0,0:0:0:0:
100,32,14302,6,0,L|76:188,1,125,8|0,0:0|0:0,0:0:0:0:
184,212,14825,2,0,P|195:271|161:322,1,125,8|0,0:0|0:0,0:0:0:0:
96,248,15348,1,0,0:0:0:0:
96,248,15523,1,0,0:0:0:0:
124,156,15697,6,0,P|164:136|256:164,1,125,8|0,0:0|0:0,0:0:0:0:
332,180,16220,1,0,0:0:0:0:
424,172,16395,2,0,P|476:140|500:72,1,125,8|0,0:0|0:0,0:0:0:0:
316,40,17092,6,0,L|184:40,1,125,8|0,0:0|0:0,0:0:0:0:
112,116,17616,2,0,L|237:116,1,125,8|0,0:0|0:0,0:0:0:0:
328,132,18139,1,0,0:0:0:0:
328,132,18313,1,0,0:0:0:0:
388,204,18488,2,0,P|388:276|348:332,1,125,8|0,0:0|0:0,0:0:0:0:
276,356,19011,1,0,0:0:0:0:
276,356,19185,2,0,P|268:325|278:296,1,62.5,8|0,0:0|0:0,0:0:0:0:
244,208,19534,2,0,P|216:216|164:204,1,62.5
152,124,19883,6,0,L|28:138,1,125,8|0,0:0|0:0,0:0:0:0:
308,24,20581,2,0,L|376:16,1,62.5,8|0,0:0|0:0,0:0:0:0:
432,84,20930,2,0,L|336:96,1,62.5
324,166,21278,6,0,P|251:221|292:140,1,250,8|0,0:0|0:0,0:0:0:0:
456,272,22325,2,0,P|428:280|376:264,1,62.5
328,336,22674,6,0,P|256:348|200:328,1,125,8|0,0:0|0:0,0:0:0:0:
52,344,23371,2,0,L|56:268,1,62.5,8|0,0:0|0:0,0:0:0:0:
144,248,23720,2,0,L|148:160,1,62.5
244,164,24069,6,0,L|248:32,1,125,4|0,0:0|0:0,0:0:0:0:
304,228,24767,2,0,P|240:248|172:220,1,125,8|0,0:0|0:0,0:0:0:0:
324,100,25464,6,0,P|392:84|460:116,1,125,8|0,0:0|0:0,0:0:0:0:
384,176,25988,1,0,0:0:0:0:
384,176,26162,2,0,L|384:240,1,62.5,8|0,0:0|0:0,0:0:0:0:
468,284,26511,2,0,L|468:348,1,62.5
380,340,26860,6,0,L|255:340,1,125,8|0,0:0|0:0,0:0:0:0:
160,336,27383,1,0,0:0:0:0:
160,336,27557,2,0,P|184:268|160:204,1,125,8|0,0:0|0:0,0:0:0:0:
36,48,28255,6,0,L|100:48,1,62.5,8|0,0:0|0:0,0:0:0:0:
188,16,28604,2,0,L|188:84,1,62.5
112,136,28953,1,8,0:0:0:0:
196,176,29127,2,0,L|280:176,1,62.5
352,176,29476,1,0,0:0:0:0:
440,204,29650,6,0,P|460:280|436:332,1,125
352,176,30348,2,0,L|352:108,1,62.5,8|0,0:0|0:0,0:0:0:0:
448,88,30697,2,0,L|448:4,2,62.5,0|0|8,0:0|0:0|0:0,0:0:0:0:
452,268,31395,2,0,L|452:330,1,62.5
368,292,31743,6,0,P|312:260|232:280,1,125,8|0,0:0|0:0,0:0:0:0:
164,300,32267,1,0,0:0:0:0:
180,208,32441,6,0,P|200:144|184:84,1,125,8|0,0:0|0:0,0:0:0:0:
96,48,32964,1,0,0:0:0:0:
44,128,33139,2,0,P|76:144|116:140,1,62.5,8|0,0:0|0:0,0:0:0:0:
188,88,33488,1,0,0:0:0:0:
272,132,33662,1,0,0:0:0:0:
348,76,33837,6,0,P|404:64|492:92,1,125,8|0,0:0|0:0,0:0:0:0:
348,224,34534,6,0,L|280:224,1,62.5,8|0,0:0|0:0,0:0:0:0:
196,196,34883,2,0,P|191:226|197:257,1,62.5
272,316,35232,6,0,P|278:346|273:376,2,62.5,4|0|0,0:0|0:0|0:0,0:0:0:0:
88,348,35930,2,0,P|52:352|8:340,1,62.5,8|0,0:0|0:0,0:0:0:0:
68,264,36278,2,0,P|60:232|72:192,1,62.5
132,140,36627,6,0,P|132:108|108:64,2,62.5,8|0|0,0:0|0:0|0:0,0:0:0:0:
308,216,37325,2,0,L|380:216,2,62.5,8|0|0,0:0|0:0|0:0,0:0:0:0:
244,136,37848,1,0,0:0:0:0:
244,136,38023,6,0,P|248:76|308:24,1,125,4|0,0:0|0:0,0:0:0:0:
332,112,38546,2,0,L|400:112,1,62.5,0|8,0:0|0:0,0:0:0:0:
308,216,38895,2,0,L|176:216,1,125
132,136,39418,6,0,L|44:136,1,62.5,8|0,0:0|0:0,0:0:0:0:
8,208,39767,1,0,0:0:0:0:
183,216,40116,2,0,P|179:256|167:276,1,62.5
244,380,40464,2,0,P|242:348|253:319,1,62.5
328,260,40813,6,0,L|464:240,1,125,4|0,0:0|0:0,0:0:0:0:
276,164,41511,2,0,L|192:176,1,62.5,8|0,0:0|0:0,0:0:0:0:
120,192,41860,2,0,L|105:131,1,62.5
168,36,42209,6,0,L|181:97,1,62.5,8|0,0:0|0:0,0:0:0:0:
264,76,42557,2,0,L|328:68,1,62.5
428,64,42906,2,0,P|472:104|480:188,1,125,8|0,0:0|0:0,0:0:0:0:
428,244,43430,1,0,0:0:0:0:
364,176,43604,6,0,P|300:188|260:256,1,125,4|0,0:0|0:0,0:0:0:0:
232,316,44127,1,0,0:0:0:0:
144,284,44302,2,0,B|179:253|179:253|200:176,1,125,8|0,0:0|0:0,0:0:0:0:
108,168,44825,1,0,0:0:0:0:
65,258,44999,6,0,B|50:332|124:368,2,125,8|0|8,0:0|0:0|0:0,0:0:0:0:
108,168,45871,1,0,0:0:0:0:
196,132,46046,1,0,0:0:0:0:
288,144,46220,1,0,0:0:0:0:
372,184,46395,6,0,P|416:192|444:180,1,62.5,4|0,0:0|0:0,0:0:0:0:
476,100,46743,2,0,P|428:96|396:108,1,62.5
372,184,47092,1,2,0:0:0:0:
204,96,47441,6,0,L|140:96,1,62.5,0|2,0:0|0:0,0:0:0:0:
344,24,47964,2,0,L|407:23,1,62.5,0|2,0:0|0:0,0:0:0:0:
400,244,48488,6,0,L|368:312,1,62.5,8|0,0:0|0:0,0:0:0:0:
280,316,48837,2,0,L|312:248,1,62.5
244,200,49185,6,0,L|100:200,1,125,4|0,0:0|0:0,0:0:0:0:
124,104,49709,1,0,0:0:0:0:
48,156,49883,2,0,L|28:215,1,62.5,8|0,0:0|0:0,0:0:0:0:
84,280,50232,1,0,0:0:0:0:
148,348,50406,1,0,0:0:0:0:
212,280,50581,6,0,P|284:268|348:288,1,125,8|0,0:0|0:0,0:0:0:0:
416,312,51104,1,0,0:0:0:0:
416,311,51278,2,0,L|416:249,1,62.5,8|0,0:0|0:0,0:0:0:0:
492,258,51627,2,0,L|492:196,1,62.5
452,112,51976,6,0,P|393:127|335:105,1,125,4|0,0:0|0:0,0:0:0:0:
392,32,52499,1,0,0:0:0:0:
300,28,52674,2,0,L|236:28,1,62.5,8|0,0:0|0:0,0:0:0:0:
168,92,53023,1,0,0:0:0:0:
108,164,53197,1,0,0:0:0:0:
32,221,53371,2,0,P|15:162|36:104,1,125,8|0,0:0|0:0,0:0:0:0:
108,164,53895,1,0,0:0:0:0:
108,164,54069,2,0,P|124:196|120:232,1,62.5,8|0,0:0|0:0,0:0:0:0:
196,300,54418,2,0,P|192:268|216:228,1,62.5
272,176,54767,6,0,L|404:176,1,125,4|0,0:0|0:0,0:0:0:0:
468,240,55290,1,0,0:0:0:0:
376,260,55464,2,0,P|388:292|428:324,1,62.5,8|0,0:0|0:0,0:0:0:0:
468,240,55813,1,0,0:0:0:0:
397,176,55988,1,0,0:0:0:0:
304,192,56162,6,0,P|252:144|184:144,1,125,8|0,0:0|0:0,0:0:0:0:
120,192,56685,1,0,0:0:0:0:
120,192,56860,2,0,L|120:272,1,62.5,8|0,0:0|0:0,0:0:0:0:
36,188,57209,2,0,L|36:104,1,62.5
104,64,57557,5,4,0:0:0:0:
104,64,57732,1,0,0:0:0:0:
192,28,57906,1,0,0:0:0:0:
192,28,58081,1,0,0:0:0:0:
272,76,58255,2,0,L|344:76,1,62.5,8|0,0:0|0:0,0:0:0:0:
428,76,58604,1,0,0:0:0:0:
428,76,58778,1,0,0:0:0:0:
408,168,58953,6,0,L|470:168,1,62.5,8|0,0:0|0:0,0:0:0:0:
468,260,59302,2,0,L|468:332,1,62.5,8|0,0:0|0:0,0:0:0:0:
388,376,59650,1,8,0:0:0:0:
208,372,59999,2,0,L|208:300,1,62.5
160,240,60348,6,0,P|100:256|36:232,1,125,4|0,0:0|0:0,0:0:0:0:
100,160,60872,1,0,0:0:0:0:
192,148,61046,2,8,P|232:168|244:208,1,62.5,8|0,0:0|0:0,0:0:0:0:
252,276,61395,2,0,P|292:272|312:252,1,62.5
380,320,61743,6,0,P|400:261|384:200,1,125,8|0,0:0|0:0,0:0:0:0:
296,172,62267,1,0,0:0:0:0:
296,172,62441,2,0,L|296:108,1,62.5,8|0,0:0|0:0,0:0:0:0:
200,108,62790,2,0,L|200:40,1,62.5
104,48,63139,6,0,L|42:48,1,62.5,4|0,0:0|0:0,0:0:0:0:
96,132,63488,2,0,L|96:204,1,62.5
184,224,63837,2,0,L|184:296,1,62.5,8|0,0:0|0:0,0:0:0:0:
264,332,64185,1,0,0:0:0:0:
352,304,64360,1,0,0:0:0:0:
368,208,64534,6,0,P|432:204|488:236,1,125,8|0,0:0|0:0,0:0:0:0:
412,294,65057,1,0,0:0:0:0:
412,294,65232,2,0,P|382:305|334:298,1,62.5
284,240,65581,2,0,L|288:164,1,62.5
360,116,65930,6,0,P|387:28|322:92,1,250,4|0,0:0|0:0,0:0:0:0:
184,232,66976,1,0,0:0:0:0:
96,200,67150,1,0,0:0:0:0:
100,296,67325,6,0,P|69:295|40:283,1,62.5,8|0,0:0|0:0,0:0:0:0:
184,232,67674,2,0,P|218:231|256:212,1,62.5
320,256,68023,2,0,P|324:216|316:188,1,62.5,8|0,0:0|0:0,0:0:0:0:
368,128,68371,2,0,P|340:116|309:115,1,62.5
220,144,68720,6,0,P|160:128|116:64,1,125,4|0,0:0|0:0,0:0:0:0:
28,72,69243,1,0,0:0:0:0:
28,72,69418,2,0,P|41:99|42:130,1,62.5,8|0,0:0|0:0,0:0:0:0:
20,220,69767,1,0,0:0:0:0:
92,284,69941,1,0,0:0:0:0:
156,352,70116,6,0,P|183:297|175:236,1,125,8|0,0:0|0:0,0:0:0:0:
260,92,70813,2,0,P|292:84|324:90,1,62.5,8|0,0:0|0:0,0:0:0:0:
412,108,71162,1,0,0:0:0:0:
448,20,71337,1,0,0:0:0:0:
508,92,71511,6,0,P|496:156|432:200,1,125,4|0,0:0|0:0,0:0:0:0:
360,192,72034,1,0,0:0:0:0:
360,192,72209,2,0,L|372:256,1,62.5,8|0,0:0|0:0,0:0:0:0:
344,344,72557,1,0,0:0:0:0:
252,328,72732,1,0,0:0:0:0:
152,312,72906,6,0,B|180:216|180:216|164:176,1,125,8|0,0:0|0:0,0:0:0:0:
84,156,73430,1,0,0:0:0:0:
83,155,73604,2,0,P|53:149|22:152,1,62.5,8|0,0:0|0:0,0:0:0:0:
68,72,73953,2,0,P|98:75|129:69,1,62.5
220,16,74302,6,0,L|204:152,1,125,4|0,0:0|0:0,0:0:0:0:
300,148,74825,1,0,0:0:0:0:
300,148,74999,2,0,L|312:216,1,62.5,8|0,0:0|0:0,0:0:0:0:
308,304,75348,1,0,0:0:0:0:
236,244,75523,1,0,0:0:0:0:
168,176,75697,6,0,L|36:192,1,125,8|0,0:0|0:0,0:0:0:0:
4,276,76220,1,0,0:0:0:0:
96,264,76395,2,0,P|124:260|156:272,1,62.5,8|0,0:0|0:0,0:0:0:0:
213,352,76743,2,0,P|238:333|252:304,1,62.5
244,212,77092,6,0,B|312:220|312:220|341:272,1,125,4|0,0:0|0:0,0:0:0:0:
416,328,77616,1,0,0:0:0:0:
416,328,77790,2,0,L|429:266,1,62.5,8|0,0:0|0:0,0:0:0:0:
432,176,78139,1,0,0:0:0:0:
360,104,78313,1,0,0:0:0:0:
292,32,78488,6,0,L|436:8,1,125,8|0,0:0|0:0,0:0:0:0:
360,104,79011,1,0,0:0:0:0:
264,124,79185,2,0,L|180:140,1,62.5,8|0,0:0|0:0,0:0:0:0:
108,184,79534,2,0,L|164:216,1,62.5
352,164,79883,6,0,P|315:213|317:274,1,125,4|0,0:0|0:0,0:0:0:0:
232,356,80406,1,0,0:0:0:0:
232,356,80581,2,0,P|224:294|186:245,1,125,8|0,0:0|0:0,0:0:0:0:
127,331,81103,1,0,0:0:0:0:
127,331,81278,6,0,P|101:347|71:351,1,62.5,8|0,0:0|0:0,0:0:0:0:
48,260,81627,2,0,P|71:240|85:212,1,62.5
92,116,81976,1,8,0:0:0:0:
320,176,82325,2,0,L|258:176,1,62.5
256,276,82674,6,0,L|400:276,1,125,4|0,0:0|0:0,0:0:0:0:
472,316,83197,1,0,0:0:0:0:
448,200,83371,2,0,L|531:200,1,62.5,8|0,0:0|0:0,0:0:0:0:
472,316,83721,2,0,L|472:404,1,62.5
381,276,84069,6,0,P|352:200|376:144,1,125
388,64,84593,1,0,0:0:0:0:
288,16,84767,2,0,P|260:25|215:21,1,62.5,8|0,0:0|0:0,0:0:0:0:
100,72,85116,2,0,P|144:76|171:102,1,62.5
108,172,85464,6,0,P|100:204|120:248,1,62.5,4|0,0:0|0:0,0:0:0:0:
200,196,85813,2,0,L|280:196,1,62.5
356,200,86162,2,0,L|356:137,1,62.5,8|0,0:0|0:0,0:0:0:0:
432,204,86511,2,0,L|432:272,1,62.5
344,312,86860,6,0,L|198:313,1,125,8|0,0:0|0:0,0:0:0:0:
260,220,87383,1,0,0:0:0:0:
260,220,87557,2,0,L|135:220,1,125,8|0,0:0|0:0,0:0:0:0:
132,120,88081,1,0,0:0:0:0:
40,164,88255,6,0,P|16:228|36:284,1,125,4|0,0:0|0:0,0:0:0:0:
120,328,88779,1,0,0:0:0:0:
124,232,88953,2,0,P|193:218|264:252,1,125,8|0,0:0|0:0,0:0:0:0:
336,312,89476,1,0,0:0:0:0:
336,312,89650,6,0,P|278:310|258:328,1,62.5,8|0,0:0|0:0,0:0:0:0:
388,376,89999,2,0,P|408:352|416:320,1,62.5
416,220,90348,2,0,P|448:212|480:220,1,62.5,8|0,0:0|0:0,0:0:0:0:
356,148,90697,2,0,P|324:140|292:148,1,62.5,8|0,0:0|0:0,0:0:0:0:
228,80,91046,6,0,P|200:140|212:212,1,125,4|0,0:0|0:0,0:0:0:0:
292,236,91569,1,0,0:0:0:0:
292,236,91743,2,0,P|300:256|284:308,1,62.5,8|0,0:0|0:0,0:0:0:0:
216,348,92092,2,0,L|129:347,1,62.5
96,272,92441,6,0,P|108:228|92:180,1,62.5,8|0,0:0|0:0,0:0:0:0:
160,124,92790,2,0,P|128:112|92:120,1,62.5
12,172,93139,1,8,0:0:0:0:
456,48,93488,2,0,P|427:59|396:57,1,62.5
252,132,93837,6,0,P|264:88|247:46,1,62.5,8|0,0:0|0:0,0:0:0:0:
208,0,94185,1,0,0:0:0:0:
172,76,94360,2,0,L|98:89,1,62.5,8|0,0:0|0:0,0:0:0:0:
40,148,94709,2,0,P|48:201|76:169,1,125,8|0,0:0|0:0,0:0:0:0:
160,216,95232,6,0,P|166:253|155:288,1,62.5,8|0,0:0|0:0,0:0:0:0:
72,292,95581,1,0,0:0:0:0:
124,360,95755,2,0,L|268:360,1,125,8|0,0:0|0:0,0:0:0:0:
336,356,96278,1,8,0:0:0:0:
416,188,96627,6,0,P|416:219|428:247,2,62.5,8|0|0,0:0|0:0|0:0,0:0:0:0:
468,92,97150,1,8,0:0:0:0:
332,28,98023,2,0,P|352:84|316:160,1,125
192,88,98720,6,0,L|130:88,1,62.5,8|0,0:0|0:0,0:0:0:0:
10,156,99069,2,0,L|72:156,1,62.5
154,188,99418,5,8,0:0:0:0:
242,228,99592,1,0,0:0:0:0:
326,260,99767,1,0,0:0:0:0:
390,198,99941,2,0,P|410:256|394:316,1,125,8|8,0:0|0:0,0:0:0:0:
100,368,100813,5,8,0:0:0:0:
124,276,100987,1,0,0:0:0:0:
154,188,101161,1,0,0:0:0:0:
216,124,101337,2,0,P|156:104|76:132,1,125,8|8,0:0|0:0,0:0:0:0:
124,276,102209,5,8,0:0:0:0:
208,240,102382,1,0,0:0:0:0:
292,200,102556,1,0,0:0:0:0:
380,160,102732,1,8,0:0:0:0:
252,96,103604,6,0,L|328:88,1,62.5
391,54,103953,2,0,L|404:120,1,62.5
444,200,104302,1,0,0:0:0:0:
364,248,104476,1,0,0:0:0:0:
264,212,104650,1,0,0:0:0:0:
172,184,104825,1,0,0:0:0:0:
48,284,104999,5,4,0:0:0:0:
256,192,105174,12,0,109185,0:0:0:0:
