osu file format v13

[General]
AudioFilename: I will.mp3
AudioLeadIn: 0
PreviewTime: 48303
Countdown: 0
SampleSet: Soft
StackLeniency: 0.7
Mode: 0
LetterboxInBreaks: 0
WidescreenStoryboard: 0

[Editor]
DistanceSpacing: 1.2
BeatDivisor: 4
GridSize: 4
TimelineZoom: 1.8

[Metadata]
Title:I will
TitleUnicode:I will
Artist:solfa feat.Chata
ArtistUnicode:solfa feat.茶太
Creator:Fycho
Version:Normal
Source:晴のちきっと菜の花びより
Tags:Parasol Laurier Harenochi kitto nanohana biyori galgame eroge
BeatmapID:567608
BeatmapSetID:246416

[Difficulty]
HPDrainRate:3
CircleSize:3
OverallDifficulty:3
ApproachRate:4
SliderMultiplier:2.2
SliderTickRate:1

[Events]
//Background and Video events
0,0,"bg.jpg",0,0
Video,0,"OP.avi"
//Break Periods
//Storyboard Layer 0 (Background)
//Storyboard Layer 1 (Fail)
//Storyboard Layer 2 (Pass)
//Storyboard Layer 3 (Foreground)
//Storyboard Sound Samples

[TimingPoints]
1647,697.674418604651,4,2,1,60,1,0
1647,-125,4,2,2,40,0,0
2693,-125,4,2,2,30,0,0
3042,-125,4,2,2,40,0,0
3565,-125,4,2,2,30,0,0
4263,-125,4,2,2,40,0,0
7577,-125,4,2,2,30,0,0
8100,-125,4,2,2,40,0,0
9146,-125,4,2,2,30,0,0
9844,-125,4,2,2,40,0,0
12112,-125,4,2,1,50,0,0
12460,-125,4,2,1,30,0,0
12809,-125,4,2,1,40,0,0
36181,-125,4,2,2,40,0,0
36530,-125,4,2,1,40,0,0
37577,-125,4,2,2,40,0,0
37751,-125,4,2,1,40,0,0
38972,-125,4,2,2,40,0,0
39321,-125,4,2,1,40,0,0
43158,-125,4,2,2,40,0,0
43507,-125,4,2,1,50,0,0
46298,-125,4,2,3,50,0,0
48740,-125,4,2,2,40,0,0
49088,-125,4,2,1,70,0,1
70716,-125,4,2,3,60,0,0
70803,-125,4,2,1,70,0,0
71414,-125,4,2,1,70,0,1
81181,-125,4,2,2,70,0,1
81530,-125,4,2,1,70,0,1
93391,-125,4,2,3,50,0,1
93740,-125,4,2,2,50,0,0
93827,-125,4,2,2,30,0,0
104205,-125,4,2,2,40,0,0
104902,-125,4,2,2,50,0,0
104990,-125,4,2,2,20,0,0
107693,-125,4,2,2,10,0,0
109088,-125,4,2,2,5,0,0

[Colours]
Combo1 : 255,176,227
Combo2 : 79,247,121
Combo3 : 255,132,132
Combo4 : 55,215,255

[HitObjects]
71,139,1647,6,0,P|42:177|47:269,2,132,4|0|2,0:0|0:0|0:0,0:0:0:0:
139,58,3042,2,0,L|357:89,1,220,6|2,0:0|0:0,0:0:0:0:
500,156,4437,6,0,P|487:205|448:240,1,88,6|0,0:0|0:0,0:0:0:0:
360,261,5135,2,0,L|154:263,2,176,2|6|2,0:0|0:0|0:0,0:0:0:0:
356,49,7228,6,0,P|241:66|184:149,1,220,4|2,0:0|0:0,0:0:0:0:
212,301,8623,2,0,P|278:304|353:298,2,132,2|0|2,0:0|0:0|0:0,0:0:0:0:
252,203,10019,5,2,0:0:0:0:
124,35,10716,1,2,0:0:0:0:
59,236,11414,2,0,L|43:327,1,88,6|4,0:0|3:0,0:0:0:0:
145,352,12112,1,8,2:0:0:0:
242,313,12460,1,2,3:0:0:0:
344,336,12809,6,0,P|375:291|379:250,1,88,6|8,0:0|0:0,0:0:0:0:
343,159,13507,1,0,1:2:0:0:
132,171,14205,2,0,L|145:69,2,88,2|2|0,0:0|0:0|1:0,0:0:0:0:
86,266,15251,1,0,0:0:0:0:
162,339,15600,6,0,B|225:369|275:315|339:346,1,176,2|0,0:0|1:0,0:0:0:0:
438,160,16995,2,0,L|342:177,1,88,2|2,0:0|0:0,0:0:0:0:
246,157,17693,1,0,1:0:0:0:
181,240,18042,1,2,0:3:0:0:
75,234,18391,6,0,P|44:161|83:70,2,176,2|0|2,0:0|1:0|0:0,0:0:0:0:
179,222,20135,1,2,0:0:0:0:
181,327,20484,2,0,L|272:321,1,88,0|0,1:0|0:0,0:0:0:0:
373,311,21181,6,0,P|408:258|394:147,1,176,2|0,0:0|1:0,0:0:0:0:
296,114,22228,1,0,0:0:0:0:
214,181,22577,2,0,L|222:273,1,88,2|2,0:0|0:0,0:0:0:0:
163,356,23274,1,0,1:0:0:0:
60,330,23623,1,2,0:3:0:0:
78,225,23972,6,0,P|75:116|72:49,1,176,6|0,0:0|1:0,0:0:0:0:
177,53,25019,1,2,0:0:0:0:
233,141,25367,2,0,L|226:232,2,88,2|2|0,0:0|0:0|1:0,0:0:0:0:
303,62,26414,1,0,0:0:0:0:
406,40,26763,6,0,B|450:59|445:108|445:108|434:215,1,176,2|0,0:0|1:0,0:0:0:0:
341,246,27809,2,0,L|351:151,1,88,2|2,0:0|0:0,0:0:0:0:
244,155,28507,1,2,0:0:0:0:
155,212,28856,2,0,L|43:224,2,88,0|2|2,1:0|0:3|0:0,0:0:0:0:
298,56,30251,6,0,P|333:85|344:126,1,88,0|2,1:0|0:0,0:0:0:0:
242,154,30949,2,0,P|230:224|215:345,1,176,2|0,0:0|1:0,0:0:0:0:
116,297,31995,1,0,0:0:0:0:
75,199,32344,6,0,P|18:197|-23:215,2,88,2|8|0,0:0|0:0|1:0,0:0:0:0:
225,50,33740,1,2,0:0:0:0:
318,97,34088,1,2,0:0:0:0:
413,51,34437,2,0,L|515:54,1,88,0|2,1:0|0:3,0:0:0:0:
503,159,35135,6,0,L|307:153,1,176,6|0,0:0|1:0,0:0:0:0:
240,213,36181,1,2,0:0:0:0:
147,263,36530,2,0,P|73:261|21:176,1,176,2|0,0:0|1:0,0:0:0:0:
42,77,37577,1,2,0:0:0:0:
135,28,37926,6,0,L|134:121,1,88,2|2,0:0|0:0,0:0:0:0:
232,154,38623,2,0,L|232:66,1,88,0|2,1:0|0:0,0:0:0:0:
335,92,39321,2,0,L|334:185,1,88,2|2,0:0|0:0,0:0:0:0:
281,271,40019,1,0,1:0:0:0:
359,341,40367,1,2,0:3:0:0:
463,322,40716,6,0,P|511:249|494:161,1,176,2|0,0:0|1:0,0:0:0:0:
391,154,41763,2,0,L|300:185,2,88,0|2|2,0:0|0:0|0:0,0:0:0:0:
385,48,42809,2,0,L|294:78,1,88,0|2,1:0|0:0,0:0:0:0:
205,119,43507,6,0,P|75:140|38:117,1,176,6|0,0:0|1:0,0:0:0:0:
16,223,44553,1,0,0:0:0:0:
108,273,44902,2,0,P|95:316|97:367,1,88,2|2,0:0|0:0,0:0:0:0:
199,338,45600,2,0,L|295:334,1,88,0|4,1:0|0:0,0:0:0:0:
391,352,46298,6,0,P|404:291|400:259,1,88,12|8,0:0|0:0,0:0:0:0:
382,162,46995,2,0,L|251:185,1,132,8|8,0:0|0:0,0:0:0:0:
149,209,47867,2,0,L|152:165,1,44,8|8,0:0|0:0,0:0:0:0:
114,66,48391,2,0,L|201:76,1,88,8|4,0:0|0:0,0:0:0:0:
294,26,49088,6,0,P|340:63|460:45,1,176,6|8,0:0|0:0,0:0:0:0:
484,152,50135,1,2,0:0:0:0:
379,166,50484,2,0,P|367:208|369:252,1,88,0|2,0:0|0:0,0:0:0:0:
432,337,51181,1,8,0:0:0:0:
330,366,51530,1,0,0:0:0:0:
263,283,51879,6,0,P|157:275|88:296,1,176,2|8,0:0|0:0,0:0:0:0:
46,198,52926,2,0,L|48:109,2,88,2|0|2,0:0|0:0|0:0,0:0:0:0:
137,145,53972,1,8,0:0:0:0:
234,185,54321,1,2,0:0:0:0:
315,117,54670,6,0,L|504:85,1,176,6|8,0:0|0:0,0:0:0:0:
469,191,55716,2,0,L|483:299,1,88,2|0,0:0|0:0,0:0:0:0:
379,246,56414,1,2,0:0:0:0:
399,349,56763,1,8,0:0:0:0:
298,315,57112,1,2,0:0:0:0:
198,349,57460,6,0,P|114:362|45:289,1,176,6|8,0:0|0:0,0:0:0:0:
30,200,58507,1,2,0:0:0:0:
96,118,58856,2,0,P|180:105|243:161,1,176,0|10,0:0|0:0,0:0:0:0:
298,252,59902,1,2,0:0:0:0:
391,202,60251,6,0,L|413:112,2,88,6|0|8,0:0|0:0|0:0,0:0:0:0:
448,291,61298,1,2,0:0:0:0:
352,336,61646,2,0,P|215:331|170:352,1,176,0|8,0:0|0:0,0:0:0:0:
123,256,62693,1,0,0:0:0:0:
17,268,63042,6,0,P|5:227|6:183,1,88,2|0,0:0|0:0,0:0:0:0:
63,94,63740,1,8,0:0:0:0:
150,151,64088,1,2,0:0:0:0:
229,80,64437,2,0,P|284:69|328:70,1,88,0|2,0:0|0:0,0:0:0:0:
412,112,65135,2,0,P|419:56|413:13,1,88,8|2,0:0|0:0,0:0:0:0:
510,72,65833,6,0,P|506:130|505:263,1,176,6|8,0:0|0:0,0:0:0:0:
432,325,66879,1,2,0:0:0:0:
340,269,67228,1,0,0:0:0:0:
245,316,67577,2,0,L|146:342,2,88,2|8|2,0:0|0:0|0:0,0:0:0:0:
340,269,68623,6,0,P|372:173|344:97,1,176,2|8,0:0|0:0,0:0:0:0:
243,98,69670,2,0,L|233:187,2,88,2|0|2,0:0|0:0|0:0,0:0:0:0:
164,27,70716,1,8,0:0:0:0:
113,119,71065,1,10,0:0:0:0:
10,143,71414,6,0,P|3:187|25:322,1,176,6|8,0:0|0:0,0:0:0:0:
125,293,72460,1,2,0:0:0:0:
229,275,72809,2,0,P|240:232|238:188,1,88,0|2,0:0|0:0,0:0:0:0:
163,114,73507,1,8,0:0:0:0:
246,49,73856,1,2,0:0:0:0:
318,125,74205,6,0,P|424:133|493:112,1,176,2|8,0:0|0:0,0:0:0:0:
503,218,75251,2,0,L|501:307,2,88,2|0|2,0:0|0:0|0:0,0:0:0:0:
397,225,76298,1,8,0:0:0:0:
333,309,76646,1,2,0:0:0:0:
230,284,76995,6,0,L|41:316,1,176,6|8,0:0|0:0,0:0:0:0:
19,214,78042,2,0,P|4:133|13:117,1,88,2|0,0:0|0:0,0:0:0:0:
76,52,78740,1,2,0:0:0:0:
181,52,79088,1,8,0:0:0:0:
233,143,79437,1,2,0:0:0:0:
327,94,79786,6,0,P|411:81|480:154,1,176,6|8,0:0|0:0,0:0:0:0:
380,185,80832,1,2,0:0:0:0:
432,276,81181,2,0,P|347:288|284:232,1,176,4|8,0:0|0:0,0:0:0:0:
200,299,82228,1,2,0:0:0:0:
113,237,82577,6,0,L|91:327,2,88,6|0|8,0:0|0:0|0:0,0:0:0:0:
29,171,83623,1,2,0:0:0:0:
89,84,83972,2,0,P|226:89|271:68,1,176,0|8,0:0|0:0,0:0:0:0:
323,158,85019,1,2,0:0:0:0:
416,109,85367,6,0,P|428:150|427:194,1,88,2|2,0:0|0:0,0:0:0:0:
341,257,86065,1,8,0:0:0:0:
422,324,86414,1,2,0:0:0:0:
321,355,86763,2,0,P|266:366|222:365,1,88,0|2,0:0|0:0,0:0:0:0:
128,364,87460,2,0,P|124:320|131:276,1,88,8|0,0:0|0:0,0:0:0:0:
85,181,88158,6,0,P|143:185|276:186,1,176,6|8,0:0|0:0,0:0:0:0:
337,113,89205,1,2,0:0:0:0:
410,188,89553,1,0,0:0:0:0:
486,115,89902,2,0,L|482:19,2,88,2|8|2,0:0|0:0|0:0,0:0:0:0:
410,188,90949,6,0,P|378:284|406:360,1,176,2|8,0:0|0:0,0:0:0:0:
298,324,91995,2,0,L|182:331,2,88,2|0|2,0:0|0:0|0:0,0:0:0:0:
277,219,93042,2,0,L|179:225,2,88,8|8|6,0:0|0:0|0:0,0:0:0:0:
256,192,93914,12,2,96530,0:0:0:0:
256,114,97926,5,2,0:0:0:0:
256,114,99321,6,0,L|242:280,1,132,6|2,0:0|0:0,0:0:0:0:
300,335,100193,2,0,P|354:349|436:304,1,132,2|6,0:0|0:0,0:0:0:0:
435,162,101240,2,0,L|332:157,1,88,2|2,0:0|0:0,0:0:0:0:
198,101,102112,6,0,P|96:97|42:87,1,132,6|2,0:0|0:0,0:0:0:0:
325,41,103507,1,2,0:0:0:0:
196,208,104205,2,0,L|203:295,2,88,2|2|6,0:0|0:0|0:0,0:0:0:0:
256,192,105077,12,0,109088,0:0:0:0:
