osu file format v13

[General]
AudioFilename: I will.mp3
AudioLeadIn: 0
PreviewTime: 48303
Countdown: 0
SampleSet: Soft
StackLeniency: 0.7
Mode: 0
LetterboxInBreaks: 0
WidescreenStoryboard: 0

[Editor]
DistanceSpacing: 1.2
BeatDivisor: 4
GridSize: 4
TimelineZoom: 1.8

[Metadata]
Title:I will
TitleUnicode:I will
Artist:solfa feat.Chata
ArtistUnicode:solfa feat.茶太
Creator:Fycho
Version:Hard
Source:晴のちきっと菜の花びより
Tags:Parasol Laurier Harenochi kitto nanohana biyori galgame eroge
BeatmapID:567606
BeatmapSetID:246416

[Difficulty]
HPDrainRate:5
CircleSize:3.5
OverallDifficulty:5
ApproachRate:7
SliderMultiplier:2.8
SliderTickRate:1

[Events]
//Background and Video events
0,0,"bg.jpg",0,0
Video,0,"OP.avi"
//Break Periods
//Storyboard Layer 0 (Background)
//Storyboard Layer 1 (Fail)
//Storyboard Layer 2 (Pass)
//Storyboard Layer 3 (Foreground)
//Storyboard Sound Samples

[TimingPoints]
1647,697.674418604651,4,2,1,60,1,0
1647,-125,4,2,2,40,0,0
2693,-125,4,2,2,30,0,0
3042,-125,4,2,2,40,0,0
3565,-125,4,2,2,30,0,0
4263,-125,4,2,2,40,0,0
4960,-125,4,2,2,30,0,0
5135,-125,4,2,2,40,0,0
9146,-125,4,2,2,30,0,0
9844,-125,4,2,2,40,0,0
12112,-125,4,2,1,50,0,0
12460,-125,4,2,1,30,0,0
12809,-100,4,2,1,40,0,0
36181,-100,4,2,2,40,0,0
36530,-100,4,2,1,40,0,0
37577,-100,4,2,2,40,0,0
37751,-100,4,2,1,40,0,0
38972,-100,4,2,2,40,0,0
39321,-100,4,2,1,40,0,0
41763,-100,4,2,2,40,0,0
42112,-100,4,2,1,40,0,0
43158,-100,4,2,2,40,0,0
43507,-100,4,2,1,50,0,0
46298,-100,4,2,3,50,0,0
48740,-100,4,2,2,40,0,0
49088,-100,4,2,1,70,0,1
70716,-100,4,2,3,60,0,0
70803,-100,4,2,1,70,0,0
71414,-100,4,2,1,70,0,1
81181,-100,4,2,2,70,0,1
81530,-100,4,2,1,70,0,1
93391,-100,4,2,3,50,0,1
93740,-100,4,2,2,50,0,0
93827,-100,4,2,2,30,0,0
95833,-100,4,2,2,10,0,0
96181,-200,4,2,2,30,0,0
98623,-200,4,2,2,40,0,0
99321,-200,4,2,2,30,0,0
104205,-200,4,2,2,40,0,0
104990,-200,4,2,2,20,0,0
107693,-200,4,2,2,10,0,0
109088,-200,4,2,2,5,0,0

[Colours]
Combo1 : 255,176,227
Combo2 : 79,247,121
Combo3 : 255,132,132
Combo4 : 55,215,255

[HitObjects]
216,194,1647,6,0,B|271:177|308:202|308:202|348:200|380:181,2,168,4|0|2,0:0|0:0|0:0,0:0:0:0:
126,217,2867,2,0,P|130:189|135:161,1,56,0|6,0:0|0:0,0:0:0:0:
310,47,3914,2,0,P|304:99|297:170,1,112,2|2,0:0|0:0,0:0:0:0:
362,230,4437,6,0,P|373:146|382:63,1,168,6|2,0:0|0:0,0:0:0:0:
382,63,5135,1,2,0:0:0:0:
125,72,5833,2,0,P|100:148|157:228,1,168,6|0,0:0|0:0,0:0:0:0:
211,256,6530,2,0,L|297:244,2,74.6666666666667,2|0|0,0:0|0:0|0:0,0:0:0:0:
148,297,7228,5,4,0:0:0:0:
148,297,8100,2,0,L|155:182,1,112,2|0,0:0|0:0,0:0:0:0:
149,106,8623,2,0,P|197:94|289:170,1,168,4|2,0:0|0:0,0:0:0:0:
343,300,9495,2,0,L|272:315,2,56,0|2|0,0:0|0:0|0:0,0:0:0:0:
417,272,10019,6,0,P|418:151|414:102,1,168,6|2,0:0|0:0,0:0:0:0:
414,26,10716,2,0,P|352:49|335:93,1,112,2|0,0:0|0:0,0:0:0:0:
303,241,11414,2,0,P|226:243|181:240,1,112,6|4,0:0|3:0,0:0:0:0:
249,95,12112,1,8,2:0:0:0:
303,241,12460,1,2,3:0:0:0:
461,210,12809,6,0,P|489:149|449:85,2,140,6|8|0,0:0|0:0|1:2,0:0:0:0:
313,56,13856,1,2,0:0:0:0:
238,95,14030,1,2,0:0:0:0:
160,62,14205,6,0,P|130:102|132:191,1,140,2|2,0:0|0:0,0:0:0:0:
181,256,14728,2,0,P|180:291|171:331,1,70,0|0,0:0|1:0,0:0:0:0:
255,306,15077,2,0,P|289:297|332:291,1,70,0|0,0:0|0:0,0:0:0:0:
402,321,15426,1,2,0:0:0:0:
456,257,15600,6,0,P|459:166|465:117,1,140,2|8,0:0|0:0,0:0:0:0:
305,63,16298,2,0,P|220:94|169:79,1,140,0|2,1:0|0:0,0:0:0:0:
95,54,16821,1,2,0:0:0:0:
30,107,16995,6,0,P|20:142|25:180,1,70,2|0,0:0|0:0,0:0:0:0:
86,231,17344,2,0,P|88:262|91:302,1,70,2|0,0:0|0:0,0:0:0:0:
160,189,17693,2,0,P|227:179|308:178,1,140,0|2,1:0|3:0,0:0:0:0:
436,274,18391,6,0,P|462:203|427:140,2,140,2|8|0,0:0|0:0|1:0,0:0:0:0:
272,328,19437,2,0,L|285:248,1,70,2|2,0:0|0:0,0:0:0:0:
211,214,19786,6,0,P|143:225|53:206,1,140,2|2,0:0|0:0,0:0:0:0:
65,129,20309,1,0,0:0:0:0:
98,51,20484,2,0,P|177:53|223:105,1,140,0|0,1:0|0:0,0:0:0:0:
280,156,21007,1,2,0:0:0:0:
359,129,21181,6,0,P|368:90|369:58,1,70,2|0,0:0|0:0,0:0:0:0:
446,134,21530,2,8,P|440:167|439:210,1,70,8|0,0:0|0:0,0:0:0:0:
502,258,21879,2,0,P|427:243|359:272,1,140,0|0,1:0|0:0,0:0:0:0:
217,338,22577,6,0,L|141:334,1,70,2|0,0:0|0:0,0:0:0:0:
72,294,22926,2,0,P|61:252|66:225,1,70,2|0,0:0|0:0,0:0:0:0:
81,144,23274,2,0,L|169:157,1,70,0|0,1:0|0:0,0:0:0:0:
234,149,23623,1,2,0:3:0:0:
234,149,23798,1,2,0:0:0:0:
286,214,23972,6,0,P|361:230|417:186,1,140,6|8,0:0|0:0,0:0:0:0:
334,45,24670,2,0,P|252:48|191:48,1,140,0|2,1:0|0:0,0:0:0:0:
129,110,25193,1,2,0:0:0:0:
45,98,25367,6,0,P|31:65|28:31,1,70,2|0,0:0|0:0,0:0:0:0:
129,109,25716,2,0,P|125:143|113:176,1,70,2|0,0:0|0:0,0:0:0:0:
193,202,26065,2,0,P|257:184|331:208,2,140,0|0|2,1:0|0:0|0:0,0:0:0:0:
87,333,27112,5,8,0:0:0:0:
29,74,27460,2,0,P|19:107|21:146,1,70,0|0,1:0|0:0,0:0:0:0:
59,216,27809,2,0,P|94:217|129:210,1,70,2|2,0:0|0:0,0:0:0:0:
173,280,28158,6,0,P|221:265|321:275,1,140,2|2,0:0|0:0,0:0:0:0:
384,310,28681,1,0,0:0:0:0:
384,310,28856,2,0,P|414:249|409:174,1,140,0|2,1:0|0:3,0:0:0:0:
421,95,29379,1,2,0:0:0:0:
339,114,29553,6,0,P|278:117|192:117,1,140,2|8,0:0|0:0,0:0:0:0:
59,22,30251,2,0,P|76:88|41:163,1,140,0|2,1:0|0:0,0:0:0:0:
127,187,30774,1,2,0:0:0:0:
91,262,30949,6,0,P|79:297|86:336,1,70,2|0,0:0|0:0,0:0:0:0:
159,364,31298,2,0,P|193:356|227:350,1,70,2|0,0:0|0:0,0:0:0:0:
308,328,31646,1,0,1:0:0:0:
295,160,31995,2,0,P|343:154|379:149,1,70,0|2,0:0|0:0,0:0:0:0:
440,106,32344,6,0,P|470:173|454:250,1,140,2|8,0:0|0:0,0:0:0:0:
336,350,33042,2,0,L|196:339,1,140,0|0,1:0|0:0,0:0:0:0:
129,288,33565,1,0,0:0:0:0:
202,246,33740,6,0,P|200:211|193:176,1,70,2|0,0:0|0:0,0:0:0:0:
268,104,34088,2,0,P|269:138|276:173,1,70,2|0,0:0|0:0,0:0:0:0:
316,247,34437,1,0,1:0:0:0:
399,239,34612,1,0,0:0:0:0:
458,298,34786,2,0,P|471:265|481:232,1,70,2|0,0:3|0:0,0:0:0:0:
467,149,35135,5,6,0:0:0:0:
305,196,35484,2,0,L|135:199,1,140,8|0,0:0|1:0,0:0:0:0:
84,224,36007,1,0,0:0:0:0:
47,148,36181,2,0,P|53:102|65:63,1,70,2|0,0:0|0:0,0:0:0:0:
135,44,36530,5,2,0:0:0:0:
302,41,36879,2,0,L|290:118,1,70,2|0,0:0|0:0,0:0:0:0:
289,194,37228,1,0,1:0:0:0:
295,278,37402,1,0,0:0:0:0:
378,286,37577,1,2,0:0:0:0:
419,212,37751,1,2,0:0:0:0:
364,148,37926,6,0,P|313:118|229:133,1,140,2|2,0:0|0:0,0:0:0:0:
158,163,38449,2,0,P|160:194|150:234,1,70,0|0,0:0|1:0,0:0:0:0:
146,315,38798,2,0,L|229:303,1,70,0|2,0:0|0:0,0:0:0:0:
290,267,39146,2,0,L|340:260,2,35,2|0|2,0:0|0:0|0:0,0:0:0:0:
294,98,39670,5,2,0:0:0:0:
367,56,39844,1,0,0:0:0:0:
443,89,40019,2,0,P|455:143|451:239,1,140,0|2,1:0|0:3,0:0:0:0:
373,254,40542,1,2,0:0:0:0:
302,299,40716,6,0,B|246:322|207:295|207:295|192:311|192:337,2,140,2|2|0,0:0|0:0|1:0,0:0:0:0:
373,253,41588,1,0,0:0:0:0:
417,181,41763,2,0,P|416:116|403:91,1,70,0|2,0:0|0:0,0:0:0:0:
335,84,42112,6,0,L|271:118,1,70,2|0,0:0|0:0,0:0:0:0:
189,125,42460,2,0,P|165:92|154:51,1,70,2|0,0:0|0:0,0:0:0:0:
78,31,42809,2,0,P|52:79|56:169,1,140,0|2,1:0|0:0,0:0:0:0:
98,233,43333,1,2,0:0:0:0:
179,213,43507,6,0,P|264:197|322:226,1,140,6|2,0:0|0:0,0:0:0:0:
392,239,44030,1,0,0:0:0:0:
470,209,44205,2,0,L|459:139,1,70,0|0,1:0|0:0,0:0:0:0:
328,75,44553,2,0,L|338:144,1,70,0|0,0:0|0:0,0:0:0:0:
408,79,44902,5,2,0:0:0:0:
393,240,45251,1,2,0:0:0:0:
418,320,45426,1,0,0:0:0:0:
345,355,45600,2,0,P|311:344|276:343,1,70,0|0,1:0|0:0,0:0:0:0:
194,320,45949,2,0,P|195:277|206:249,1,70,4|0,0:0|0:0,0:0:0:0:
251,182,46298,5,12,0:0:0:0:
210,108,46472,1,8,0:0:0:0:
291,88,46646,1,8,0:0:0:0:
333,160,46821,1,8,0:0:0:0:
251,181,46995,6,0,L|223:332,1,140,8|0,0:0|0:0,0:0:0:0:
141,325,47519,2,0,P|48:315|18:274,1,140,8|8,0:0|0:0,0:0:0:0:
27,197,48042,2,0,L|108:181,1,70,8|0,0:0|0:0,0:0:0:0:
161,130,48391,2,0,L|239:144,1,70,8|2,0:0|0:0,0:0:0:0:
311,105,48740,2,0,L|375:167,1,70,4|0,0:0|0:0,0:0:0:0:
443,134,49088,6,0,P|467:199|450:266,1,140,6|0,0:0|0:0,0:0:0:0:
375,305,49612,1,2,0:0:0:0:
293,283,49786,2,0,P|230:278|147:295,1,140,8|0,0:0|0:0,0:0:0:0:
46,162,50484,6,0,P|115:165|192:147,1,140,2|2,0:0|0:0,0:0:0:0:
226,77,51007,1,0,0:0:0:0:
302,42,51181,2,0,P|336:44|371:43,1,70,8|0,0:0|0:0,0:0:0:0:
454,29,51530,2,0,P|460:63|467:97,1,70,0|0,0:0|0:0,0:0:0:0:
425,170,51879,6,0,P|444:234|448:317,1,140,2|0,0:0|0:0,0:0:0:0:
280,320,52577,2,0,P|242:329|201:328,1,70,8|0,0:0|0:0,0:0:0:0:
132,298,52926,1,2,0:0:0:0:
62,344,53100,1,0,0:0:0:0:
24,269,53274,6,0,P|23:170|27:122,1,140,0|2,0:0|0:0,0:0:0:0:
80,64,53798,1,0,0:0:0:0:
163,69,53972,2,0,L|232:74,1,70,8|0,0:0|0:0,0:0:0:0:
314,55,54321,1,2,0:0:0:0:
387,206,54670,6,0,P|422:265|433:334,1,140,6|0,0:0|0:0,0:0:0:0:
349,343,55193,1,2,0:0:0:0:
265,336,55367,2,0,P|196:335|121:335,1,140,8|2,0:0|0:0,0:0:0:0:
50,295,55891,1,0,0:0:0:0:
13,219,56065,6,0,P|27:183|48:154,1,70,0|0,0:0|0:0,0:0:0:0:
107,101,56414,1,2,0:0:0:0:
190,94,56588,1,0,0:0:0:0:
219,172,56763,2,0,P|281:204|350:196,1,140,8|2,0:0|0:0,0:0:0:0:
509,91,57460,6,0,P|497:188|489:259,1,140,6|0,0:0|0:0,0:0:0:0:
446,301,57984,1,2,0:0:0:0:
362,306,58158,2,0,P|357:340|353:375,1,70,8|0,0:0|0:0,0:0:0:0:
270,356,58507,2,0,P|265:321|261:286,1,70,2|0,0:0|0:0,0:0:0:0:
166,245,58856,6,0,P|234:256|302:240,1,140,0|2,0:0|0:0,0:0:0:0:
367,186,59379,1,0,0:0:0:0:
332,109,59553,2,0,P|330:74|326:39,2,70,10|0|2,0:0|0:0|0:0,0:0:0:0:
439,309,60251,6,0,P|469:226|461:173,1,140,6|0,0:0|0:0,0:0:0:0:
394,125,60774,1,2,0:0:0:0:
332,183,60949,2,0,L|242:199,1,70,8|0,0:0|0:0,0:0:0:0:
212,127,61298,2,0,L|133:114,1,70,2|0,0:0|0:0,0:0:0:0:
62,91,61646,6,0,P|42:139|50:241,1,140,0|2,0:0|0:0,0:0:0:0:
116,270,62170,2,0,P|111:304|104:339,1,70,0|8,0:0|0:0,0:0:0:0:
188,336,62519,1,0,0:0:0:0:
268,312,62693,2,0,P|259:246|258:218,1,70,0|0,0:0|0:0,0:0:0:0:
233,162,63042,6,0,P|309:129|380:137,1,140,2|0,0:0|0:0,0:0:0:0:
446,125,63565,1,2,0:0:0:0:
488,199,63740,2,0,P|496:233|496:268,1,70,8|0,0:0|0:0,0:0:0:0:
420,303,64088,2,0,P|410:265|410:228,1,70,2|0,0:0|0:0,0:0:0:0:
324,240,64437,6,0,P|274:270|181:252,1,140,0|2,0:0|0:0,0:0:0:0:
123,216,64960,1,0,0:0:0:0:
123,216,65135,2,0,L|121:302,1,70,8|0,0:0|0:0,0:0:0:0:
117,370,65484,1,2,0:0:0:0:
56,145,65833,6,0,P|108:113|190:106,1,140,6|2,0:0|0:0,0:0:0:0:
263,136,66356,1,2,0:0:0:0:
343,96,66530,2,0,P|346:61|345:26,1,70,8|0,0:0|0:0,0:0:0:0:
388,173,66879,2,0,P|388:207|395:242,1,70,2|0,0:0|0:0,0:0:0:0:
340,306,67228,6,0,P|407:322|471:286,1,140,0|2,0:0|0:0,0:0:0:0:
389,141,67926,2,0,P|394:106|391:71,1,70,8|0,0:0|0:0,0:0:0:0:
312,100,68274,2,0,P|306:135|309:170,1,70,2|0,0:0|0:0,0:0:0:0:
272,245,68623,6,0,P|199:241|132:255,1,140,2|0,0:0|0:0,0:0:0:0:
54,224,69146,1,2,0:0:0:0:
25,144,69321,2,0,P|23:109|34:69,1,70,8|0,0:0|0:0,0:0:0:0:
111,48,69670,1,2,0:0:0:0:
111,48,69844,1,0,0:0:0:0:
194,58,70019,6,0,P|195:92|190:127,1,70,0|2,0:0|0:0,0:0:0:0:
194,211,70367,1,2,0:0:0:0:
108,355,70716,2,0,L|183:338,1,70,8|0,0:0|0:0,0:0:0:0:
256,314,71065,1,10,0:0:0:0:
333,347,71240,1,10,0:0:0:0:
415,358,71414,6,0,P|406:289|394:215,1,140,6|0,0:0|0:0,0:0:0:0:
410,136,71937,1,2,0:0:0:0:
328,105,72112,2,0,B|288:83|240:124|189:102,1,140,8|2,0:0|0:0,0:0:0:0:
129,44,72635,1,0,0:0:0:0:
68,102,72809,6,0,P|28:102|-16:116,1,70,0|0,0:0|0:0,0:0:0:0:
9,193,73158,2,0,L|12:268,1,70,2|0,0:0|0:0,0:0:0:0:
96,331,73507,2,0,L|92:248,1,70,8|0,0:0|0:0,0:0:0:0:
152,201,73856,1,0,0:0:0:0:
303,273,74205,6,0,P|346:220|336:153,2,140,2|0|8,0:0|0:0|0:0,0:0:0:0:
151,200,75251,2,0,P|105:200|71:193,1,70,2|0,0:0|0:0,0:0:0:0:
85,279,75600,6,0,L|116:347,1,70,0|2,0:0|0:0,0:0:0:0:
193,315,75949,2,0,L|262:327,1,70,2|0,0:0|0:0,0:0:0:0:
344,343,76298,2,0,P|349:308|344:273,1,70,8|0,0:0|0:0,0:0:0:0:
304,200,76646,2,0,P|313:156|325:131,1,70,2|0,0:0|0:0,0:0:0:0:
322,49,76995,6,0,P|368:78|457:50,1,140,6|0,0:0|0:0,0:0:0:0:
493,130,77519,1,2,0:0:0:0:
448,200,77693,2,0,P|440:234|440:269,1,70,8|0,0:0|0:0,0:0:0:0:
432,352,78042,1,2,0:0:0:0:
354,320,78216,1,0,0:0:0:0:
282,364,78391,6,0,P|279:292|244:226,1,140,0|2,0:0|0:0,0:0:0:0:
194,168,78914,1,2,0:0:0:0:
156,243,79088,2,0,P|156:285|139:327,1,70,8|0,0:0|0:0,0:0:0:0:
79,360,79437,1,2,0:0:0:0:
54,138,79786,6,0,P|16:193|21:277,1,140,6|0,0:0|0:0,0:0:0:0:
54,338,80309,1,2,0:0:0:0:
120,286,80484,2,0,P|155:281|195:283,1,70,8|0,0:0|0:0,0:0:0:0:
245,345,80833,2,0,P|279:344|314:339,1,70,2|0,0:0|0:0,0:0:0:0:
350,264,81181,6,0,P|436:257|499:267,1,140,4|2,0:0|0:0,0:0:0:0:
509,182,81705,1,0,0:0:0:0:
495,99,81879,2,0,L|487:24,1,70,8|0,0:0|0:0,0:0:0:0:
403,19,82228,1,2,0:0:0:0:
362,92,82402,1,0,0:0:0:0:
279,54,82577,6,0,P|220:63|144:89,1,140,6|0,0:0|0:0,0:0:0:0:
184,168,83100,1,2,0:0:0:0:
114,216,83274,2,0,P|104:267|96:288,1,70,8|0,0:0|0:0,0:0:0:0:
14,296,83623,1,2,0:0:0:0:
20,82,83972,6,0,P|81:105|162:89,1,140,0|2,0:0|0:0,0:0:0:0:
234,67,84495,1,0,0:0:0:0:
305,110,84670,2,0,L|288:193,1,70,8|0,0:0|0:0,0:0:0:0:
362,222,85019,2,0,L|378:147,1,70,2|0,0:0|0:0,0:0:0:0:
286,266,85367,6,0,P|346:300|414:293,1,140,2|2,0:0|0:0,0:0:0:0:
468,228,85891,1,2,0:0:0:0:
493,148,86065,2,0,P|486:113|481:78,1,70,8|0,0:0|0:0,0:0:0:0:
404,43,86414,1,0,0:0:0:0:
329,163,86763,6,0,P|342:213|356:309,1,140,0|2,0:0|0:0,0:0:0:0:
271,304,87286,2,0,P|262:344|256:372,1,70,0|8,0:0|0:0,0:0:0:0:
147,244,87809,2,0,L|60:242,1,70,0|0,0:0|0:0,0:0:0:0:
26,174,88158,6,0,P|88:137|153:148,1,140,6|0,0:0|0:0,0:0:0:0:
235,132,88681,1,2,0:0:0:0:
315,158,88856,2,0,P|325:190|316:229,1,70,8|0,0:0|0:0,0:0:0:0:
244,266,89205,2,0,L|252:340,1,70,2|0,0:0|0:0,0:0:0:0:
334,323,89553,5,0,0:0:0:0:
415,342,89728,1,0,0:0:0:0:
438,261,89902,2,0,P|481:246|514:240,1,70,2|0,0:0|0:0,0:0:0:0:
507,156,90251,2,0,L|491:56,1,70,8|0,0:0|0:0,0:0:0:0:
411,80,90600,2,0,L|424:158,1,70,2|0,0:0|0:0,0:0:0:0:
354,198,90949,6,0,P|269:204|210:167,1,140,2|0,0:0|0:0,0:0:0:0:
147,140,91472,1,2,0:0:0:0:
63,129,91646,2,0,P|35:199|37:268,1,140,8|2,0:0|0:0,0:0:0:0:
194,319,92344,6,0,P|256:311|340:299,2,140,0|2|8,0:0|0:0|0:0,0:0:0:0:
227,155,93391,2,0,P|231:120|238:86,2,70,8|8|6,0:0|0:0|0:0,0:0:0:0:
256,192,93827,12,2,95135,0:0:0:0:
256,192,96181,5,2,0:0:0:0:
256,192,96530,2,0,B|271:151|245:127|258:84,1,105,6|2,0:0|0:0,0:0:0:0:
256,300,97926,1,2,0:0:0:0:
256,300,98623,2,0,P|288:288|356:304,1,105,2|2,0:0|0:0,0:0:0:0:
433,273,99321,6,0,P|447:205|438:167,1,105,6|2,0:0|0:0,0:0:0:0:
309,97,100193,2,0,B|270:117|243:76|201:97,1,105,6|2,0:0|0:0,0:0:0:0:
49,144,101240,2,0,L|44:220,1,70,2|0,0:0|0:0,0:0:0:0:
128,175,101763,2,0,L|129:217,1,35,2|0,0:0|0:0,0:0:0:0:
195,257,102112,6,0,L|186:367,1,105,6|2,0:0|0:0,0:0:0:0:
265,201,103507,2,0,P|328:189|377:190,1,105,2|0,0:0|0:0,0:0:0:0:
445,218,104205,2,0,L|453:184,1,35,2|0,0:0|0:0,0:0:0:0:
465,105,104553,2,0,L|457:34,1,70,2|2,0:0|0:0,0:0:0:0:
256,192,104990,12,0,109088,0:0:0:0:
