osu file format v12

[General]
AudioFilename: Miracle infinity.mp3
AudioLeadIn: 0
PreviewTime: 67230
Countdown: 0
SampleSet: Soft
StackLeniency: 0.7
Mode: 0
LetterboxInBreaks: 0
WidescreenStoryboard: 0

[Editor]
DistanceSpacing: 0.7
BeatDivisor: 4
GridSize: 4

[Metadata]
Title:Miracle infinity
TitleUnicode:ミラクルinfinity
Artist:solfa feat. Chata
ArtistUnicode:solfa feat. 茶太
Creator:Fycho
Version:Insane
Source:ゆめこい ~夢見る魔法少女と恋の呪文~
Tags:Laurier Flower [Minakami Yuki] galgame eroge visual novel opening parasol Yumekoi ~Yume Miru Mahou Shoujo to Koi no Jumon~
BeatmapID:333458
BeatmapSetID:132638

[Difficulty]
HPDrainRate:7
CircleSize:4
OverallDifficulty:7
ApproachRate:9
SliderMultiplier:1.8
SliderTickRate:2

[Events]
//Background and Video events
Video,0,"OP.flv"
0,0,"BG.jpg",0,0
//Break Periods
//Storyboard Layer 0 (Background)
//Storyboard Layer 1 (Fail)
//Storyboard Layer 2 (Pass)
//Storyboard Layer 3 (Foreground)
//Storyboard Sound Samples
//Background Colour Transformations
3,100,163,162,255

[TimingPoints]
564,333.333333333333,4,2,4,40,1,0
730,-100,4,2,1,40,0,0
2397,-125,4,2,1,40,0,0
2730,-100,4,2,1,40,0,0
3230,-100,4,2,4,40,0,0
3313,-100,4,2,1,40,0,0
5063,-125,4,2,1,40,0,0
5397,-100,4,2,1,40,0,0
5897,-100,4,2,4,40,0,0
5980,-100,4,2,1,40,0,0
8563,-100,4,2,1,20,0,0
9063,-100,4,2,1,30,0,0
9563,-100,4,2,1,40,0,0
10063,-100,4,2,1,50,0,0
11230,-100,4,2,1,60,0,0
21397,-100,4,2,1,40,0,0
21897,-133.333333333333,4,2,5,45,0,0
32563,-125,4,2,1,50,0,0
35230,-125,4,2,4,50,0,0
35313,-125,4,2,1,50,0,0
37897,-125,4,2,4,50,0,0
37980,-125,4,2,1,50,0,0
40563,-125,4,2,4,50,0,0
40647,-125,4,2,1,50,0,0
43230,-100,4,2,1,60,0,0
67230,-100,4,2,1,80,0,1
77563,-100,4,2,1,60,0,1
77897,-100,4,2,1,80,0,1
88230,-100,4,2,1,60,0,1
88563,-133.333333333333,4,2,1,60,0,0
97897,-133.333333333333,4,2,1,50,0,0
98563,-133.333333333333,4,2,1,60,0,0
99313,-133.333333333333,4,2,1,50,0,0
100563,-133.333333333333,4,2,1,30,0,0
101897,-133.333333333333,4,2,1,10,0,0
102897,-133.333333333333,4,2,1,5,0,0

[Colours]
Combo1 : 255,255,132
Combo2 : 104,255,180
Combo3 : 255,142,204
Combo4 : 53,191,225

[HitObjects]
334,242,564,1,4,0:0:0:0:
334,242,730,1,0,0:0:0:0:
290,162,897,2,0,P|289:116|293:72,1,90,2|0,0:0|0:0,0:0:0:0:
204,87,1230,5,0,0:0:0:0:
204,87,1397,1,0,0:0:0:0:
146,154,1563,2,0,P|104:171|60:164,1,90,2|0,0:0|0:0,0:0:0:0:
204,87,1897,6,0,P|238:114|254:156,1,90
137,243,2230,1,2,0:0:0:0:
204,87,2397,6,0,L|349:65,1,144,2|0,0:0|0:0,0:0:0:0:
398,139,2897,1,2,0:0:0:0:
398,139,3063,1,0,0:0:0:0:
288,243,3230,6,0,P|338:238|382:228,1,90,4|0,0:0|0:0,0:0:0:0:
177,335,3563,2,0,P|226:330|271:320,1,90,2|0,0:0|0:0,0:0:0:0:
209,201,3897,5,0,0:0:0:0:
132,256,4063,1,0,0:0:0:0:
40,220,4230,2,0,P|32:175|34:130,1,90,2|0,0:0|0:0,0:0:0:0:
204,20,4563,6,0,L|116:37,1,90
143,123,4897,1,2,0:0:0:0:
368,39,5063,6,0,L|226:67,1,144,2|0,0:0|0:0,0:0:0:0:
220,159,5563,1,2,0:0:0:0:
220,159,5647,1,0,0:0:0:0:
220,159,5730,1,0,0:0:0:0:
220,159,5813,1,0,0:0:0:0:
220,159,5897,6,0,L|210:253,2,90,4|0|2,0:0|0:0|0:0,0:0:0:0:
284,63,6397,1,0,0:0:0:0:
452,152,6563,2,0,L|361:132,1,90
498,243,6897,1,2,0:0:0:0:
498,243,7063,6,0,L|313:201,1,180,2|0,0:0|0:0,0:0:0:0:
241,251,7563,1,2,0:0:0:0:
370,313,7730,1,0,0:0:0:0:
386,320,8063,5,0,0:0:0:0:
416,235,8230,1,2,0:0:0:0:
450,151,8397,1,0,0:0:0:0:
450,151,8480,1,0,0:0:0:0:
450,151,8563,6,0,L|435:57,1,90,2|0,0:0|0:0,0:0:0:0:
450,151,9063,5,2,0:0:0:0:
418,58,9230,1,0,0:0:0:0:
450,151,9563,5,2,0:0:0:0:
322,51,9730,1,0,0:0:0:0:
450,151,10063,5,2,0:0:0:0:
225,86,10230,1,0,0:0:0:0:
450,151,10563,5,2,0:0:0:0:
473,178,10897,1,2,0:0:0:0:
473,178,10980,1,0,0:0:0:0:
473,178,11063,1,2,0:0:0:0:
473,178,11147,1,0,0:0:0:0:
473,178,11230,6,0,P|414:222|316:189,1,180,4|8,0:0|0:0,0:0:0:0:
384,59,11730,1,0,0:0:0:0:
244,109,11897,2,0,L|152:92,1,90,0|0,0:0|0:0,0:0:0:0:
270,261,12230,1,8,0:0:0:0:
390,140,12397,6,0,L|390:329,1,180,4|0,0:0|0:0,0:0:0:0:
384,59,12897,2,0,P|428:67|461:102,1,90,8|0,0:0|0:0,0:0:0:0:
244,109,13230,1,0,0:0:0:0:
384,59,13397,1,0,0:0:0:0:
168,35,13563,1,8,0:0:0:0:
303,61,13730,1,0,0:0:0:0:
93,152,13897,6,0,L|76:244,1,90,4|0,0:0|0:0,0:0:0:0:
21,347,14230,1,8,0:0:0:0:
152,247,14397,1,0,0:0:0:0:
286,321,14563,2,0,P|242:334|196:328,1,90
152,247,14897,1,8,0:0:0:0:
333,384,15063,6,0,L|308:202,1,180,4|0,0:0|0:0,0:0:0:0:
377,111,15563,1,8,0:0:0:0:
356,294,15730,1,4,0:0:0:0:
353,313,16063,1,4,0:0:0:0:
348,332,16397,6,0,P|263:350|201:290,1,180,4|0,0:0|0:0,0:0:0:0:
228,181,16897,1,8,0:0:0:0:
436,355,17063,1,4,0:0:0:0:
436,355,17397,5,2,0:0:0:0:
379,213,17563,1,8,0:0:0:0:
228,180,17730,2,0,P|154:229|64:203,1,180,4|0,0:0|0:0,0:0:0:0:
165,91,18230,1,8,0:0:0:0:
87,364,18397,1,4,0:0:0:0:
87,364,18730,5,2,0:0:0:0:
7,264,18897,1,8,0:0:0:0:
163,185,19063,1,2,0:0:0:0:
55,26,19230,2,0,P|91:93|74:196,1,180,4|8,0:0|0:0,0:0:0:0:
168,60,19730,1,0,0:0:0:0:
305,167,19897,2,0,P|236:182|201:122,1,135,2|0,0:0|0:0,0:0:0:0:
256,82,20230,2,0,L|368:82,1,90,8|0,0:0|0:0,0:0:0:0:
346,82,20480,1,0,0:0:0:0:
346,82,20563,5,2,0:0:0:0:
441,201,20730,1,8,0:0:0:0:
436,238,20813,1,8,0:0:0:0:
430,273,20897,1,12,0:0:0:0:
346,82,21063,1,8,0:0:0:0:
490,137,21230,1,8,0:0:0:0:
368,238,21397,1,8,0:0:0:0:
340,253,21480,1,8,0:0:0:0:
309,261,21563,1,8,0:0:0:0:
277,264,21647,1,8,0:0:0:0:
246,258,21730,1,8,0:0:0:0:
217,244,21813,1,8,0:0:0:0:
189,227,21897,6,0,P|179:185|179:148,1,67.5000025749208,4|0,0:0|0:0,0:0:0:0:
108,312,22230,2,0,P|112:272|106:235,1,67.5000025749208,8|0,0:0|0:0,0:0:0:0:
58,52,22563,2,0,P|50:118|51:186,1,135.000005149842,0|8,0:0|0:0,0:0:0:0:
155,26,23230,5,0,0:0:0:0:
114,124,23397,1,0,0:0:0:0:
215,100,23563,1,8,0:0:0:0:
184,208,23730,2,0,P|255:189|327:201,1,135.000005149842
374,255,24230,1,8,0:0:0:0:
382,116,24397,1,0,0:0:0:0:
374,255,24563,5,2,0:0:0:0:
374,269,24897,1,8,0:0:0:0:
404,165,25063,2,0,P|409:129|409:97,1,67.5000025749208
351,27,25397,1,0,0:0:0:0:
213,104,25563,2,0,L|283:93,1,67.5000025749208,8|0,0:0|0:0,0:0:0:0:
128,196,25897,6,0,P|164:187|204:180,1,67.5000025749208
134,95,26230,1,8,0:0:0:0:
56,239,26397,2,0,L|48:313,1,67.5000025749208
3,162,26730,1,0,0:0:0:0:
165,214,26897,2,0,L|157:285,1,67.5000025749208,8|0,0:0|0:0,0:0:0:0:
72,130,27230,5,2,0:0:0:0:
72,130,27563,1,8,0:0:0:0:
183,100,27730,1,0,0:0:0:0:
100,220,27897,2,0,L|141:220|170:213,1,67.5000025749208
258,140,28230,2,0,P|296:141|326:138,1,67.5000025749208,8|0,0:0|0:0,0:0:0:0:
216,36,28563,6,0,P|151:33|112:89,2,135.000005149842,0|8|0,0:0|0:0|0:0,0:0:0:0:
234,118,29397,1,0,0:0:0:0:
191,201,29563,2,0,P|206:232|212:265,1,67.5000025749208,8|0,0:0|0:0,0:0:0:0:
278,83,29897,6,0,L|265:149,1,67.5000025749208,2|0,0:0|0:0,0:0:0:0:
381,143,30230,2,0,L|368:209,1,67.5000025749208,8|0,0:0|0:0,0:0:0:0:
416,282,30563,2,0,P|363:241|296:253,1,135.000005149842,0|8,0:0|0:0,0:0:0:0:
225,361,31063,6,0,P|299:364|343:317,1,135.000005149842,2|0,0:0|0:0,0:0:0:0:
339,324,31563,1,8,0:0:0:0:
448,167,31730,2,0,P|453:133|447:100,1,67.5000025749208
367,217,32063,5,0,0:0:0:0:
237,139,32230,1,0,1:0:0:0:
367,57,32397,1,0,0:0:0:0:
274,215,32563,6,0,P|218:227|154:160,1,144,4|0,0:0|0:0,0:0:0:0:
274,215,33063,1,0,0:0:0:0:
132,279,33230,2,0,L|45:293,1,72,8|0,0:0|0:0,0:0:0:0:
19,158,33563,1,0,0:0:0:0:
0,340,33730,1,8,0:0:0:0:
0,340,34063,5,0,0:0:0:0:
91,213,34230,2,0,P|106:183|108:144,1,72
54,64,34563,1,8,0:0:0:0:
179,184,34730,2,0,P|214:191|249:188,1,72
331,135,35063,1,0,0:0:0:0:
297,312,35230,5,4,0:0:0:0:
297,312,35563,1,0,0:0:0:0:
293,197,35730,1,0,0:0:0:0:
344,30,35897,2,0,P|364:101|361:176,1,144,8|0,0:0|0:0,0:0:0:0:
433,29,36397,5,8,0:0:0:0:
439,154,36563,2,0,P|435:190|416:231,1,72
488,341,36897,2,0,P|490:303|496:261,1,72
256,319,37230,1,8,0:0:0:0:
256,319,37397,2,0,L|391:295,1,135.000005149842
93,271,37897,5,4,0:0:0:0:
93,271,38230,1,0,0:0:0:0:
17,363,38397,1,0,0:0:0:0:
173,316,38563,2,0,P|183:281|182:245,1,72,8|0,0:0|0:0,0:0:0:0:
221,126,38897,1,0,0:0:0:0:
0,169,39063,6,0,P|71:180|150:170,1,144,8|0,0:0|0:0,0:0:0:0:
279,192,39563,2,0,P|350:181|421:183,2,144,0|8|0,0:0|0:0|0:0,0:0:0:0:
221,271,40397,1,0,0:0:0:0:
193,80,40563,5,4,0:0:0:0:
193,80,40897,1,0,0:0:0:0:
219,192,41063,1,0,0:0:0:0:
65,163,41230,2,0,L|136:146,1,72,8|0,0:0|0:0,0:0:0:0:
274,117,41563,1,8,0:0:0:0:
61,68,41730,5,4,0:0:0:0:
283,15,42063,1,4,0:0:0:0:
26,247,42397,2,0,P|96:255|153:201,1,144,4|8,0:0|0:0,0:0:0:0:
115,348,42897,1,8,0:0:0:0:
115,348,42980,1,8,0:0:0:0:
115,348,43063,1,8,0:0:0:0:
115,348,43147,1,8,0:0:0:0:
115,348,43230,6,0,P|179:324|261:318,1,135,4|0,0:0|0:0,0:0:0:0:
321,336,43563,2,0,L|409:320,1,90,8|0,0:0|0:0,0:0:0:0:
493,224,43897,1,2,0:0:0:0:
334,209,44063,1,0,0:0:0:0:
440,110,44230,1,8,0:0:0:0:
280,308,44397,1,0,0:0:0:0:
259,163,44563,6,0,P|173:148|113:211,1,180,0|8,0:0|0:0,0:0:0:0:
166,287,45063,1,0,0:0:0:0:
152,77,45230,1,2,0:0:0:0:
345,145,45397,1,0,0:0:0:0:
228,116,45563,2,0,P|232:71|240:26,1,90,8|0,0:0|0:0,0:0:0:0:
392,44,45897,6,0,P|384:130|371:222,1,180,0|8,0:0|0:0,0:0:0:0:
307,316,46397,1,0,0:0:0:0:
135,256,46563,2,0,P|177:235|231:230,1,90,2|0,0:0|0:0,0:0:0:0:
307,316,46897,1,8,0:0:0:0:
259,161,47063,1,0,0:0:0:0:
387,256,47230,5,0,0:0:0:0:
243,186,47397,1,0,0:0:0:0:
448,145,47563,1,8,0:0:0:0:
286,268,47730,1,0,0:0:0:0:
372,87,47897,1,2,0:0:0:0:
286,268,48063,1,2,0:0:0:0:
286,268,48147,1,0,0:0:0:0:
286,268,48230,2,0,L|235:280,1,45,8|0,0:0|0:0,0:0:0:0:
347,189,48397,2,0,L|391:181,1,45,8|0,0:0|0:0,0:0:0:0:
247,162,48563,6,0,P|239:117|241:67,1,90,4|0,0:0|0:0,0:0:0:0:
152,154,48897,2,0,P|161:199|160:245,1,90,8|0,0:0|0:0,0:0:0:0:
6,373,49230,1,2,0:0:0:0:
77,265,49397,1,0,0:0:0:0:
217,340,49563,2,0,P|175:354|125:348,1,90,8|0,0:0|0:0,0:0:0:0:
303,278,49897,6,0,P|403:275|433:362,2,180,0|8|2,0:0|0:0|0:0,0:0:0:0:
332,124,50730,1,0,0:0:0:0:
491,204,50897,2,0,L|501:109,1,90,8|0,0:0|0:0,0:0:0:0:
276,197,51230,6,0,P|361:212|421:150,1,180,0|8,0:0|0:0,0:0:0:0:
248,104,51730,1,0,0:0:0:0:
144,248,51897,2,0,L|136:348,1,90,2|0,0:0|0:0,0:0:0:0:
200,156,52230,2,0,L|207:66,1,90,8|0,0:0|0:0,0:0:0:0:
207,66,52480,1,0,0:0:0:0:
207,66,52563,5,8,0:0:0:0:
61,141,52730,1,0,0:0:0:0:
184,184,52897,1,8,0:0:0:0:
184,184,52980,1,8,0:0:0:0:
184,184,53063,1,0,0:0:0:0:
330,104,53230,1,8,0:0:0:0:
330,104,53313,1,8,0:0:0:0:
330,104,53397,1,0,0:0:0:0:
308,224,53563,5,8,0:0:0:0:
302,255,53647,1,8,0:0:0:0:
297,286,53730,1,8,0:0:0:0:
291,316,53813,1,8,0:0:0:0:
284,346,53897,6,0,P|219:362|183:308,1,135,4|0,0:0|0:0,0:0:0:0:
169,236,54230,2,0,L|79:247,1,90,8|0,0:0|0:0,0:0:0:0:
258,139,54563,2,0,L|347:127,1,90,2|0,0:0|0:0,0:0:0:0:
509,206,54897,1,8,0:0:0:0:
471,73,55063,1,0,0:0:0:0:
398,224,55230,6,0,P|388:267|388:312,1,90
432,121,55563,1,8,0:0:0:0:
321,183,55730,1,0,0:0:0:0:
321,183,55813,1,0,0:0:0:0:
321,183,55897,2,0,P|274:198|223:197,1,90,2|0,0:0|0:0,0:0:0:0:
141,68,56230,1,8,0:0:0:0:
159,239,56397,1,0,0:0:0:0:
175,46,56563,6,0,B|208:40|241:55|241:55|272:39|272:39|360:29,1,180,2|8,0:0|0:0,0:0:0:0:
471,74,57063,1,0,0:0:0:0:
364,261,57230,1,2,0:0:0:0:
333,144,57397,1,0,0:0:0:0:
466,244,57563,1,8,0:0:0:0:
291,333,57730,1,0,0:0:0:0:
291,333,57813,1,0,0:0:0:0:
291,333,57897,5,2,0:0:0:0:
279,194,58063,1,0,0:0:0:0:
136,244,58230,2,0,P|125:212|129:156,1,90,8|0,0:0|0:0,0:0:0:0:
272,312,58563,2,0,L|364:308,1,90,2|0,0:0|0:0,0:0:0:0:
408,306,58813,1,0,0:0:0:0:
408,306,58897,1,8,0:0:0:0:
408,306,59230,6,0,L|424:209,1,90,4|0,0:0|0:0,0:0:0:0:
450,65,59563,1,8,0:0:0:0:
337,172,59730,1,0,0:0:0:0:
172,67,59897,2,0,P|212:48|261:44,1,90,2|0,0:0|0:0,0:0:0:0:
282,49,60147,1,0,0:0:0:0:
305,57,60230,1,8,0:0:0:0:
110,15,60397,1,0,0:0:0:0:
20,215,60563,5,2,0:0:0:0:
20,215,60897,2,0,P|31:169|47:131,1,90,8|0,0:0|0:0,0:0:0:0:
137,340,61230,2,0,P|119:298|109:254,1,90,8|0,0:0|0:0,0:0:0:0:
142,112,61563,1,8,0:0:0:0:
42,317,61730,1,0,0:0:0:0:
64,50,61897,5,4,0:0:0:0:
209,175,62063,1,0,0:0:0:0:
0,143,62230,1,8,0:0:0:0:
167,28,62397,1,0,0:0:0:0:
42,317,62563,1,8,0:0:0:0:
42,317,62897,5,8,0:0:0:0:
196,308,63063,1,0,0:0:0:0:
142,112,63230,5,8,0:0:0:0:
166,262,63397,1,0,0:0:0:0:
259,91,63563,1,8,0:0:0:0:
122,192,63730,1,0,0:0:0:0:
269,264,63897,5,8,0:0:0:0:
175,131,64063,1,0,0:0:0:0:
331,122,64230,1,8,0:0:0:0:
184,236,64397,1,0,0:0:0:0:
25,164,64563,5,4,0:0:0:0:
229,90,64730,2,0,L|142:112,1,90,4|0,0:0|0:0,0:0:0:0:
274,2,65063,5,4,0:0:0:0:
290,162,65230,2,0,L|202:140,1,90,4|0,0:0|0:0,0:0:0:0:
448,49,65563,5,4,0:0:0:0:
339,287,65730,2,0,L|318:199,1,90,4|0,0:0|0:0,0:0:0:0:
499,317,66063,5,4,0:0:0:0:
205,368,66230,1,4,0:0:0:0:
188,360,66563,6,0,L|328:336,1,135,8|0,0:0|0:0,0:0:0:0:
369,278,66897,2,0,L|407:255,1,45,2|0,0:0|0:0,0:0:0:0:
407,182,67063,2,0,L|435:148,1,45,2|0,0:0|0:0,0:0:0:0:
388,89,67230,6,0,P|401:40|415:-4,1,90,4|0,0:0|0:0,0:0:0:0:
310,151,67563,2,0,P|265:102|199:96,1,135,8|0,0:0|0:0,0:0:0:0:
173,170,67897,2,0,L|160:274,1,90,2|0,0:0|0:0,0:0:0:0:
48,92,68230,1,8,0:0:0:0:
120,204,68397,1,0,0:0:0:0:
31,359,68563,6,0,P|20:312|15:256,1,90,2|0,0:0|0:0,0:0:0:0:
213,322,68897,2,0,P|168:333|126:320,1,90,8|0,0:0|0:0,0:0:0:0:
64,147,69230,2,0,L|55:236,1,90,2|0,0:0|0:0,0:0:0:0:
246,157,69563,2,0,L|254:67,1,90,8|0,0:0|0:0,0:0:0:0:
184,248,69897,5,2,0:0:0:0:
352,242,70063,1,0,0:0:0:0:
352,242,70147,1,0,0:0:0:0:
352,242,70230,2,0,P|401:243|444:227,1,90,8|0,0:0|0:0,0:0:0:0:
379,100,70563,1,2,0:0:0:0:
247,157,70730,1,0,0:0:0:0:
351,242,70897,1,8,0:0:0:0:
316,44,71063,1,0,0:0:0:0:
126,170,71230,6,0,P|170:170|214:150,1,90,2|0,0:0|0:0,0:0:0:0:
92,76,71563,1,8,0:0:0:0:
332,120,71730,2,0,P|347:204|349:304,1,180,2|0,0:0|0:0,0:0:0:0:
208,56,72230,1,8,0:0:0:0:
432,40,72397,1,0,0:0:0:0:
432,40,72480,1,0,0:0:0:0:
432,40,72563,6,0,P|445:126|449:231,1,180,4|8,0:0|0:0,0:0:0:0:
356,157,73063,1,0,0:0:0:0:
268,290,73230,5,2,0:0:0:0:
230,115,73397,1,0,0:0:0:0:
383,183,73563,1,8,0:0:0:0:
192,218,73730,1,0,0:0:0:0:
192,218,73813,1,0,0:0:0:0:
191,218,73897,6,0,P|147:223|102:224,1,90,2|0,0:0|0:0,0:0:0:0:
95,64,74230,1,8,0:0:0:0:
8,176,74397,1,0,0:0:0:0:
256,296,74563,1,2,0:0:0:0:
216,156,74730,1,0,0:0:0:0:
456,228,74897,2,0,P|409:254|375:249,1,90,8|0,0:0|0:0,0:0:0:0:
453,17,75230,6,0,L|471:168,1,135,4|0,0:0|0:0,0:0:0:0:
401,172,75563,2,0,L|392:122,1,45,8|0,0:0|0:0,0:0:0:0:
368,56,75730,2,0,P|320:40|276:44,1,90,2|0,0:0|0:0,0:0:0:0:
233,175,76063,1,0,0:0:0:0:
188,24,76230,1,8,0:0:0:0:
232,208,76397,1,0,0:0:0:0:
232,208,76480,1,0,0:0:0:0:
232,208,76563,6,0,P|185:201|142:209,1,90,4|0,0:0|0:0,0:0:0:0:
112,236,76813,1,8,0:0:0:0:
112,236,76897,1,0,0:0:0:0:
255,110,77063,1,4,0:0:0:0:
448,296,77397,1,4,0:0:0:0:
364,188,77563,5,8,0:0:0:0:
360,225,77647,1,8,0:0:0:0:
354,260,77730,1,8,0:0:0:0:
349,295,77813,1,8,0:0:0:0:
344,330,77897,1,4,0:0:0:0:
344,330,78230,6,0,P|275:364|202:302,1,180,8|2,0:0|0:0,0:0:0:0:
281,164,78730,1,0,0:0:0:0:
277,290,78897,1,8,0:0:0:0:
175,225,79063,1,0,0:0:0:0:
388,234,79230,6,0,B|426:228|465:244|465:244|454:309,1,135,2|0,0:0|0:0,0:0:0:0:
388,234,79563,2,0,L|401:136,1,90,8|0,0:0|0:0,0:0:0:0:
175,224,79897,2,0,L|186:313,1,90,2|0,0:0|0:0,0:0:0:0:
80,196,80230,1,8,0:0:0:0:
281,164,80397,1,0,0:0:0:0:
80,196,80563,6,0,P|73:120|59:45,1,135,2|0,0:0|0:0,0:0:0:0:
62,62,80897,1,8,0:0:0:0:
176,224,81063,2,0,P|172:268|155:310,1,90,0|2,0:0|0:0,0:0:0:0:
150,135,81397,1,0,0:0:0:0:
286,305,81563,2,0,P|259:340|224:367,1,90,8|0,0:0|0:0,0:0:0:0:
409,253,81897,6,8,P|329:211|238:202,1,180,2|8,0:0|0:0,0:0:0:0:
460,322,82397,2,0,L|439:188,1,135,2|0,0:0|0:0,0:0:0:0:
395,100,82730,2,0,L|376:144,1,45,2|0,0:0|0:0,0:0:0:0:
305,103,82897,2,0,L|300:10,1,90,8|0,0:0|0:0,0:0:0:0:
329,242,83230,6,0,L|226:261,1,90,4|0,0:0|0:0,0:0:0:0:
49,247,83563,1,8,0:0:0:0:
174,342,83730,1,2,0:0:0:0:
174,342,83813,1,0,0:0:0:0:
174,342,83897,2,0,P|219:333|274:323,1,90,2|0,0:0|0:0,0:0:0:0:
130,184,84230,1,8,0:0:0:0:
260,194,84397,1,0,0:0:0:0:
0,192,84563,5,2,0:0:0:0:
120,287,84730,1,0,0:0:0:0:
68,144,84897,1,8,0:0:0:0:
17,343,85063,1,0,0:0:0:0:
77,128,85230,2,0,P|90:84|105:35,1,90,2|0,0:0|0:0,0:0:0:0:
215,268,85563,2,0,P|223:324|229:377,1,90,8|0,0:0|0:0,0:0:0:0:
164,112,85897,6,0,P|230:98|269:93,1,90,2|0,0:0|0:0,0:0:0:0:
357,235,86230,2,0,L|340:335,1,90,8|0,0:0|0:0,0:0:0:0:
385,23,86563,1,2,0:0:0:0:
231,102,86730,1,0,0:0:0:0:
425,120,86897,1,8,0:0:0:0:
260,243,87063,1,0,0:0:0:0:
260,243,87147,1,0,0:0:0:0:
260,243,87230,6,0,P|205:234|115:253,1,135,4|0,0:0|0:0,0:0:0:0:
95,274,87563,1,8,0:0:0:0:
253,12,87730,1,4,0:0:0:0:
253,12,88063,1,4,0:0:0:0:
205,127,88230,1,0,0:0:0:0:
165,141,88313,1,8,0:0:0:0:
126,144,88397,1,8,0:0:0:0:
88,136,88480,1,8,0:0:0:0:
59,117,88563,5,4,0:0:0:0:
59,117,88897,2,0,L|78:207,1,67.5000025749208,2|0,0:0|0:0,0:0:0:0:
123,348,89230,2,0,P|159:293|155:226,1,135.000005149842,8|2,0:0|0:0,0:0:0:0:
44,202,89730,1,8,0:0:0:0:
240,300,89897,6,0,L|316:311,1,67.5000025749208,2|0,0:0|0:0,0:0:0:0:
442,172,90230,2,0,L|376:163,1,67.5000025749208,2|0,0:0|0:0,0:0:0:0:
187,236,90563,1,10,0:0:0:0:
304,218,90730,1,0,0:0:0:0:
247,48,90897,1,2,0:0:0:0:
130,66,91063,1,0,0:0:0:0:
187,236,91230,5,4,0:0:0:0:
130,66,91397,1,8,0:0:0:0:
310,122,91730,5,0,0:0:0:0:
392,65,91897,2,0,P|422:50|455:47,1,67.5000025749208,8|0,0:0|0:0,0:0:0:0:
359,204,92230,2,0,P|361:235|345:281,1,67.5000025749208,2|8,0:0|0:0,0:0:0:0:
308,364,92563,5,2,0:0:0:0:
308,364,92647,1,0,0:0:0:0:
308,364,92730,1,8,0:0:0:0:
204,344,92897,2,0,P|201:312|217:266,1,67.5000025749208,2|0,0:0|0:0,0:0:0:0:
308,364,93230,1,8,0:0:0:0:
151,213,93397,2,0,P|201:163|275:149,1,135.000005149842,2|0,0:0|0:0,0:0:0:0:
433,198,93897,5,4,0:0:0:0:
259,277,94063,1,8,0:0:0:0:
259,277,94397,5,2,0:0:0:0:
302,108,94563,2,0,P|313:139|314:173,1,67.5000025749208,8|0,0:0|0:0,0:0:0:0:
397,89,94897,1,2,0:0:0:0:
385,227,95063,6,0,P|329:263|264:249,1,135.000005149842,8|8,0:0|0:0,0:0:0:0:
135,275,95563,1,0,0:0:0:0:
135,275,95730,2,0,P|140:316|140:348,1,67.5000025749208,2|8,0:0|0:0,0:0:0:0:
198,198,96063,2,0,P|197:129|202:54,1,135.000005149842,2|0,0:0|0:0,0:0:0:0:
314,186,96563,5,2,0:0:0:0:
314,186,96730,2,0,P|315:255|310:330,1,135.000005149842,8|0,0:0|0:0,0:0:0:0:
162,277,97230,2,0,P|128:288|91:292,1,67.5000025749208,8|0,0:0|0:0,0:0:0:0:
110,135,97563,2,0,P|144:124|181:120,1,67.5000025749208,8|0,0:0|0:0,0:0:0:0:
304,119,97897,5,2,0:0:0:0:
226,31,98063,1,0,0:0:0:0:
236,207,98230,1,8,0:0:0:0:
338,59,98397,1,0,0:0:0:0:
175,269,98563,5,8,0:0:0:0:
317,239,98730,1,8,0:0:0:0:
90,217,98897,1,8,0:0:0:0:
225,137,99063,1,8,0:0:0:0:
332,328,99230,5,4,0:0:0:0:
256,192,99313,12,0,102897,0:0:0:0:
