osu file format v12

[General]
AudioFilename: SWEET DAYS.mp3
AudioLeadIn: 2000
PreviewTime: 53306
Countdown: 0
SampleSet: Soft
StackLeniency: 0.7
Mode: 0
LetterboxInBreaks: 1

[Editor]
DistanceSpacing: 1
BeatDivisor: 4
GridSize: 4

[Metadata]
Title:Colorful precious life (Short Ver.)
TitleUnicode:カラフル precious life (Short Ver.)
Artist:solfa feat. Chata
ArtistUnicode:solfa feat. 茶太
Creator:popner
Version:Hard
Source:Koiimo SWEET*DAYS
Tags:opening rikka
BeatmapID:262464
BeatmapSetID:90854

[Difficulty]
HPDrainRate:7
CircleSize:4
OverallDifficulty:6
ApproachRate:7
SliderMultiplier:1.6
SliderTickRate:1

[Events]
//Background and Video events
0,0,"BG.jpg",0,0
Video,-220,"Rikka.avi"
//Break Periods
//Storyboard Layer 0 (Background)
//Storyboard Layer 1 (Fail)
//Storyboard Layer 2 (Pass)
//Storyboard Layer 3 (Foreground)
//Storyboard Sound Samples
//Background Colour Transformations
3,100,163,162,255

[TimingPoints]
140,333.333333333333,4,2,1,50,1,0
10306,-100,4,2,1,25,0,0
10473,-100,4,2,1,40,0,0
10806,-100,4,2,1,70,0,0
20973,-100,4,2,1,30,0,0
21473,-100,4,2,2,60,0,0
31473,-100,4,2,2,35,0,0
31639,-100,4,2,2,25,0,0
31806,-100,4,2,2,35,0,0
31973,-100,4,2,2,20,0,0
32139,-100,4,2,2,60,0,0
39973,-100,4,2,2,40,0,0
40139,-100,4,2,2,60,0,0
42306,-100,4,2,2,35,0,0
42473,-100,4,2,2,40,0,0
42639,-100,4,2,2,30,0,0
42806,-100,4,2,1,60,0,0
53223,-100,4,2,1,40,0,0
53473,-100,4,2,1,70,0,1
63639,-100,4,2,1,60,0,1
63973,-100,4,2,1,25,0,1
64139,-100,4,2,1,70,0,1
74389,-100,4,2,1,60,0,1
74639,-100,4,2,1,40,0,1
74806,-100,4,2,1,70,0,1
79973,-100,4,2,1,70,0,0
90389,-100,4,2,1,50,0,0
90473,-100,4,2,1,55,0,0
90556,-100,4,2,1,60,0,0
90639,-100,4,2,1,70,0,0
91723,-100,4,2,1,50,0,0
91806,-100,4,2,1,55,0,0
91889,-100,4,2,1,60,0,0
91973,-100,4,2,1,70,0,0

[Colours]
Combo1 : 60,255,32
Combo2 : 255,62,250
Combo3 : 0,244,208
Combo4 : 244,159,0

[HitObjects]
100,92,140,2,0,P|134:112|157:144,1,80,2|0,0:0|0:0,0:0:0:0:
175,220,473,2,0,P|198:252|232:272,1,80,0|0,0:0|0:0,0:0:0:0:
389,273,973,1,0,0:0:0:0:
390,194,1139,1,0,0:0:0:0:
311,193,1306,1,0,0:0:0:0:
310,272,1473,6,0,P|297:309|271:338,1,80,2|0,0:0|0:0,0:0:0:0:
196,376,1806,2,0,P|153:378|117:366,1,80,0|0,0:0|0:0,0:0:0:0:
40,228,2306,1,0,0:0:0:0:
116,200,2473,1,0,0:0:0:0:
91,131,2639,1,0,0:0:0:0:
164,100,2806,6,0,L|243:122,1,80,2|0,0:0|0:0,0:0:0:0:
220,200,3139,2,0,L|299:222,1,80,0|0,0:0|0:0,0:0:0:0:
492,144,3639,1,0,0:0:0:0:
420,180,3806,1,0,0:0:0:0:
384,108,3973,1,0,0:0:0:0:
305,101,4139,6,0,P|280:131|269:169,1,80,2|0,0:0|0:0,0:0:0:0:
339,205,4473,2,0,P|328:243|303:273,1,80,0|0,0:0|0:0,0:0:0:0:
148,292,4973,1,0,0:0:0:0:
68,284,5139,1,0,0:0:0:0:
36,212,5306,1,0,0:0:0:0:
72,140,5473,6,0,P|109:127|148:129,1,80,4|0,0:0|0:0,0:0:0:0:
212,180,5806,1,0,0:0:0:0:
212,180,5973,1,0,0:0:0:0:
244,252,6139,2,0,L|228:332,2,80,0|0|0,0:0|0:0|0:0,0:0:0:0:
312,208,6639,1,2,0:0:0:0:
280,136,6806,6,0,P|248:112|210:102,1,80,2|0,0:0|0:0,0:0:0:0:
133,114,7139,2,0,P|94:104|63:80,1,80,0|0,0:0|0:0,0:0:0:0:
132,36,7473,2,0,P|176:24|212:24,2,80,0|0|0,0:0|0:0|0:0,0:0:0:0:
64,80,7973,1,0,0:0:0:0:
64,160,8139,6,0,P|100:184|120:216,1,80,2|0,0:0|0:0,0:0:0:0:
100,288,8473,1,0,0:0:0:0:
32,248,8639,1,0,0:0:0:0:
32,328,8806,2,0,P|60:355|97:369,1,80,0|0,0:0|0:0,0:0:0:0:
176,360,9139,1,0,0:0:0:0:
176,360,9306,1,2,0:0:0:0:
244,316,9473,6,0,P|272:289|289:253,1,80,2|0,0:0|0:0,0:0:0:0:
256,174,9806,2,0,P|227:200|210:236,1,80,0|0,0:0|0:0,0:0:0:0:
245,317,10139,1,0,0:0:0:0:
298,376,10306,1,8,3:0:0:0:
377,377,10473,1,8,1:3:0:0:
433,321,10639,1,8,3:0:0:0:
431,242,10806,6,0,P|401:216|364:204,1,80,4|0,0:0|0:0,0:0:0:0:
360,282,11139,2,0,P|323:270|293:244,1,80,8|0,0:0|0:0,0:0:0:0:
275,169,11473,1,0,0:0:0:0:
344,120,11639,1,0,0:0:0:0:
280,68,11806,1,8,0:0:0:0:
348,19,11973,1,0,0:0:0:0:
427,27,12139,5,0,0:0:0:0:
427,27,12306,2,0,P|460:108|448:180,1,160,0|0,0:0|0:0,0:0:0:0:
380,220,12806,2,0,P|376:259|387:297,1,80,0|0,0:0|0:0,0:0:0:0:
457,331,13139,2,0,P|461:292|450:254,1,80,0|0,1:0|0:0,0:0:0:0:
380,220,13473,6,0,L|224:188,1,160,4|0,0:0|1:0,0:0:0:0:
150,214,13973,1,0,0:0:0:0:
74,241,14139,2,0,P|124:304|196:340,1,160,0|0,0:0|1:0,0:0:0:0:
272,312,14639,1,4,0:0:0:0:
284,236,14806,6,0,P|259:206|224:188,1,80,0|0,0:0|0:0,0:0:0:0:
150,214,15139,2,0,P|175:244|210:262,1,80,0|0,1:0|0:0,0:0:0:0:
284,237,15473,2,0,P|359:210|410:149,1,160,0|0,0:0|1:0,0:0:0:0:
426,69,15973,1,0,0:0:0:0:
365,18,16139,6,0,P|290:45|239:106,1,160,4|0,0:0|1:0,0:0:0:0:
226,184,16639,1,0,0:0:0:0:
284,236,16806,2,0,P|321:223|360:224,1,80,0|0,0:0|0:0,0:0:0:0:
371,301,17139,2,0,P|410:302|447:289,1,80,0|0,1:0|0:0,0:0:0:0:
496,224,17473,6,0,P|496:184|480:148,1,80,0|0,0:0|0:0,0:0:0:0:
404,116,17806,1,0,1:0:0:0:
380,192,17973,1,0,0:0:0:0:
308,156,18139,2,0,P|269:163|236:185,1,80,0|0,0:0|0:0,0:0:0:0:
248,264,18473,2,0,P|215:286|176:293,1,80,0|0,1:0|0:0,0:0:0:0:
100,270,18806,5,4,0:0:0:0:
24,292,18973,1,0,0:0:0:0:
28,372,19139,1,0,1:0:0:0:
105,349,19306,1,0,0:0:0:0:
100,270,19473,2,0,P|80:192|24:132,1,160,0|0,0:0|1:0,0:0:0:0:
56,60,19973,5,4,0:0:0:0:
212,96,20306,1,4,0:0:0:0:
252,168,20473,1,4,0:0:0:0:
188,216,20639,1,4,0:0:0:0:
224,288,20806,2,0,L|304:304,2,80,4|0|0,0:0|1:0|3:0,0:0:0:0:
164,340,21306,1,8,3:0:0:0:
84,344,21473,6,0,P|52:324|36:284,1,80,4|0,0:0|0:0,0:0:0:0:
33,208,21806,1,0,3:0:0:0:
33,208,21973,1,0,0:0:0:0:
98,168,22139,2,0,P|136:157|175:161,1,80,0|0,0:0|0:0,0:0:0:0:
245,199,22473,2,0,P|284:203|322:192,1,80,0|0,3:0|0:0,0:0:0:0:
376,134,22806,6,0,P|409:113|448:107,1,80,0|0,0:0|0:0,0:0:0:0:
510,155,23139,2,0,P|477:176|438:182,1,80,0|0,3:0|0:0,0:0:0:0:
376,134,23473,2,0,L|313:85,1,80,0|0,0:0|0:0,0:0:0:0:
236,104,23806,2,0,P|212:135|178:154,1,80,0|0,3:0|0:0,0:0:0:0:
128,92,24139,6,0,P|152:61|186:42,1,80,0|0,0:0|0:0,0:0:0:0:
268,32,24473,1,0,3:0:0:0:
332,80,24639,2,0,P|336:116|360:156,2,80,0|0|0,0:0|0:0|0:0,0:0:0:0:
384,20,25139,1,0,3:0:0:0:
413,92,25306,6,0,P|382:165|319:213,1,160,0|0,0:0|0:0,0:0:0:0:
256,264,25806,2,0,P|220:252|176:252,1,80,0|0,3:0|0:0,0:0:0:0:
196,175,26139,2,0,P|211:139|211:100,1,80,0|0,0:0|0:0,0:0:0:0:
153,46,26473,2,0,P|138:82|138:121,1,80,0|0,3:0|0:0,0:0:0:0:
196,175,26806,6,0,P|225:202|262:215,1,80,0|0,0:0|0:0,0:0:0:0:
340,211,27139,1,0,3:0:0:0:
396,152,27306,2,0,L|475:148,2,80,0|0|0,0:0|0:0|0:0,0:0:0:0:
320,136,27806,1,0,0:0:0:0:
340,212,27973,1,0,0:0:0:0:
384,280,28139,6,0,L|376:360,1,80
464,264,28473,2,0,L|472:344,1,80,0|0,3:0|0:0,0:0:0:0:
476,184,28806,2,0,P|432:112|364:76,1,160,0|0,0:0|3:0,0:0:0:0:
288,80,29306,1,0,0:0:0:0:
232,140,29473,6,0,P|192:152|152:148,1,80,0|0,0:0|0:0,0:0:0:0:
88,104,29806,1,0,3:0:0:0:
88,104,29973,1,0,0:0:0:0:
112,28,30139,2,0,P|152:16|192:20,1,80,0|0,0:0|0:0,0:0:0:0:
256,64,30472,1,0,3:0:0:0:
256,64,30639,1,0,0:0:0:0:
332,84,30806,6,0,L|372:80,2,40,0|0|0,3:0|3:0|3:0,0:0:0:0:
320,164,31139,2,0,L|360:160,2,40,0|0|0,3:0|3:0|3:0,0:0:0:0:
237,164,31473,2,0,P|251:201|278:229,1,80,4|4,3:0|3:0,0:0:0:0:
320,163,31806,2,0,P|347:191|361:228,1,80,0|8,1:0|3:0,0:0:0:0:
344,303,32139,6,0,P|319:333|284:351,1,80,4|0,0:0|0:0,0:0:0:0:
208,356,32473,1,0,3:0:0:0:
208,356,32639,2,0,P|152:316|120:233,1,160,0|0,0:0|0:0,0:0:0:0:
166,169,33139,2,0,P|188:202|195:241,1,80,0|0,3:0|0:0,0:0:0:0:
149,305,33473,5,0,0:0:0:0:
149,305,33639,1,0,0:0:0:0:
72,292,33806,1,0,3:0:0:0:
72,292,33973,1,0,0:0:0:0:
16,344,34139,2,0,P|0:308|0:269,1,80,0|0,0:0|0:0,0:0:0:0:
28,192,34473,2,0,P|28:151|12:115,1,80,0|0,3:0|0:0,0:0:0:0:
105,183,34806,6,0,L|263:161,1,160,0|0,0:0|3:0,0:0:0:0:
240,236,35306,1,0,0:0:0:0:
304,284,35473,2,0,P|342:294|381:289,1,80,0|0,0:0|0:0,0:0:0:0:
500,216,35806,1,0,3:0:0:0:
500,216,35973,6,0,P|416:196|348:216,1,160,0|0,0:0|0:0,0:0:0:0:
304,284,36473,1,0,3:0:0:0:
268,212,36639,1,0,0:0:0:0:
188,204,36806,2,0,P|260:172|306:108,1,160,0|0,0:0|3:0,0:0:0:0:
300,32,37306,1,0,0:0:0:0:
228,8,37473,6,0,P|192:24|165:53,1,80,4|0,0:0|0:0,0:0:0:0:
177,129,37806,2,0,P|213:113|240:84,1,80,0|0,3:0|0:0,0:0:0:0:
100,104,38139,2,0,P|100:148|116:184,1,80,0|0,0:0|0:0,0:0:0:0:
188,204,38473,1,0,3:0:0:0:
164,280,38639,1,0,0:0:0:0:
231,318,38806,6,0,P|254:286|262:248,1,80,0|0,0:0|0:0,0:0:0:0:
292,96,39139,2,0,P|269:128|261:166,1,80,0|0,3:0|0:0,0:0:0:0:
262,247,39473,1,0,0:0:0:0:
316,304,39639,1,0,0:0:0:0:
396,316,39806,1,0,1:0:0:0:
468,284,39973,1,0,1:0:0:0:
468,284,40139,6,0,L|496:124,1,160,4|0,0:0|3:0,0:0:0:0:
428,80,40639,2,0,L|400:237,1,160,4|0,0:0|0:0,0:0:0:0:
320,248,41139,1,0,3:0:0:0:
320,248,41306,6,0,L|348:88,1,160,4|0,0:0|0:0,0:0:0:0:
288,36,41806,2,0,P|248:40|208:36,1,80,0|0,3:0|0:0,0:0:0:0:
152,92,42139,2,0,P|124:119|109:156,1,80,0|8,3:0|3:0,0:0:0:0:
188,168,42473,2,0,P|184:207|196:244,1,80,8|8,1:3|1:3,0:0:0:0:
248,308,42806,6,0,P|168:308|92:336,1,160,4|8,0:0|0:0,0:0:0:0:
16,368,43306,2,0,P|28:296|80:228,1,160,0|0,0:0|0:0,0:0:0:0:
160,224,43806,1,8,0:0:0:0:
160,224,43973,1,0,0:0:0:0:
236,212,44139,6,0,P|256:178|261:139,1,80,0|0,0:0|0:0,0:0:0:0:
211,79,44473,2,0,P|191:113|186:152,1,80,8|0,0:0|0:0,0:0:0:0:
236,212,44806,2,0,P|287:273|362:300,1,160,0|8,0:0|0:0,0:0:0:0:
440,287,45306,1,0,0:0:0:0:
484,220,45473,6,0,P|480:140|448:68,1,160,0|8,0:0|0:0,0:0:0:0:
380,108,45973,2,0,P|304:132|224:124,1,160,0|0,0:0|0:0,0:0:0:0:
152,92,46473,1,8,0:0:0:0:
84,136,46639,2,0,P|68:216|96:296,1,160,0|0,0:0|0:0,0:0:0:0:
160,328,47139,1,8,0:0:0:0:
316,264,47473,6,0,P|322:225|343:192,1,80,0|0,0:0|0:0,0:0:0:0:
436,76,47806,2,0,P|429:114|408:147,1,80,8|0,0:0|0:0,0:0:0:0:
344,192,48139,6,0,L|265:186,1,80,4|0,0:0|0:0,0:0:0:0:
260,108,48473,2,0,L|181:102,1,80,8|0,0:0|0:0,0:0:0:0:
220,28,48806,2,0,P|257:14|296:15,1,80,0|0,0:0|0:0,0:0:0:0:
351,73,49139,1,8,0:0:0:0:
351,73,49306,6,0,B|312:152|368:152|332:228,1,160,4|0,0:0|0:0,0:0:0:0:
265,187,49806,2,0,P|253:225|256:264,1,80,8|0,0:0|0:0,0:0:0:0:
296,336,50139,1,0,0:0:0:0:
368,300,50306,1,0,0:0:0:0:
408,368,50473,1,8,0:0:0:0:
476,328,50639,6,0,P|508:248|500:176,1,160,4|0,0:0|0:0,0:0:0:0:
422,167,51139,2,0,P|413:129|419:90,1,80,8|0,0:0|0:0,0:0:0:0:
468,24,51473,2,0,P|432:12|391:12,1,80,0|0,0:0|0:0,0:0:0:0:
312,28,51806,1,8,0:0:0:0:
256,84,51973,2,0,P|244:163|272:237,1,160,8|8,0:0|0:0,0:0:0:0:
392,344,52639,5,8,0:0:0:0:
441,284,52806,2,0,P|447:245|438:207,1,80,8|0,0:0|0:0,0:0:0:0:
390,145,53139,1,0,1:0:0:0:
390,145,53306,1,8,3:0:0:0:
315,134,53473,6,0,P|276:138|242:157,1,80,4|0,0:0|0:0,0:0:0:0:
268,231,53806,2,0,P|234:250|195:254,1,80,8|0,0:0|0:0,0:0:0:0:
116,228,54139,1,0,0:0:0:0:
64,168,54306,1,0,0:0:0:0:
116,228,54473,1,8,0:0:0:0:
64,168,54639,1,0,0:0:0:0:
52,88,54806,6,0,P|120:44|196:32,1,160,0|8,0:0|0:0,0:0:0:0:
252,88,55306,1,0,0:0:0:0:
268,168,55473,2,0,P|259:206|236:238,1,80,0|0,0:0|0:0,0:0:0:0:
139,351,55806,2,0,P|147:312|170:280,1,80,8|0,0:0|0:0,0:0:0:0:
236,240,56139,6,0,L|320:260,1,80,4|0,0:0|0:0,0:0:0:0:
344,184,56473,2,0,L|424:180,1,80,8|0,0:0|0:0,0:0:0:0:
495,217,56806,2,0,P|504:255|498:294,1,80,0|0,0:0|0:0,0:0:0:0:
428,257,57139,2,0,P|418:218|424:179,1,80,8|0,0:0|0:0,0:0:0:0:
492,138,57473,2,0,P|501:176|495:215,2,80,0|0|8,0:0|0:0|0:0,0:0:0:0:
508,60,57973,1,0,0:0:0:0:
457,0,58139,2,0,P|418:1|382:17,1,80,0|0,0:0|0:0,0:0:0:0:
344,88,58473,2,0,P|308:104|269:105,1,80,8|0,0:0|0:0,0:0:0:0:
207,54,58806,6,0,P|172:35|133:32,1,80,4|0,0:0|0:0,0:0:0:0:
75,84,59139,2,0,P|110:103|149:106,1,80,8|0,0:0|0:0,0:0:0:0:
224,136,59473,2,0,L|165:189,1,80,0|0,0:0|0:0,0:0:0:0:
196,264,59806,2,0,L|255:211,1,80,8|0,0:0|0:0,0:0:0:0:
336,196,60139,5,0,0:0:0:0:
408,232,60306,1,0,0:0:0:0:
428,308,60473,1,8,0:0:0:0:
392,380,60639,2,0,L|232:368,1,160,0|0,0:0|0:0,0:0:0:0:
156,344,61139,2,0,P|178:311|216:288,1,80,8|0,0:0|0:0,0:0:0:0:
176,220,61473,6,0,P|140:204|100:200,2,80,4|0|8,0:0|0:0|0:0,0:0:0:0:
252,200,61973,2,0,P|296:196|332:180,2,80,0|0|0,0:0|0:0|0:0,0:0:0:0:
196,144,62473,1,8,0:0:0:0:
272,124,62639,6,0,L|308:280,1,160,4|0,0:0|0:0,0:0:0:0:
280,356,63139,1,4,0:0:0:0:
200,356,63306,1,0,0:0:0:0:
184,280,63473,2,0,P|148:208|84:160,1,160,0|8,3:0|0:0,0:0:0:0:
12,192,63973,1,4,1:3:0:0:
76,240,64139,6,0,P|114:231|146:208,1,80,4|0,0:0|0:0,0:0:0:0:
258,110,64473,2,0,P|219:118|187:141,1,80,8|0,0:0|0:0,0:0:0:0:
146,208,64806,1,0,0:0:0:0:
146,208,64973,1,0,0:0:0:0:
160,288,65139,1,8,0:0:0:0:
160,288,65306,1,0,0:0:0:0:
233,313,65473,6,0,P|263:288|301:277,1,80,0|0,0:0|0:0,0:0:0:0:
335,347,65806,2,0,P|373:336|403:311,1,80,8|0,0:0|0:0,0:0:0:0:
429,237,66139,1,0,0:0:0:0:
456,163,66306,1,0,0:0:0:0:
385,127,66473,1,8,0:0:0:0:
412,53,66639,1,0,0:0:0:0:
336,28,66806,6,0,L|176:40,1,160,4|8,0:0|0:0,0:0:0:0:
140,112,67306,2,0,L|300:124,1,160,0|0,0:0|0:0,0:0:0:0:
404,284,67973,6,0,L|244:272,1,160,4|0,0:0|0:0,0:0:0:0:
184,216,68473,1,8,0:0:0:0:
226,147,68639,2,0,P|260:128|299:124,1,80,8|0,0:0|0:0,0:0:0:0:
448,123,68972,2,0,P|414:142|375:146,1,80,8|0,0:0|0:0,0:0:0:0:
373,146,69306,6,0,P|332:213|324:293,1,160,4|0,0:0|0:0,0:0:0:0:
248,264,69806,1,8,0:0:0:0:
260,344,69973,1,0,0:0:0:0:
180,316,70139,2,0,L|168:236,2,80,0|0|8,0:0|0:0|0:0,0:0:0:0:
112,360,70639,1,0,0:0:0:0:
37,340,70806,6,0,P|17:306|11:267,1,80,0|0,0:0|0:0,0:0:0:0:
29,191,71139,1,8,0:0:0:0:
29,191,71306,1,0,0:0:0:0:
94,153,71473,2,0,P|132:143|171:147,1,80,0|0,0:0|0:0,0:0:0:0:
173,225,71806,2,0,P|212:229|250:219,1,80,8|0,0:0|0:0,0:0:0:0:
308,148,72139,6,0,P|319:185|343:216,1,80,4|0,0:0|0:0,0:0:0:0:
396,148,72473,2,0,P|422:119|437:82,1,80,8|0,0:0|0:0,0:0:0:0:
358,74,72806,2,0,P|320:65|281:71,1,80,0|0,0:0|0:0,0:0:0:0:
204,96,73139,1,8,0:0:0:0:
204,96,73306,6,0,P|124:108|48:80,1,160,4|4,0:0|0:0,0:0:0:0:
0,144,73806,1,2,0:0:0:0:
4,224,73973,1,2,0:0:0:0:
60,280,74139,2,0,P|97:288|136:281,1,80,2|0,0:0|1:0,0:0:0:0:
105,209,74473,2,0,P|143:202|181:210,1,80,4|8,1:0|1:3,0:0:0:0:
220,284,74806,6,0,L|208:364,1,80,4|0,0:0|0:0,0:0:0:0:
296,304,75139,2,0,L|316:384,1,80,8|0,0:0|0:0,0:0:0:0:
348,248,75473,1,0,0:0:0:0:
348,248,75639,1,0,0:0:0:0:
396,312,75806,1,8,0:0:0:0:
396,312,75973,1,0,0:0:0:0:
424,236,76139,6,0,P|433:197|428:159,1,80,0|0,0:0|0:0,0:0:0:0:
350,157,76473,2,0,P|344:118|354:80,1,80,8|0,0:0|0:0,0:0:0:0:
433,55,76806,1,0,0:0:0:0:
494,106,76973,1,0,0:0:0:0:
433,55,77139,1,8,0:0:0:0:
494,106,77306,1,0,0:0:0:0:
480,184,77473,6,0,P|443:197|404:195,1,80,4|0,0:0|0:0,0:0:0:0:
334,161,77806,2,0,P|295:159|258:172,1,80,8|0,0:0|0:0,0:0:0:0:
208,232,78139,2,0,P|183:262|148:280,1,80,0|0,0:0|0:0,0:0:0:0:
68,248,78473,2,0,P|93:218|128:200,1,80,8|0,0:0|0:0,0:0:0:0:
208,232,78806,5,4,0:0:0:0:
208,232,78973,1,4,0:0:0:0:
364,204,79306,1,4,0:0:0:0:
252,88,79639,1,4,0:0:0:0:
396,16,79973,1,4,0:0:0:0:
475,17,80139,6,0,P|494:51|498:90,1,80,0|0,0:0|0:0,0:0:0:0:
476,166,80473,1,8,0:0:0:0:
476,166,80639,1,0,0:0:0:0:
409,202,80806,2,0,P|332:220|256:198,1,160,0|8,0:0|0:0,0:0:0:0:
202,140,81306,1,0,0:0:0:0:
180,64,81473,6,0,L|256:40,2,80,0|0|8,0:0|0:0|0:0,0:0:0:0:
124,120,81973,1,0,0:0:0:0:
140,196,82140,2,0,P|174:216|213:221,1,80,0|0,0:0|0:0,0:0:0:0:
362,226,82473,2,0,P|328:206|289:201,1,80,8|0,0:0|0:0,0:0:0:0:
213,221,82806,6,0,L|59:261,1,160,4|8,0:0|0:0,0:0:0:0:
36,340,83306,1,0,0:0:0:0:
108,376,83473,2,0,P|147:374|182:358,1,80,0|0,0:0|0:0,0:0:0:0:
235,300,83806,1,8,0:0:0:0:
235,300,83973,6,0,P|308:276|392:284,1,160,4|0,0:0|0:0,0:0:0:0:
464,312,84473,1,8,0:0:0:0:
492,236,84639,2,0,P|472:159|416:103,1,160,0|0,0:0|0:0,0:0:0:0:
339,74,85139,1,8,0:0:0:0:
339,74,85306,1,0,0:0:0:0:
283,130,85473,6,0,L|260:208,2,80,4|0|8,0:0|0:0|0:0,0:0:0:0:
263,53,85973,1,0,0:0:0:0:
184,72,86139,2,0,L|128:128,1,80,0|0,0:0|0:0,0:0:0:0:
124,208,86473,1,8,0:0:0:0:
124,208,86640,1,0,0:0:0:0:
178,261,86806,6,0,P|212:280|251:284,1,80,4|0,0:0|0:0,0:0:0:0:
311,232,87140,2,0,P|277:213|238:209,1,80,8|0,0:0|0:0,0:0:0:0:
160,184,87473,2,0,P|128:208|88:224,1,80,0|0,0:0|0:0,0:0:0:0:
36,280,87806,2,0,P|72:296|120:296,1,80,8|0,0:0|0:0,0:0:0:0:
156,364,88140,6,0,P|208:364|236:372,1,80,4|0,0:0|0:0,0:0:0:0:
304,332,88473,1,8,0:0:0:0:
304,332,88640,1,0,0:0:0:0:
328,256,88806,2,0,P|333:177|298:106,1,160,0|8,0:0|0:0,0:0:0:0:
228,64,89306,5,4,0:0:0:0:
84,164,89639,1,4,0:0:0:0:
72,84,89806,1,4,0:0:0:0:
156,112,89973,2,0,L|168:192,1,80,4|4,0:0|0:0,0:0:0:0:
228,248,90306,2,0,L|220:292,4,40,8|8|8|8|12,0:0|0:0|0:0|0:0|0:0,0:0:0:0:
391,190,90972,5,4,0:0:0:0:
381,270,91139,1,4,0:0:0:0:
308,220,91306,2,0,L|318:139,1,80,4|4,0:0|0:0,0:0:0:0:
384,92,91639,2,0,L|392:44,4,40,8|8|8|8|0,0:0|0:0|0:0|0:0|0:0,0:0:0:0:
256,192,92056,12,0,95973,0:0:0:0:
