osu file format v12

[General]
AudioFilename: SWEET DAYS.mp3
AudioLeadIn: 2000
PreviewTime: 53306
Countdown: 0
SampleSet: Soft
StackLeniency: 0.7
Mode: 0
LetterboxInBreaks: 1

[Editor]
DistanceSpacing: 1
BeatDivisor: 4
GridSize: 4

[Metadata]
Title:Colorful precious life (Short Ver.)
TitleUnicode:カラフル precious life (Short Ver.)
Artist:solfa feat. Chata
ArtistUnicode:solfa feat. 茶太
Creator:popner
Version:Easy
Source:Koiimo SWEET*DAYS
Tags:opening rikka
BeatmapID:262465
BeatmapSetID:90854

[Difficulty]
HPDrainRate:2
CircleSize:3
OverallDifficulty:1
ApproachRate:3
SliderMultiplier:0.7
SliderTickRate:1

[Events]
//Background and Video events
0,0,"BG.jpg",0,0
Video,-220,"Rikka.avi"
//Break Periods
//Storyboard Layer 0 (Background)
//Storyboard Layer 1 (Fail)
//Storyboard Layer 2 (Pass)
//Storyboard Layer 3 (Foreground)
//Storyboard Sound Samples
//Background Colour Transformations
3,100,163,162,255

[TimingPoints]
140,333.333333333333,4,2,1,50,1,0
10806,-100,4,2,1,70,0,0
21473,-100,4,2,2,60,0,0
31473,-100,4,2,2,35,0,0
32139,-100,4,2,2,60,0,0
42806,-100,4,2,1,60,0,0
53473,-100,4,2,1,70,0,1
64139,-100,4,2,1,70,0,1
74806,-100,4,2,1,70,0,1
79973,-100,4,2,1,70,0,0
90639,-100,4,2,1,70,0,0

[Colours]
Combo1 : 60,255,32
Combo2 : 255,62,250
Combo3 : 0,244,208
Combo4 : 244,159,0

[HitObjects]
144,64,140,2,0,B|192:112|192:112|256:68|320:112|320:112|376:64,1,280,2|2,0:0|0:0,0:0:0:0:
376,280,2806,2,0,B|300:292|256:224|256:224|212:292|136:280,1,280,2|2,0:0|0:0,0:0:0:0:
120,132,5473,6,0,P|252:92|379:143,1,280,4|2,0:0|0:0,0:0:0:0:
470,250,7473,1,0,0:0:0:0:
380,356,8139,2,0,P|312:344|254:306,1,140,2|0,0:0|0:0,0:0:0:0:
356,212,9473,2,0,P|298:174|230:162,1,140,2|0,0:0|0:0,0:0:0:0:
92,184,10806,6,0,B|135:53|135:53|268:0,1,280,4|0,0:0|0:0,0:0:0:0:
388,80,12806,1,2,0:0:0:0:
508,160,13473,2,0,B|465:291|465:291|332:344,1,280,4|0,0:0|0:0,0:0:0:0:
192,360,15473,1,2,0:0:0:0:
124,240,16139,6,0,P|112:168|136:96,1,140,4|2,0:0|0:0,0:0:0:0:
268,72,17473,2,0,P|328:80|404:56,1,140,0|2,0:0|0:0,0:0:0:0:
495,165,18806,2,0,P|409:274|312:316,1,245,4|8,0:0|0:0,0:0:0:0:
140,304,20806,1,8,0:0:0:0:
90,175,21473,6,0,L|176:66,1,140,4|2,0:0|0:0,0:0:0:0:
324,64,22806,2,0,L|238:173,1,140,0|2,0:0|0:0,0:0:0:0:
376,172,24139,1,0,0:0:0:0:
454,282,24806,1,2,0:0:0:0:
343,366,25473,1,0,0:0:0:0:
204,356,26139,1,2,0:0:0:0:
108,256,26806,6,0,P|138:193|190:147,1,140,0|2,0:0|0:0,0:0:0:0:
328,159,28139,2,0,P|298:222|246:268,1,140,0|2,0:0|0:0,0:0:0:0:
191,145,29473,2,0,L|47:129,1,140,0|2,0:0|0:0,0:0:0:0:
152,32,30806,2,0,L|291:47,1,140,0|4,3:0|3:0,0:0:0:0:
432,72,32139,5,4,0:0:0:0:
420,212,32806,1,2,0:0:0:0:
328,316,33473,1,0,0:0:0:0:
188,324,34139,1,2,0:0:0:0:
72,248,34806,2,0,L|60:104,1,140,0|2,0:0|0:0,0:0:0:0:
184,172,36139,2,0,L|172:28,1,140,0|2,0:0|0:0,0:0:0:0:
304,80,37473,6,0,P|356:126|422:148,1,140,4|2,0:0|0:0,0:0:0:0:
328,252,38806,2,0,P|276:206|210:184,1,140,0|2,0:0|0:0,0:0:0:0:
76,224,40139,2,0,P|170:327|268:356,1,245,4|8,0:0|0:0,0:0:0:0:
416,312,42139,1,8,3:0:0:0:
416,172,42806,6,0,P|396:104|352:44,1,140,4|8,0:0|0:0,0:0:0:0:
236,120,44139,2,0,P|256:188|300:248,1,140,0|8,0:0|0:0,0:0:0:0:
416,312,45473,2,0,P|283:353|147:323,1,280,0|0,0:0|0:0,0:0:0:0:
43,232,47473,1,8,0:0:0:0:
73,96,48139,6,0,P|144:88|208:56,1,140,4|8,0:0|0:0,0:0:0:0:
344,84,49473,1,0,0:0:0:0:
420,200,50139,1,8,0:0:0:0:
384,336,50806,2,0,P|244:316|144:340,1,245,0|8,0:0|0:0,0:0:0:0:
52,192,52806,1,8,0:0:0:0:
118,69,53473,6,0,L|257:57,1,140,4|8,0:0|0:0,0:0:0:0:
307,187,54806,2,0,L|446:175,1,140,0|8,0:0|0:0,0:0:0:0:
496,305,56139,1,4,0:0:0:0:
366,355,56806,1,8,0:0:0:0:
229,330,57473,1,0,0:0:0:0:
126,237,58139,1,8,0:0:0:0:
136,96,58806,6,0,P|257:27|396:27,1,280,4|0,0:0|0:0,0:0:0:0:
492,128,60806,1,8,0:0:0:0:
464,264,61473,1,4,0:0:0:0:
336,316,62139,1,8,0:0:0:0:
280,188,62806,1,0,0:0:0:0:
148,232,63473,1,8,0:0:0:0:
96,100,64139,6,0,B|164:88|164:88|232:52,1,140,4|8,0:0|0:0,0:0:0:0:
336,140,65473,2,0,B|398:173|398:173|466:185,1,140,0|8,0:0|0:0,0:0:0:0:
416,316,66806,2,0,B|296:296|296:296|176:324,1,245,4|8,0:0|0:0,0:0:0:0:
48,272,68639,1,8,0:0:0:0:
104,144,69306,6,0,P|192:128|284:148,1,175,4|8,0:0|0:0,0:0:0:0:
400,84,70806,1,0,0:0:0:0:
449,216,71473,1,8,0:0:0:0:
436,355,72139,2,0,P|297:369|170:312,1,280,4|4,0:0|0:0,0:0:0:0:
146,72,74806,5,4,0:0:0:0:
285,58,75473,1,8,0:0:0:0:
317,194,76139,1,0,0:0:0:0:
456,180,76806,1,8,0:0:0:0:
488,316,77473,2,0,P|356:268|320:140,1,280,4|4,0:0|0:0,0:0:0:0:
256,60,79306,6,0,L|120:104,1,140,4|4,0:0|0:0,0:0:0:0:
157,272,80806,1,8,0:0:0:0:
271,353,81473,1,0,0:0:0:0:
410,340,82139,1,8,0:0:0:0:
506,239,82806,2,0,P|443:115|326:39,1,280,4|0,0:0|0:0,0:0:0:0:
187,32,84806,1,8,0:0:0:0:
111,149,85473,6,0,P|142:211|195:256,1,140,4|8,0:0|0:0,0:0:0:0:
255,132,86806,2,0,P|308:177|339:239,1,140,4|8,0:0|0:0,0:0:0:0:
321,374,88139,2,0,P|182:359|100:296,1,245,4|4,0:0|0:0,0:0:0:0:
88,124,90139,1,4,0:0:0:0:
180,172,90639,2,0,P|272:172|345:134,1,175,12|4,0:0|0:0,0:0:0:0:
256,192,91973,12,0,95973,0:0:0:0:
