osu file format v11

[General]
AudioFilename: Colorful precious life (Short Ver.).mp3
AudioLeadIn: 0
PreviewTime: 53387
Countdown: 0
SampleSet: Normal
StackLeniency: 0.7
Mode: 1
LetterboxInBreaks: 0

[Editor]
DistanceSpacing: 1.2
BeatDivisor: 4
GridSize: 16

[Metadata]
Title:Colorful precious life (Short Ver.)
TitleUnicode:カラフル precious life (Short Ver.)
Artist:solfa feat. Chata
ArtistUnicode:solfa feat. 茶太
Creator:Kitsuneko
Version:Taiko Muzukashii
Source:Koiimo SWEET*DAYS
Tags:Thite KayeSara mjw5150 parasol opening visual novel eroge galgame
BeatmapID:208737
BeatmapSetID:50183

[Difficulty]
HPDrainRate:5
CircleSize:5
OverallDifficulty:5
ApproachRate:5
SliderMultiplier:1.4
SliderTickRate:1

[Events]
//Background and Video events
0,0,"taiko-koiimo.jpg"
//Break Periods
//Storyboard Layer 0 (Background)
Sprite,Background,Centre,"taiko-koiimo.jpg",320,380 S,0,0,98481,0.625
//Storyboard Layer 1 (Fail)
//Storyboard Layer 2 (Pass)
//Storyboard Layer 3 (Foreground)
//Storyboard Sound Samples
//Background Colour Transformations
3,100,163,162,255

[TimingPoints]
138,333.333333333333,4,1,0,70,1,0
53471,-100,4,1,0,70,0,1
74804,-100,4,1,0,70,0,0

[Colours]
Combo1 : 168,164,242
Combo2 : 255,157,157

[HitObjects]
0,288,5471,1,4,0:0:0
448,288,6637,1,0,0:0:0
0,224,6804,1,0,0:0:0
448,224,7971,5,8,0:0:0
0,160,8137,5,0,0:0:0
448,160,9304,1,0,0:0:0
0,96,9471,1,0,0:0:0
128,96,9804,5,8,0:0:0
256,96,10137,1,8,0:0:0
320,96,10304,5,0,0:0:0
352,96,10387,1,0,0:0:0
384,96,10471,5,8,0:0:0
448,96,10637,1,8,0:0:0
0,288,10804,5,4,0:0:0
128,288,11137,5,8,0:0:0
256,288,11471,5,0,0:0:0
320,288,11637,1,0,0:0:0
384,288,11804,5,8,0:0:0
448,288,11971,5,0,0:0:0
64,224,12304,1,0,0:0:0
128,224,12471,5,8,0:0:0
192,224,12637,5,0,0:0:0
320,224,12971,1,0,0:0:0
384,224,13137,5,8,0:0:0
448,224,13304,5,0,0:0:0
0,160,13471,1,4,0:0:0
128,160,13804,5,8,0:0:0
256,160,14137,5,0,0:0:0
320,160,14304,1,0,0:0:0
384,160,14471,5,8,0:0:0
448,160,14637,5,4,0:0:0
64,96,14971,1,0,0:0:0
128,96,15137,5,8,0:0:0
192,96,15304,5,0,0:0:0
320,96,15637,1,0,0:0:0
384,96,15804,5,8,0:0:0
448,96,15970,1,8,0:0:0
0,288,16137,5,4,0:0:0
128,288,16471,5,8,0:0:0
256,288,16804,5,0,0:0:0
320,288,16971,1,0,0:0:0
384,288,17137,5,8,0:0:0
448,288,17304,5,0,0:0:0
0,224,17471,1,0,0:0:0
128,224,17804,5,8,0:0:0
256,224,18137,5,0,0:0:0
320,224,18304,1,0,0:0:0
384,224,18471,5,8,0:0:0
448,224,18637,1,8,0:0:0
0,160,18804,5,4,0:0:0
128,160,19138,5,8,0:0:0
256,160,19471,5,0,0:0:0
320,160,19638,1,0,0:0:0
384,160,19804,5,8,0:0:0
448,160,19971,5,4,0:0:0
64,96,20304,5,12,0:0:0
128,96,20471,1,12,0:0:0
192,96,20637,5,4,0:0:0
256,96,20804,5,12,0:0:0
320,96,20971,1,8,0:0:0
352,96,21054,1,8,0:0:0
384,96,21137,5,0,0:0:0
416,96,21221,1,0,0:0:0
448,96,21304,1,0,0:0:0
480,96,21387,1,0,0:0:0
0,288,21471,1,0,0:0:0
128,288,21804,5,8,0:0:0
192,288,21971,5,0,0:0:0
320,288,22304,1,0,0:0:0
384,288,22471,5,8,0:0:0
448,288,22637,5,0,0:0:0
64,224,22971,1,0,0:0:0
128,224,23137,5,8,0:0:0
256,224,23471,5,0,0:0:0
384,224,23804,5,8,0:0:0
448,224,23971,1,8,0:0:0
480,224,24054,1,8,0:0:0
0,160,24137,5,0,0:0:0
128,160,24471,5,8,0:0:0
256,160,24804,5,0,0:0:0
320,160,24971,1,0,0:0:0
384,160,25137,5,8,0:0:0
448,160,25304,5,0,0:0:0
64,96,25637,1,0,0:0:0
128,96,25804,5,8,0:0:0
192,96,25971,1,8,0:0:0
256,96,26137,5,0,0:0:0
320,96,26304,1,0,0:0:0
384,96,26471,5,8,0:0:0
448,96,26637,5,0,0:0:0
480,96,26721,5,8,0:0:0
0,288,26804,5,0,0:0:0
128,288,27137,5,8,0:0:0
256,288,27471,5,0,0:0:0
320,288,27637,1,0,0:0:0
384,288,27804,5,8,0:0:0
448,288,27970,5,0,0:0:0
64,224,28304,1,0,0:0:0
128,224,28470,5,8,0:0:0
256,224,28804,5,0,0:0:0
384,224,29137,5,8,0:0:0
448,224,29304,1,8,0:0:0
480,224,29387,1,8,0:0:0
0,160,29470,5,0,0:0:0
128,160,29804,5,8,0:0:0
256,160,30137,5,0,0:0:0
320,160,30304,1,0,0:0:0
384,160,30470,5,8,0:0:0
448,160,30637,1,8,0:0:0
0,96,30804,5,0,0:0:0
64,96,30970,1,0,0:0:0
128,96,31137,5,8,0:0:0
192,96,31304,5,0,0:0:0
256,96,31470,5,8,0:0:0
320,96,31637,5,0,0:0:0
384,96,31804,5,8,0:0:0
448,96,31970,5,0,0:0:0
480,96,32054,5,8,0:0:0
0,288,32137,5,0,0:0:0
128,288,32471,5,8,0:0:0
192,288,32637,5,0,0:0:0
320,288,32971,1,0,0:0:0
384,288,33137,5,8,0:0:0
448,288,33304,5,0,0:0:0
64,224,33637,1,0,0:0:0
128,224,33804,5,8,0:0:0
192,224,33971,1,8,0:0:0
256,224,34137,5,0,0:0:0
320,224,34304,1,0,0:0:0
384,224,34471,5,8,0:0:0
0,160,34804,5,0,0:0:0
128,160,35137,5,8,0:0:0
192,160,35304,5,0,0:0:0
320,160,35637,1,0,0:0:0
384,160,35804,5,8,0:0:0
448,160,35971,5,0,0:0:0
64,96,36304,1,0,0:0:0
128,96,36471,5,8,0:0:0
192,96,36637,1,8,0:0:0
224,96,36721,1,8,0:0:0
256,96,36804,5,0,0:0:0
320,96,36971,1,0,0:0:0
384,96,37137,5,8,0:0:0
448,96,37304,1,8,0:0:0
0,288,37471,5,0,0:0:0
128,288,37804,5,8,0:0:0
256,288,38137,5,0,0:0:0
320,288,38304,1,0,0:0:0
384,288,38471,5,8,0:0:0
448,288,38637,5,0,0:0:0
64,224,38971,1,0,0:0:0
128,224,39137,5,8,0:0:0
192,224,39304,5,0,0:0:0
256,224,39471,5,8,0:0:0
320,224,39637,5,0,0:0:0
384,224,39804,5,8,0:0:0
416,224,39887,1,8,0:0:0
448,224,39971,5,0,0:0:0
0,160,40137,1,4,0:0:0
128,160,40471,5,8,0:0:0
192,160,40637,5,4,0:0:0
320,160,40971,1,0,0:0:0
384,160,41137,5,8,0:0:0
448,160,41304,5,4,0:0:0
64,96,41637,1,0,0:0:0
128,96,41804,5,8,0:0:0
192,96,41971,5,0,0:0:0
256,96,42137,5,8,0:0:0
320,96,42304,5,0,0:0:0
384,96,42471,5,8,0:0:0
416,96,42554,1,8,0:0:0
448,96,42637,5,0,0:0:0
480,96,42721,1,0,0:0:0
0,288,42804,1,0,0:0:0
128,288,43137,5,8,0:0:0
192,288,43304,5,0,0:0:0
320,288,43637,1,0,0:0:0
384,288,43804,5,8,0:0:0
448,288,43971,5,0,0:0:0
64,224,44304,1,0,0:0:0
128,224,44471,5,8,0:0:0
256,224,44804,5,0,0:0:0
320,224,44971,1,0,0:0:0
384,224,45137,5,8,0:0:0
448,224,45304,5,0,0:0:0
0,160,45471,1,0,0:0:0
128,160,45804,5,8,0:0:0
192,160,45971,5,0,0:0:0
320,160,46304,1,0,0:0:0
384,160,46471,5,8,0:0:0
448,160,46637,5,0,0:0:0
64,96,46971,1,0,0:0:0
128,96,47137,5,8,0:0:0
256,96,47471,5,0,0:0:0
320,96,47638,1,0,0:0:0
384,96,47804,5,8,0:0:0
448,96,47971,5,0,0:0:0
0,288,48137,1,4,0:0:0
128,288,48471,5,8,0:0:0
192,288,48637,5,0,0:0:0
320,288,48971,1,0,0:3:0
384,288,49137,5,8,0:0:0
448,288,49304,5,4,0:0:0
128,224,49804,5,8,0:0:0
192,224,49971,5,0,0:0:0
320,224,50304,1,0,0:0:0
384,224,50471,5,8,0:0:0
448,224,50637,5,4,0:0:0
64,160,50971,1,0,0:0:0
128,160,51137,5,8,0:0:0
192,160,51304,5,0,0:0:0
256,160,51471,1,0,0:0:0
320,160,51637,1,0,0:0:0
384,160,51804,5,8,0:0:0
448,160,51971,5,4,0:0:0
64,96,52304,1,4,0:0:0
192,96,52637,1,4,0:0:0
256,96,52804,1,4,0:0:0
384,96,53137,5,8,0:0:0
416,96,53221,1,8,0:0:0
448,96,53304,5,0,0:0:0
480,96,53387,1,0,0:0:0
0,288,53471,1,0,0:0:0
64,288,53637,1,0,0:0:0
128,288,53804,5,8,0:0:0
192,288,53971,5,0,0:0:0
224,288,54054,1,0,0:0:0
256,288,54137,1,0,0:0:0
320,288,54304,1,0,0:0:0
384,288,54471,5,8,0:0:0
448,288,54637,5,0,0:0:0
0,224,54804,1,0,0:0:0
64,224,54971,1,0,0:0:0
128,224,55137,5,8,0:0:0
192,224,55304,5,0,0:0:0
320,224,55637,1,0,0:0:0
352,224,55721,1,0,0:0:0
384,224,55804,5,8,0:0:0
448,224,55971,5,0,0:0:0
0,160,56137,1,0,0:0:0
128,160,56471,5,8,0:0:0
192,160,56637,5,0,0:0:0
320,160,56971,1,0,0:0:0
384,160,57137,5,8,0:0:0
448,160,57304,5,0,0:0:0
0,96,57471,1,0,0:0:0
64,96,57637,1,0,0:0:0
128,96,57804,5,8,0:0:0
192,96,57971,5,0,0:0:0
256,96,58137,5,8,0:0:0
320,96,58304,5,0,0:0:0
384,96,58471,5,8,0:0:0
448,96,58637,5,0,0:0:0
480,96,58721,1,0,0:0:0
0,288,58804,1,0,0:0:0
64,288,58970,1,0,0:0:0
128,288,59137,5,8,0:0:0
192,288,59304,5,0,0:0:0
224,288,59387,1,0,0:0:0
256,288,59471,1,0,0:0:0
320,288,59637,1,0,0:0:0
384,288,59804,5,8,0:0:0
448,288,59970,5,0,0:0:0
0,224,60137,1,0,0:0:0
64,224,60304,1,0,0:0:0
128,224,60470,5,8,0:0:0
192,224,60637,5,0,0:0:0
320,224,60971,1,0,0:0:0
352,224,61054,1,0,0:0:0
384,224,61137,5,8,0:0:0
448,224,61304,5,0,0:0:0
0,160,61471,1,0,0:0:0
128,160,61804,5,8,0:0:0
192,160,61971,5,0,0:0:0
320,160,62304,1,0,0:0:0
384,160,62471,5,8,0:0:0
448,160,62637,5,0,0:0:0
64,96,62971,1,0,0:0:0
128,96,63137,5,12,0:0:0
256,96,63471,1,12,0:0:0
384,96,63804,1,12,0:0:0
0,288,64137,5,0,0:0:0
64,288,64304,1,0,0:0:0
128,288,64471,5,8,0:0:0
192,288,64638,5,0,0:0:0
224,288,64721,1,0,0:0:0
256,288,64804,1,0,0:0:0
320,288,64971,1,0,0:0:0
384,288,65138,5,8,0:0:0
448,288,65304,5,0,0:0:0
0,224,65471,1,0,0:0:0
64,224,65638,1,0,0:0:0
128,224,65804,5,8,0:0:0
192,224,65971,5,0,0:0:0
320,224,66304,1,0,0:0:0
352,224,66388,1,0,0:0:0
384,224,66471,5,8,0:0:0
448,224,66638,5,0,0:0:0
0,160,66804,1,0,0:0:0
128,160,67138,5,8,0:0:0
192,160,67304,5,0,0:0:0
320,160,67638,1,0,0:0:0
384,160,67804,5,8,0:0:0
448,160,67971,5,4,0:0:0
128,96,68471,5,8,0:0:0
192,96,68638,5,4,0:0:0
320,96,68971,1,4,0:0:0
448,96,69304,5,12,0:0:0
128,288,69804,1,8,0:0:0
192,288,69971,5,0,0:0:0
224,288,70054,1,0,0:0:0
256,288,70137,1,0,0:0:0
320,288,70304,1,0,0:0:0
384,288,70471,5,8,0:0:0
448,288,70637,5,0,0:0:0
64,224,70971,1,0,0:0:0
128,224,71137,5,8,0:0:0
192,224,71304,5,0,0:0:0
256,224,71471,1,0,0:0:0
320,224,71637,1,0,0:0:0
384,224,71804,5,8,0:0:0
0,160,72137,5,0,0:0:0
128,160,72471,5,8,0:0:0
192,160,72637,5,0,0:0:0
256,160,72804,1,0,0:0:0
320,160,72971,1,0,0:0:0
384,160,73137,5,8,0:0:0
448,160,73304,5,0,0:0:0
64,96,73637,1,0,0:0:0
128,96,73804,5,8,0:0:0
192,96,73971,5,0,0:0:0
256,96,74137,5,8,0:0:0
320,96,74304,5,0,0:0:0
384,96,74471,5,8,0:0:0
448,96,74637,5,0,0:0:0
0,288,74804,1,0,0:0:0
64,288,74971,1,0,0:0:0
128,288,75137,5,8,0:0:0
192,288,75304,5,0,0:0:0
224,288,75387,1,0,0:0:0
256,288,75471,1,0,0:0:0
320,288,75637,1,0,0:0:0
384,288,75804,5,8,0:0:0
0,224,76137,5,0,0:0:0
64,224,76304,1,0,0:0:0
128,224,76471,5,8,0:0:0
192,224,76637,5,0,0:0:0
320,224,76971,1,0,0:0:0
384,224,77137,5,8,0:0:0
448,224,77304,5,0,0:0:0
0,160,77471,1,0,0:0:0
64,160,77637,1,0,0:0:0
128,160,77804,5,8,0:0:0
192,160,77971,5,0,0:0:0
320,160,78304,5,8,0:0:0
384,160,78471,1,8,0:0:0
0,96,78804,5,0,0:0:0
64,96,78971,1,0,0:0:0
192,96,79304,5,12,0:0:0
320,96,79637,1,12,0:0:0
448,96,79971,1,12,0:0:0
64,288,80304,5,0,0:0:0
128,288,80470,5,8,0:0:0
256,288,80804,5,0,0:0:0
320,288,80970,1,0,0:0:0
384,288,81137,5,8,0:0:0
448,288,81304,5,0,0:0:0
64,224,81637,1,0,0:0:0
128,224,81804,5,8,0:0:0
192,224,81970,5,0,0:0:0
320,224,82304,1,0,0:0:0
384,224,82470,5,8,0:0:0
448,224,82637,5,0,0:0:0
0,160,82804,1,4,0:0:0
128,160,83137,5,8,0:0:0
256,160,83470,5,0,0:0:0
288,160,83554,1,0,0:0:0
320,160,83637,1,0,0:0:0
384,160,83804,5,8,0:0:0
448,160,83970,5,4,0:0:0
64,96,84304,1,0,0:0:0
128,96,84470,5,8,0:0:0
192,96,84637,5,0,0:0:0
320,96,84970,1,0,0:0:0
384,96,85137,5,8,0:0:0
448,96,85303,1,8,0:0:0
0,288,85470,5,4,0:0:0
128,288,85804,5,8,0:0:0
256,288,86137,5,0,0:0:0
320,288,86304,1,0,0:0:0
384,288,86470,5,8,0:0:0
448,288,86637,5,0,0:0:0
0,224,86804,1,0,0:0:0
128,224,87137,5,8,0:0:0
256,224,87470,5,0,0:0:0
320,224,87637,1,0,0:0:0
384,224,87804,5,8,0:0:0
448,224,87970,1,8,0:0:0
0,160,88137,5,4,0:0:0
128,160,88471,5,8,0:0:0
256,160,88804,5,0,0:0:0
320,160,88971,1,0,0:0:0
384,160,89137,5,8,0:0:0
448,160,89304,5,4,0:0:0
64,96,89637,5,12,0:0:0
128,96,89804,1,12,0:0:0
192,96,89970,5,4,0:0:0
256,96,90137,5,12,0:0:0
384,96,90470,1,8,0:0:0
448,96,90637,5,4,0:0:0
64,32,90971,5,12,0:0:0
128,32,91138,1,12,0:0:0
192,32,91304,5,4,0:0:0
256,32,91471,5,12,0:0:0
384,32,91804,5,0,0:0:0
256,192,91971,12,0,95971,0:0:0
