osu file format v11

[General]
AudioFilename: Colorful precious life (Short Ver.).mp3
AudioLeadIn: 0
PreviewTime: 53387
Countdown: 0
SampleSet: Soft
StackLeniency: 0.7
Mode: 0
LetterboxInBreaks: 0

[Editor]
DistanceSpacing: 1
BeatDivisor: 4
GridSize: 4

[Metadata]
Title:Colorful precious life (Short Ver.)
TitleUnicode:カラフル precious life (Short Ver.)
Artist:solfa feat. Chata
ArtistUnicode:solfa feat. 茶太
Creator:Kitsuneko
Version:Normal
Source:Koiimo SWEET*DAYS
Tags:Thite KayeSara mjw5150 parasol opening visual novel eroge galgame
BeatmapID:208700
BeatmapSetID:50183

[Difficulty]
HPDrainRate:4
CircleSize:3
OverallDifficulty:4
ApproachRate:5
SliderMultiplier:0.8
SliderTickRate:1

[Events]
//Background and Video events
0,0,"moe.jpg"
Video,0,"kyun.avi"
//Break Periods
//Storyboard Layer 0 (Background)
//Storyboard Layer 1 (Fail)
//Storyboard Layer 2 (Pass)
//Storyboard Layer 3 (Foreground)
//Storyboard Sound Samples
//Background Colour Transformations
3,100,163,162,255

[TimingPoints]
138,333.333333333333,4,2,1,50,1,0
6637,-100,4,1,1,50,0,0
6887,-100,4,2,1,50,0,0
8137,-100,4,1,1,50,0,0
8221,-100,4,2,1,50,0,0
9304,-100,4,1,1,50,0,0
9554,-100,4,2,1,50,0,0
10221,-100,4,1,1,50,0,0
10804,-100,4,2,1,70,0,0
11471,-100,4,1,1,60,0,0
11554,-100,4,2,1,60,0,0
12471,-100,4,1,1,60,0,0
12554,-100,4,2,1,60,0,0
13137,-100,4,1,1,60,0,0
13221,-100,4,2,1,60,0,0
14137,-100,4,1,1,60,0,0
14221,-100,4,2,1,60,0,0
15137,-100,4,1,1,60,0,0
15554,-100,4,2,1,60,0,0
16804,-100,4,1,1,60,0,0
16887,-100,4,2,1,60,0,0
18137,-100,4,1,1,60,0,0
18221,-100,4,2,1,60,0,0
19471,-100,4,1,1,60,0,0
20137,-100,4,2,1,70,0,0
20471,-100,4,1,1,60,0,0
21471,-100,4,2,2,50,0,0
30804,-100,4,2,2,70,0,0
32137,-100,4,2,2,60,0,0
40137,-100,4,2,2,70,0,0
42471,-100,4,1,1,60,0,0
42804,-100,4,2,1,60,0,0
43137,-100,4,1,1,60,0,0
43887,-100,4,2,1,60,0,0
44471,-100,4,1,1,60,0,0
44554,-100,4,2,1,60,0,0
45137,-100,4,1,1,60,0,0
45221,-100,4,2,1,60,0,0
45804,-100,4,1,1,60,0,0
46554,-100,4,2,1,60,0,0
47137,-100,4,1,1,60,0,0
47471,-100,4,2,1,60,0,0
47804,-100,4,1,1,60,0,0
48137,-100,4,2,1,60,0,0
48471,-100,4,1,1,60,0,0
50554,-100,4,2,1,60,0,0
51137,-100,4,1,1,60,0,0
51221,-100,4,2,1,60,0,0
51804,-100,4,1,1,60,0,0
53471,-100,4,2,1,70,0,1
53804,-100,4,1,1,70,0,1
56137,-100,4,2,1,70,0,1
56471,-100,4,1,1,70,0,1
57471,-100,4,2,1,70,0,1
57804,-100,4,1,1,70,0,1
58137,-100,4,2,1,70,0,1
58471,-100,4,1,1,70,0,1
58804,-100,4,2,1,70,0,1
59137,-100,4,1,1,70,0,1
61471,-100,4,2,1,70,0,1
63137,-100,4,1,1,70,0,1
64137,-100,4,2,1,70,0,1
64471,-100,4,1,1,70,0,1
66804,-100,4,2,1,70,0,1
67137,-100,4,1,1,70,0,1
68471,-100,4,1,1,70,0,0
69304,-100,4,2,1,70,0,1
69804,-100,4,1,1,70,0,1
72137,-100,4,2,1,70,0,1
72471,-100,4,1,1,70,0,1
73471,-100,4,2,1,70,0,1
73804,-100,4,1,1,70,0,1
74804,-100,4,2,1,70,0,0
75137,-100,4,1,1,70,0,0
76137,-100,4,2,1,70,0,0
76471,-100,4,1,1,70,0,0
77471,-100,4,2,1,60,0,0
77804,-100,4,1,1,70,0,0
78137,-100,4,2,1,70,0,0
78471,-100,4,1,1,70,0,0
78804,-100,4,2,1,70,0,0
78971,-100,4,1,1,70,0,0
79971,-100,4,2,1,70,0,0
80471,-100,4,1,1,60,0,0
82804,-100,4,2,1,60,0,0
83137,-100,4,1,1,60,0,0
84137,-100,4,2,1,60,0,0
84471,-100,4,1,1,60,0,0
84804,-100,4,2,1,60,0,0
85137,-100,4,1,1,60,0,0
85471,-100,4,2,1,60,0,0
85804,-100,4,1,1,60,0,0
86804,-100,4,2,1,60,0,0
87137,-100,4,1,1,60,0,0
88137,-100,4,2,1,60,0,0
88471,-100,4,1,1,60,0,0
88804,-100,4,2,1,60,0,0
89137,-100,4,1,1,60,0,0
89304,-100,4,2,1,70,0,0
91971,-100,4,2,1,60,0,0

[Colours]
Combo1 : 242,245,120
Combo2 : 192,192,192
Combo3 : 129,123,236
Combo4 : 232,159,121

[HitObjects]
24,312,5471,2,0,B|148:356|252:276,1,240,4|2,0:0|0:0,0:0:0
300,212,6804,2,0,B|464:236,1,160,0|2,0:0|0:0,0:0:0
512,172,7804,1,0,0:0:0
484,96,8137,6,0,B|376:76|360:140|248:120,1,240,0|2,0:0|0:0,0:0:0
196,60,9471,2,0,B|112:36|36:84,1,160,0|2,0:0|0:0,0:0:0
12,156,10471,1,0,0:0:0
60,220,10804,6,0,B|144:244|220:196,1,160,4|0,0:0|0:0,0:0:0
280,52,12138,2,0,B|360:68,1,80,0|0,0:0|0:0,0:0:0
344,148,12804,2,0,B|424:164,1,80,0|0,0:0|0:0,0:0:0
468,232,13471,6,0,B|484:312|484:312|456:352|420:364,2,160,4|0|0,0:0|0:0|0:0,0:0:0
452,152,15138,1,0,0:0:0
436,72,15471,1,0,0:0:0
276,80,16138,6,0,B|200:44|112:68,1,160,4|0,0:0|0:0,0:0:0
104,224,17471,2,0,B|180:260|268:236,1,160,4|0,0:0|0:0,0:0:0
420,244,18804,1,4,0:0:0
356,96,19471,2,0,B|436:112|436:112|460:144,2,120
276,84,20804,1,0,0:0:0
68,76,21471,5,4,0:0:0
8,128,21804,2,0,B|-12:216|40:284,1,160,8|8,0:0|0:0,0:0:0
172,244,23137,2,0,B|244:196|324:214,1,160,8|8,0:0|0:0,0:0:0
396,252,24137,6,0,B|484:236,1,80,0|8,0:0|0:0,0:0:0
372,116,25137,1,8,0:0:0
212,140,25804,2,0,B|230:220|182:292,1,160,8|8,0:0|0:0,0:0:0
120,344,26804,6,0,B|32:360,1,80,0|8,0:0|0:0,0:0:0
20,200,27804,1,8,0:0:0
176,172,28471,1,8,0:0:0
168,92,28804,6,0,B|256:76,2,80,0|8|0,0:0|0:0|0:0,0:0:0
104,140,29804,2,0,B|68:220|120:296,1,160,8|8,0:0|0:0,0:0:0
196,308,30804,2,0,B|264:292|288:348|356:332,2,160,0|2|4,0:0|0:0|0:0,0:0:0
188,228,32471,6,0,B|280:208|280:208|304:148,1,160,8|8,0:0|0:0,0:0:0
192,32,33804,2,0,B|100:52|100:52|76:112,1,160,8|8,0:0|0:0,0:0:0
8,156,34804,6,0,B|4:200|36:228,1,80,0|8,0:0|0:0,0:0:0
156,124,35804,1,8,0:0:0
236,132,36137,2,0,B|320:116,1,80,0|8,0:0|0:0,0:0:0
328,196,36804,2,0,B|244:212,2,80,0|8|4,0:0|0:0|0:0,0:0:0
408,184,37804,6,0,B|452:256|428:340,1,160,8|8,0:0|0:0,0:0:0
272,364,39137,2,0,B|228:292|252:208,1,160,8|8,0:0|0:0,0:0:0
268,132,40138,6,0,B|200:96|200:96|152:104,1,120,4|0,0:0|0:0,0:0:0
80,124,40971,1,0,0:0:0
104,200,41304,2,0,B|196:188|212:252|304:236,1,200,4|0,0:0|0:0,0:0:0
368,200,42471,1,0,0:0:0
404,128,42804,6,0,B|492:108,1,80,4|0,0:0|0:0,0:0:0
332,56,43804,1,0,0:0:0
288,124,44138,2,0,B|200:144,1,80,0|0,0:0|0:0,0:0:0
156,80,44804,6,0,B|120:60|72:68,1,80
24,128,45471,2,0,B|4:164|12:212,1,80
112,328,46471,1,0,0:0:0
168,268,46804,2,0,B|209:260|245:280,1,80
308,332,47471,2,0,B|396:320,1,80
456,276,48138,5,4,0:0:0
436,200,48471,2,0,B|412:120|464:44,1,160
300,44,49804,2,0,B|324:124|272:200,1,160
196,220,50804,6,0,B|108:232,2,80,0|0|0,0:0|0:0|0:0,0:0:0
248,284,51804,2,0,B|300:276,1,40
356,320,52304,2,0,B|412:352|472:336,1,120
512,180,53471,5,4,0:0:0
500,100,53804,2,0,B|428:60|344:84,1,160,0|0,0:0|0:0,0:0:0
196,144,55138,2,0,B|236:216|212:300,1,160,0|0,0:0|0:0,0:0:0
144,340,56138,5,4,0:0:0
64,324,56471,2,0,B|24:252|48:168,1,160,0|0,0:0|0:0,0:0:0
72,92,57471,2,0,B|152:76,1,80
196,144,58138,2,0,B|276:128,1,80
352,112,58804,5,4,0:0:0
416,160,59138,2,0,B|444:248|384:316,1,160
232,344,60471,2,0,B|128:324|128:324|104:264,1,160
28,264,61471,5,4,0:0:0
124,192,61971,2,0,B|208:208,2,80,0|2|4,0:0|0:0|0:0,0:0:0
76,84,63138,2,0,B|40:60|-4:72,2,80
152,64,64138,5,4,0:0:0
224,100,64471,2,0,B|296:56|384:80,1,160
408,236,65804,2,0,B|336:280|248:256,1,160
192,204,66804,5,4,0:0:0
164,128,67138,2,0,B|88:116|88:116|44:140,1,120
8,204,67971,2,0,B|-8:296|44:360,2,160,0|0|4,0:0|0:0|0:0,0:0:0
40,88,69804,6,0,B|196:60,1,160
164,216,71138,2,0,B|320:188,1,160
384,136,72138,5,4,0:0:0
456,172,72471,2,0,B|480:260|428:324,1,160
352,296,73471,2,0,B|264:316,1,80
212,264,74138,2,0,B|180:288|135:279,2,80,0|0|4,0:0|0:0|0:0,0:0:0
256,196,75138,5,0,0:0:0
416,220,75804,1,0,0:0:0
480,172,76138,1,0,0:0:0
408,140,76471,2,0,B|328:168|256:112,1,160
208,48,77471,6,0,B|120:68,1,80,4|0,0:0|0:0,0:0:0
52,48,78138,1,0,0:0:0
28,124,78471,1,0,0:0:0
104,144,78804,6,0,B|152:160,1,40,4|0,0:0|0:0,0:0:0
188,224,79304,2,0,B|180:268|200:304,2,80,0|0|4,0:0|0:0|0:0,0:0:0
204,104,80471,6,0,B|276:60|360:80,1,160
480,184,81804,2,0,B|500:288|500:288|464:336,1,160
396,296,82804,5,4,0:0:0
336,348,83137,2,0,B|268:300|184:324,1,160
108,296,84137,2,0,B|28:312,2,80
128,220,85137,1,0,0:0:0
204,244,85471,5,4,0:0:0
268,196,85804,2,0,B|352:216|420:164,1,160
456,92,86804,1,0,0:0:0
392,44,87137,2,0,B|308:24|240:76,1,160
172,36,88137,5,4,0:0:0
120,96,88471,2,0,B|84:116|40:104,1,80
28,184,89137,2,0,B|76:200,1,40,0|4,0:0|0:0,0:0:0
92,276,89637,2,0,B|216:316,1,120,4|4,0:0|0:0,0:0:0
316,268,90637,5,4,0:0:0
292,188,90971,2,0,B|168:148,2,120,4|4|4,0:0|0:0|0:0,0:0:0
256,192,92054,12,4,95971,0:0:0
