osu file format v12

[General]
AudioFilename: Colorful precious life (Short Ver.).mp3
AudioLeadIn: 0
PreviewTime: 53429
Countdown: 0
SampleSet: Normal
StackLeniency: 0.5
Mode: 1
LetterboxInBreaks: 0

[Editor]
Bookmarks: 138,10804,21471,32137,42804,53471,64137
DistanceSpacing: 1.2
BeatDivisor: 4
GridSize: 32

[Metadata]
Title:Colorful precious life (Short Ver.)
TitleUnicode:カラフル precious life (Short Ver.)
Artist:solfa feat. Chata
ArtistUnicode:solfa feat. 茶太
Creator:Flask
Version:qoot8123's Inner Oni
Source:Koiimo SWEET*DAYS
Tags:opening eroge hentai parasol taiko ReySHeL qoot8123 0gre Regou
BeatmapID:237037
BeatmapSetID:85853

[Difficulty]
HPDrainRate:6
CircleSize:4
OverallDifficulty:6
ApproachRate:5
SliderMultiplier:1.4
SliderTickRate:2

[Events]
//Background and Video events
0,0,"moe.jpg",0,90
//Break Periods
//Storyboard Layer 0 (Background)
//Storyboard Layer 1 (Fail)
//Storyboard Layer 2 (Pass)
//Storyboard Layer 3 (Foreground)
//Storyboard Sound Samples
//Background Colour Transformations
3,100,163,162,255

[TimingPoints]
138,333.333333333333,4,1,0,80,1,0
42971,-98.0392156862745,4,1,0,80,0,0
45637,-96.1538461538461,4,1,0,80,0,0
48304,-94.3396226415094,4,1,0,80,0,0
49304,-92.5925925925926,4,1,0,80,0,0
50637,-90.9090909090909,4,1,0,80,0,0
52804,-83.3333333333333,4,1,0,80,0,0
52971,-80,4,1,0,80,0,0
53471,-80,4,1,0,80,0,1
68637,-80,4,1,0,80,0,0
69304,-80,4,1,0,80,0,1
74804,-80,4,1,0,80,0,0
74971,-83.3333333333333,4,1,0,80,0,0
76137,-86.9565217391304,4,1,0,80,0,0
77637,-90.9090909090909,4,1,0,80,0,0
78804,-93.4579439252336,4,1,0,80,0,0
79304,-95.2380952380952,4,1,0,80,0,0
79971,-100,4,1,0,80,0,0

[Colours]
Combo1 : 151,151,255
Combo2 : 255,149,255

[HitObjects]
256,192,5471,1,4,0:0:0:0:
256,192,6637,1,0,0:0:0:0:
256,192,6804,1,0,0:0:0:0:
256,192,7971,1,0,0:0:0:0:
256,192,8137,1,8,0:0:0:0:
256,192,9304,1,8,0:0:0:0:
256,192,9471,1,0,0:0:0:0:
256,192,9971,1,8,0:0:0:0:
256,192,10137,1,0,0:0:0:0:
256,192,10221,1,8,0:0:0:0:
256,192,10304,1,8,0:0:0:0:
256,192,10387,1,0,0:0:0:0:
256,192,10471,1,8,0:0:0:0:
256,192,10554,1,0,0:0:0:0:
256,192,10637,1,0,0:0:0:0:
256,192,10721,1,0,0:0:0:0:
256,192,10804,1,8,0:0:0:0:
256,192,10971,1,0,0:0:0:0:
256,192,11054,1,0,0:0:0:0:
256,192,11137,1,8,0:0:0:0:
256,192,11304,1,0,0:0:0:0:
256,192,11471,1,0,0:0:0:0:
256,192,11638,1,0,0:0:0:0:
256,192,11721,1,0,0:0:0:0:
256,192,11804,1,8,0:0:0:0:
256,192,11971,1,0,0:0:0:0:
256,192,12138,1,8,0:0:0:0:
256,192,12304,1,8,0:0:0:0:
256,192,12388,1,8,0:0:0:0:
256,192,12471,1,0,0:0:0:0:
256,192,12638,1,0,0:0:0:0:
256,192,12804,1,8,0:0:0:0:
256,192,12971,1,0,0:0:0:0:
256,192,13054,1,0,0:0:0:0:
256,192,13138,1,8,0:0:0:0:
256,192,13221,1,0,0:0:0:0:
256,192,13304,1,8,0:0:0:0:
256,192,13471,1,0,0:0:0:0:
256,192,13638,1,0,0:0:0:0:
256,192,13721,1,0,0:0:0:0:
256,192,13804,1,8,0:0:0:0:
256,192,13971,1,0,0:0:0:0:
256,192,14138,1,8,0:0:0:0:
256,192,14304,1,0,0:0:0:0:
256,192,14388,1,0,0:0:0:0:
256,192,14471,1,8,0:0:0:0:
256,192,14638,1,0,0:0:0:0:
256,192,14971,1,0,0:0:0:0:
256,192,15138,1,8,0:0:0:0:
256,192,15304,1,0,0:0:0:0:
256,192,15471,1,0,0:0:0:0:
256,192,15638,1,8,0:0:0:0:
256,192,15721,1,8,0:0:0:0:
256,192,15804,1,0,0:0:0:0:
256,192,15888,1,0,0:0:0:0:
256,192,15971,1,8,0:0:0:0:
256,192,16138,1,0,0:0:0:0:
256,192,16304,1,0,0:0:0:0:
256,192,16388,1,0,0:0:0:0:
256,192,16471,1,8,0:0:0:0:
256,192,16638,1,0,0:0:0:0:
256,192,16804,1,0,0:0:0:0:
256,192,16971,1,8,0:0:0:0:
256,192,17054,1,8,0:0:0:0:
256,192,17138,1,0,0:0:0:0:
256,192,17221,1,0,0:0:0:0:
256,192,17304,1,8,0:0:0:0:
256,192,17471,1,0,0:0:0:0:
256,192,17638,1,0,0:0:0:0:
256,192,17721,1,0,0:0:0:0:
256,192,17804,1,8,0:0:0:0:
256,192,17971,1,8,0:0:0:0:
256,192,18138,1,0,0:0:0:0:
256,192,18304,1,8,0:0:0:0:
256,192,18388,1,8,0:0:0:0:
256,192,18471,1,0,0:0:0:0:
256,192,18554,1,0,0:0:0:0:
256,192,18638,1,8,0:0:0:0:
256,192,18804,1,0,0:0:0:0:
256,192,18971,1,8,0:0:0:0:
256,192,19137,1,0,0:0:0:0:
256,192,19221,1,0,0:0:0:0:
256,192,19304,1,8,0:0:0:0:
256,192,19471,1,0,0:0:0:0:
256,192,19637,1,0,0:0:0:0:
256,192,19721,1,0,0:0:0:0:
256,192,19804,1,0,0:0:0:0:
256,192,19971,1,12,0:0:0:0:
256,192,20304,1,12,0:0:0:0:
256,192,20471,1,12,0:0:0:0:
256,192,20637,1,12,0:0:0:0:
256,192,20804,1,12,0:0:0:0:
256,192,20971,1,0,0:0:0:0:
256,192,21054,1,8,0:0:0:0:
256,192,21137,1,8,0:0:0:0:
256,192,21221,1,0,0:0:0:0:
256,192,21304,1,0,0:0:0:0:
256,192,21387,1,0,0:0:0:0:
256,192,21471,1,0,0:0:0:0:
256,192,21804,1,8,0:0:0:0:
256,192,21971,1,0,0:0:0:0:
256,192,22137,1,0,0:0:0:0:
256,192,22221,1,0,0:0:0:0:
256,192,22304,1,0,0:0:0:0:
256,192,22471,1,8,0:0:0:0:
256,192,22637,1,0,0:0:0:0:
256,192,22804,1,0,0:0:0:0:
256,192,22887,1,0,0:0:0:0:
256,192,22971,1,8,0:0:0:0:
256,192,23054,1,0,0:0:0:0:
256,192,23137,1,0,0:0:0:0:
256,192,23304,1,0,0:0:0:0:
256,192,23471,1,8,0:0:0:0:
256,192,23637,1,0,0:0:0:0:
256,192,23804,1,8,0:0:0:0:
256,192,23971,1,8,0:0:0:0:
256,192,24137,1,0,0:0:0:0:
256,192,24471,1,8,0:0:0:0:
256,192,24637,1,0,0:0:0:0:
256,192,24804,1,8,0:0:0:0:
256,192,24887,1,0,0:0:0:0:
256,192,24971,1,8,0:0:0:0:
256,192,25137,1,0,0:0:0:0:
256,192,25304,1,8,0:0:0:0:
256,192,25471,1,8,0:0:0:0:
256,192,25554,1,8,0:0:0:0:
256,192,25637,1,8,0:0:0:0:
256,192,25721,1,0,0:0:0:0:
256,192,25804,1,8,0:0:0:0:
256,192,25971,1,0,0:0:0:0:
256,192,26137,1,0,0:0:0:0:
256,192,26304,1,0,0:0:0:0:
256,192,26471,1,8,0:0:0:0:
256,192,26637,1,8,0:0:0:0:
256,192,26804,1,0,0:0:0:0:
256,192,27137,1,8,0:0:0:0:
256,192,27304,1,0,0:0:0:0:
256,192,27471,1,8,0:0:0:0:
256,192,27554,1,0,0:0:0:0:
256,192,27637,1,8,0:0:0:0:
256,192,27804,1,0,0:0:0:0:
256,192,27971,1,8,0:0:0:0:
256,192,28137,1,0,0:0:0:0:
256,192,28221,1,0,0:0:0:0:
256,192,28304,1,8,0:0:0:0:
256,192,28387,1,8,0:0:0:0:
256,192,28471,1,0,0:0:0:0:
256,192,28637,1,0,0:0:0:0:
256,192,28804,1,8,0:0:0:0:
256,192,28971,1,0,0:0:0:0:
256,192,29137,1,8,0:0:0:0:
256,192,29221,1,8,0:0:0:0:
256,192,29304,1,8,0:0:0:0:
256,192,29471,1,0,0:0:0:0:
256,192,29637,1,0,0:0:0:0:
256,192,29721,1,0,0:0:0:0:
256,192,29804,1,8,0:0:0:0:
256,192,29971,1,0,0:0:0:0:
256,192,30137,1,8,0:0:0:0:
256,192,30304,1,0,0:0:0:0:
256,192,30387,1,0,0:0:0:0:
256,192,30471,1,8,0:0:0:0:
256,192,30637,1,8,0:0:0:0:
256,192,30804,1,0,0:0:0:0:
256,192,30971,1,0,0:0:0:0:
256,192,31137,1,8,0:0:0:0:
256,192,31221,1,0,0:0:0:0:
256,192,31304,1,0,0:0:0:0:
256,192,31471,1,8,0:0:0:0:
256,192,31637,1,0,0:0:0:0:
256,192,31804,1,8,0:0:0:0:
256,192,31887,1,8,0:0:0:0:
256,192,31971,1,0,0:0:0:0:
256,192,32137,1,4,0:0:0:0:
256,192,32304,1,0,0:0:0:0:
256,192,32387,1,0,0:0:0:0:
256,192,32471,1,8,0:0:0:0:
256,192,32637,1,0,0:0:0:0:
256,192,32971,1,0,0:0:0:0:
256,192,33137,1,8,0:0:0:0:
256,192,33304,1,8,0:0:0:0:
256,192,33387,1,0,0:0:0:0:
256,192,33471,1,8,0:0:0:0:
256,192,33637,1,0,0:0:0:0:
256,192,33721,1,0,0:0:0:0:
256,192,33804,1,8,0:0:0:0:
256,192,33971,1,0,0:0:0:0:
256,192,34137,1,8,0:0:0:0:
256,192,34221,1,8,0:0:0:0:
256,192,34304,1,0,0:0:0:0:
256,192,34387,1,0,0:0:0:0:
256,192,34471,1,8,0:0:0:0:
256,192,34637,1,8,0:0:0:0:
256,192,34804,1,0,0:0:0:0:
256,192,34971,1,0,0:0:0:0:
256,192,35054,1,0,0:0:0:0:
256,192,35137,1,8,0:0:0:0:
256,192,35304,1,0,0:0:0:0:
256,192,35637,1,8,0:0:0:0:
256,192,35804,1,0,0:0:0:0:
256,192,35971,1,0,0:0:0:0:
256,192,36054,1,0,0:0:0:0:
256,192,36137,1,8,0:0:0:0:
256,192,36304,1,8,0:0:0:0:
256,192,36471,1,0,0:0:0:0:
256,192,36554,1,8,0:0:0:0:
256,192,36637,1,0,0:0:0:0:
256,192,36804,1,8,0:0:0:0:
256,192,36971,1,0,0:0:0:0:
256,192,37137,1,8,0:0:0:0:
256,192,37221,1,8,0:0:0:0:
256,192,37304,1,8,0:0:0:0:
256,192,37387,1,8,0:0:0:0:
256,192,37471,1,0,0:0:0:0:
256,192,37804,1,8,0:0:0:0:
256,192,37971,1,0,0:0:0:0:
256,192,38137,1,8,0:0:0:0:
256,192,38221,1,8,0:0:0:0:
256,192,38304,1,0,0:0:0:0:
256,192,38471,1,8,0:0:0:0:
256,192,38637,1,0,0:0:0:0:
256,192,38804,1,0,0:0:0:0:
256,192,38887,1,8,0:0:0:0:
256,192,38971,1,0,0:0:0:0:
256,192,39054,1,0,0:0:0:0:
256,192,39137,1,8,0:0:0:0:
256,192,39304,1,0,0:0:0:0:
256,192,39471,1,8,0:0:0:0:
256,192,39554,1,0,0:0:0:0:
256,192,39638,1,0,0:0:0:0:
256,192,39721,1,0,0:0:0:0:
256,192,39804,1,8,0:0:0:0:
256,192,39888,1,8,0:0:0:0:
256,192,39971,1,0,0:0:0:0:
256,192,40138,1,4,0:0:0:0:
256,192,40471,1,8,0:0:0:0:
256,192,40638,1,4,0:0:0:0:
256,192,40971,1,0,0:0:0:0:
256,192,41138,1,8,0:0:0:0:
256,192,41304,1,4,0:0:0:0:
256,192,41638,1,0,0:0:0:0:
256,192,41804,1,8,0:0:0:0:
256,192,41971,1,0,0:0:0:0:
256,192,42138,1,0,0:0:0:0:
256,192,42221,1,8,0:0:0:0:
256,192,42304,1,8,0:0:0:0:
256,192,42388,1,0,0:0:0:0:
256,192,42471,1,8,0:0:0:0:
256,192,42554,1,8,0:0:0:0:
256,192,42638,1,0,0:0:0:0:
256,192,42721,1,0,0:0:0:0:
256,192,42804,1,8,0:0:0:0:
256,192,42971,1,0,0:0:0:0:
256,192,43054,1,0,0:0:0:0:
256,192,43138,1,8,0:0:0:0:
256,192,43304,1,8,0:0:0:0:
256,192,43471,1,0,0:0:0:0:
256,192,43554,1,8,0:0:0:0:
256,192,43638,1,0,0:0:0:0:
256,192,43721,1,0,0:0:0:0:
256,192,43804,1,8,0:0:0:0:
256,192,43971,1,0,0:0:0:0:
256,192,44138,1,8,0:0:0:0:
256,192,44304,1,8,0:0:0:0:
256,192,44388,1,0,0:0:0:0:
256,192,44471,1,8,0:0:0:0:
256,192,44638,1,0,0:0:0:0:
256,192,44804,1,8,0:0:0:0:
256,192,44888,1,0,0:0:0:0:
256,192,44971,1,0,0:0:0:0:
256,192,45054,1,0,0:0:0:0:
256,192,45138,1,8,0:0:0:0:
256,192,45221,1,0,0:0:0:0:
256,192,45304,1,8,0:0:0:0:
256,192,45388,1,8,0:0:0:0:
256,192,45471,1,0,0:0:0:0:
256,192,45638,1,0,0:0:0:0:
256,192,45721,1,0,0:0:0:0:
256,192,45804,1,8,0:0:0:0:
256,192,45971,1,0,0:0:0:0:
256,192,46138,1,8,0:0:0:0:
256,192,46221,1,0,0:0:0:0:
256,192,46304,1,0,0:0:0:0:
256,192,46388,1,0,0:0:0:0:
256,192,46471,1,8,0:0:0:0:
256,192,46638,1,0,0:0:0:0:
256,192,46804,1,0,0:0:0:0:
256,192,46888,1,0,0:0:0:0:
256,192,46971,1,8,0:0:0:0:
256,192,47138,1,8,0:0:0:0:
256,192,47304,1,0,0:0:0:0:
256,192,47471,1,8,0:0:0:0:
256,192,47554,1,0,0:0:0:0:
256,192,47638,1,8,0:0:0:0:
256,192,47721,1,0,0:0:0:0:
256,192,47804,1,8,0:0:0:0:
256,192,47888,1,8,0:0:0:0:
256,192,47971,1,0,0:0:0:0:
256,192,48054,1,0,0:0:0:0:
256,192,48138,1,8,0:0:0:0:
256,192,48304,1,8,0:0:0:0:
256,192,48388,1,8,0:0:0:0:
256,192,48471,1,0,0:0:0:0:
256,192,48638,1,8,0:0:0:0:
256,192,48804,1,8,0:0:0:0:
256,192,48888,1,8,0:0:0:0:
256,192,48971,1,0,0:0:0:0:
256,192,49054,1,0,0:0:0:0:
256,192,49138,1,8,0:0:0:0:
256,192,49304,1,0,0:0:0:0:
256,192,49638,1,0,0:0:0:0:
256,192,49804,1,0,0:0:0:0:
256,192,49971,1,8,0:0:0:0:
256,192,50138,1,0,0:0:0:0:
256,192,50221,1,0,0:0:0:0:
256,192,50304,1,8,0:0:0:0:
256,192,50471,1,8,0:0:0:0:
256,192,50638,5,4,0:0:0:0:
256,192,50971,1,0,0:0:0:0:
256,192,51138,1,8,0:0:0:0:
256,192,51304,1,0,0:0:0:0:
256,192,51471,1,0,0:0:0:0:
256,192,51638,1,8,0:0:0:0:
256,192,51721,1,8,0:0:0:0:
256,192,51804,1,0,0:0:0:0:
256,192,51971,1,4,0:0:0:0:
256,192,52304,1,4,0:0:0:0:
256,192,52638,1,4,0:0:0:0:
256,192,52804,1,4,0:0:0:0:
256,192,52971,1,0,0:0:0:0:
256,192,53054,1,0,0:0:0:0:
256,192,53138,1,8,0:0:0:0:
256,192,53221,1,0,0:0:0:0:
256,192,53304,1,0,0:0:0:0:
256,192,53388,1,0,0:0:0:0:
256,192,53471,1,8,0:0:0:0:
256,192,53638,1,0,0:0:0:0:
256,192,53721,1,0,0:0:0:0:
256,192,53804,1,8,0:0:0:0:
256,192,53971,1,8,0:0:0:0:
256,192,54138,1,0,0:0:0:0:
256,192,54304,1,8,0:0:0:0:
256,192,54388,1,8,0:0:0:0:
256,192,54471,1,0,0:0:0:0:
256,192,54554,1,0,0:0:0:0:
256,192,54638,1,8,0:0:0:0:
256,192,54721,1,8,0:0:0:0:
256,192,54804,1,0,0:0:0:0:
256,192,54971,1,0,0:0:0:0:
256,192,55054,1,8,0:0:0:0:
256,192,55137,1,0,0:0:0:0:
256,192,55304,1,8,0:0:0:0:
256,192,55471,1,0,0:0:0:0:
256,192,55638,1,0,0:0:0:0:
256,192,55721,1,0,0:0:0:0:
256,192,55804,1,8,0:0:0:0:
256,192,55888,1,0,0:0:0:0:
256,192,55971,1,8,0:0:0:0:
256,192,56054,1,8,0:0:0:0:
256,192,56138,1,0,0:0:0:0:
256,192,56304,1,0,0:0:0:0:
256,192,56388,1,0,0:0:0:0:
256,192,56471,1,8,0:0:0:0:
256,192,56638,1,8,0:0:0:0:
256,192,56804,1,0,0:0:0:0:
256,192,56888,1,0,0:0:0:0:
256,192,56971,1,0,0:0:0:0:
256,192,57138,1,8,0:0:0:0:
256,192,57304,1,0,0:0:0:0:
256,192,57388,1,0,0:0:0:0:
256,192,57471,1,8,0:0:0:0:
256,192,57638,1,8,0:0:0:0:
256,192,57804,1,0,0:0:0:0:
256,192,57971,1,8,0:0:0:0:
256,192,58054,1,8,0:0:0:0:
256,192,58138,1,0,0:0:0:0:
256,192,58221,1,8,0:0:0:0:
256,192,58304,1,0,0:0:0:0:
256,192,58388,1,0,0:0:0:0:
256,192,58471,1,8,0:0:0:0:
256,192,58638,1,0,0:0:0:0:
256,192,58804,1,4,0:0:0:0:
256,192,58971,1,8,0:0:0:0:
256,192,59054,1,8,0:0:0:0:
256,192,59138,1,0,0:0:0:0:
256,192,59304,1,8,0:0:0:0:
256,192,59471,1,0,0:0:0:0:
256,192,59638,1,8,0:0:0:0:
256,192,59721,1,0,0:0:0:0:
256,192,59804,1,8,0:0:0:0:
256,192,59888,1,8,0:0:0:0:
256,192,59971,1,0,0:0:0:0:
256,192,60138,1,8,0:0:0:0:
256,192,60304,1,8,0:0:0:0:
256,192,60388,1,8,0:0:0:0:
256,192,60471,1,0,0:0:0:0:
256,192,60638,1,8,0:0:0:0:
256,192,60804,1,0,0:0:0:0:
256,192,60971,1,0,0:0:0:0:
256,192,61138,1,8,0:0:0:0:
256,192,61221,1,8,0:0:0:0:
256,192,61304,1,8,0:0:0:0:
256,192,61388,1,8,0:0:0:0:
256,192,61471,1,0,0:0:0:0:
256,192,61638,1,0,0:0:0:0:
256,192,61804,1,8,0:0:0:0:
256,192,61971,1,0,0:0:0:0:
256,192,62138,1,0,0:0:0:0:
256,192,62304,1,0,0:0:0:0:
256,192,62388,1,0,0:0:0:0:
256,192,62471,1,8,0:0:0:0:
256,192,62638,1,4,0:0:0:0:
256,192,62971,1,0,0:0:0:0:
256,192,63138,1,8,0:0:0:0:
256,192,63304,1,0,0:0:0:0:
256,192,63471,1,8,0:0:0:0:
256,192,63554,1,8,0:0:0:0:
256,192,63638,1,8,0:0:0:0:
256,192,63721,1,0,0:0:0:0:
256,192,63804,1,8,0:0:0:0:
256,192,63888,1,8,0:0:0:0:
256,192,63971,1,0,0:0:0:0:
256,192,64054,1,0,0:0:0:0:
256,192,64138,1,8,0:0:0:0:
256,192,64304,1,8,0:0:0:0:
256,192,64388,1,8,0:0:0:0:
256,192,64471,1,0,0:0:0:0:
256,192,64638,1,8,0:0:0:0:
256,192,64804,1,0,0:0:0:0:
256,192,64971,1,8,0:0:0:0:
256,192,65054,1,8,0:0:0:0:
256,192,65138,1,0,0:0:0:0:
256,192,65221,1,0,0:0:0:0:
256,192,65304,1,8,0:0:0:0:
256,192,65388,1,8,0:0:0:0:
256,192,65471,1,0,0:0:0:0:
256,192,65638,1,8,0:0:0:0:
256,192,65721,1,8,0:0:0:0:
256,192,65804,1,0,0:0:0:0:
256,192,65971,1,8,0:0:0:0:
256,192,66138,1,0,0:0:0:0:
256,192,66304,1,8,0:0:0:0:
256,192,66388,1,0,0:0:0:0:
256,192,66471,1,8,0:0:0:0:
256,192,66554,1,8,0:0:0:0:
256,192,66638,1,0,0:0:0:0:
256,192,66721,1,0,0:0:0:0:
256,192,66804,1,8,0:0:0:0:
256,192,66971,1,0,0:0:0:0:
256,192,67054,1,0,0:0:0:0:
256,192,67138,1,8,0:0:0:0:
256,192,67304,1,0,0:0:0:0:
256,192,67471,1,8,0:0:0:0:
256,192,67638,1,8,0:0:0:0:
256,192,67804,1,0,0:0:0:0:
256,192,67971,1,0,0:0:0:0:
256,192,68304,1,0,0:0:0:0:
256,192,68471,1,8,0:0:0:0:
256,192,68638,1,4,0:0:0:0:
256,192,68971,1,4,0:0:0:0:
256,192,69304,1,4,0:0:0:0:
256,192,69638,1,0,0:0:0:0:
256,192,69804,1,8,0:0:0:0:
256,192,69971,1,8,0:0:0:0:
256,192,70138,1,8,0:0:0:0:
256,192,70221,1,8,0:0:0:0:
256,192,70304,1,0,0:0:0:0:
256,192,70471,1,8,0:0:0:0:
256,192,70638,1,0,0:0:0:0:
256,192,70804,1,8,0:0:0:0:
256,192,70888,1,8,0:0:0:0:
256,192,70971,1,0,0:0:0:0:
256,192,71054,1,0,0:0:0:0:
256,192,71138,1,8,0:0:0:0:
256,192,71304,1,0,0:0:0:0:
256,192,71388,1,0,0:0:0:0:
256,192,71471,1,8,0:0:0:0:
256,192,71638,1,0,0:0:0:0:
256,192,71804,1,8,0:0:0:0:
256,192,71971,1,0,0:0:0:0:
256,192,72054,1,0,0:0:0:0:
256,192,72138,1,8,0:0:0:0:
256,192,72304,1,0,0:0:0:0:
256,192,72471,1,8,0:0:0:0:
256,192,72638,1,0,0:0:0:0:
256,192,72804,1,8,0:0:0:0:
256,192,72971,1,8,0:0:0:0:
256,192,73054,1,8,0:0:0:0:
256,192,73138,1,0,0:0:0:0:
256,192,73304,1,4,0:0:0:0:
256,192,73638,1,0,0:0:0:0:
256,192,73804,1,8,0:0:0:0:
256,192,73888,1,0,0:0:0:0:
256,192,73971,1,0,0:0:0:0:
256,192,74054,1,0,0:0:0:0:
256,192,74138,1,8,0:0:0:0:
256,192,74304,1,0,0:0:0:0:
256,192,74388,1,8,0:0:0:0:
256,192,74471,1,8,0:0:0:0:
256,192,74554,1,0,0:0:0:0:
256,192,74638,1,8,0:0:0:0:
256,192,74721,1,8,0:0:0:0:
256,192,74804,1,0,0:0:0:0:
256,192,74971,1,0,0:0:0:0:
256,192,75054,1,0,0:0:0:0:
256,192,75138,1,8,0:0:0:0:
256,192,75304,1,0,0:0:0:0:
256,192,75471,1,8,0:0:0:0:
256,192,75638,1,0,0:0:0:0:
256,192,75721,1,0,0:0:0:0:
256,192,75804,1,8,0:0:0:0:
256,192,75888,1,0,0:0:0:0:
256,192,75971,1,0,0:0:0:0:
256,192,76138,1,8,0:0:0:0:
256,192,76304,1,8,0:0:0:0:
256,192,76388,1,8,0:0:0:0:
256,192,76471,1,0,0:0:0:0:
256,192,76638,1,0,0:0:0:0:
256,192,76804,1,8,0:0:0:0:
256,192,76971,1,0,0:0:0:0:
256,192,77054,1,0,0:0:0:0:
256,192,77138,1,8,0:0:0:0:
256,192,77304,1,8,0:0:0:0:
256,192,77388,1,8,0:0:0:0:
256,192,77471,1,0,0:0:0:0:
256,192,77638,1,0,0:0:0:0:
256,192,77721,1,0,0:0:0:0:
256,192,77804,1,8,0:0:0:0:
256,192,77971,1,0,0:0:0:0:
256,192,78138,1,0,0:0:0:0:
256,192,78304,1,0,0:0:0:0:
256,192,78471,1,8,0:0:0:0:
256,192,78637,1,0,0:0:0:0:
256,192,78804,1,4,0:0:0:0:
256,192,78971,1,4,0:0:0:0:
256,192,79304,1,4,0:0:0:0:
256,192,79637,1,12,0:0:0:0:
256,192,79971,1,4,0:0:0:0:
256,192,80304,1,0,0:0:0:0:
256,192,80387,1,0,0:0:0:0:
256,192,80471,1,8,0:0:0:0:
256,192,80637,1,0,0:0:0:0:
256,192,80804,1,0,0:0:0:0:
256,192,80971,1,0,0:0:0:0:
256,192,81054,1,0,0:0:0:0:
256,192,81137,1,8,0:0:0:0:
256,192,81304,1,0,0:0:0:0:
256,192,81471,1,8,0:0:0:0:
256,192,81637,1,8,0:0:0:0:
256,192,81721,1,8,0:0:0:0:
256,192,81804,1,0,0:0:0:0:
256,192,81971,1,0,0:0:0:0:
256,192,82137,1,8,0:0:0:0:
256,192,82304,1,0,0:0:0:0:
256,192,82387,1,0,0:0:0:0:
256,192,82471,1,8,0:0:0:0:
256,192,82554,1,0,0:0:0:0:
256,192,82637,1,8,0:0:0:0:
256,192,82804,1,0,0:0:0:0:
256,192,82971,1,0,0:0:0:0:
256,192,83054,1,0,0:0:0:0:
256,192,83137,1,8,0:0:0:0:
256,192,83304,1,0,0:0:0:0:
256,192,83471,1,8,0:0:0:0:
256,192,83637,1,0,0:0:0:0:
256,192,83721,1,0,0:0:0:0:
256,192,83804,1,8,0:0:0:0:
256,192,83971,1,0,0:0:0:0:
256,192,84304,1,0,0:0:0:0:
256,192,84471,1,8,0:0:0:0:
256,192,84637,1,0,0:0:0:0:
256,192,84804,1,0,0:0:0:0:
256,192,84971,1,8,0:0:0:0:
256,192,85054,1,8,0:0:0:0:
256,192,85137,1,0,0:0:0:0:
256,192,85221,1,0,0:0:0:0:
256,192,85304,1,8,0:0:0:0:
256,192,85471,1,0,0:0:0:0:
256,192,85637,1,0,0:0:0:0:
256,192,85721,1,0,0:0:0:0:
256,192,85804,1,8,0:0:0:0:
256,192,85971,1,0,0:0:0:0:
256,192,86137,1,0,0:0:0:0:
256,192,86304,1,8,0:0:0:0:
256,192,86387,1,8,0:0:0:0:
256,192,86471,1,0,0:0:0:0:
256,192,86554,1,0,0:0:0:0:
256,192,86637,1,8,0:0:0:0:
256,192,86804,1,0,0:0:0:0:
256,192,86971,1,0,0:0:0:0:
256,192,87054,1,0,0:0:0:0:
256,192,87137,1,8,0:0:0:0:
256,192,87304,1,8,0:0:0:0:
256,192,87471,1,0,0:0:0:0:
256,192,87637,1,8,0:0:0:0:
256,192,87721,1,8,0:0:0:0:
256,192,87804,1,0,0:0:0:0:
256,192,87887,1,0,0:0:0:0:
256,192,87971,1,8,0:0:0:0:
256,192,88137,1,0,0:0:0:0:
256,192,88304,1,8,0:0:0:0:
256,192,88471,1,0,0:0:0:0:
256,192,88554,1,0,0:0:0:0:
256,192,88637,1,8,0:0:0:0:
256,192,88804,1,0,0:0:0:0:
256,192,88971,1,0,0:0:0:0:
256,192,89054,1,0,0:0:0:0:
256,192,89137,1,0,0:0:0:0:
256,192,89304,1,12,0:0:0:0:
256,192,89637,1,12,0:0:0:0:
256,192,89804,1,12,0:0:0:0:
256,192,89971,1,12,0:0:0:0:
256,192,90137,1,12,0:0:0:0:
256,192,90304,1,8,0:0:0:0:
256,192,90387,1,8,0:0:0:0:
256,192,90471,1,0,0:0:0:0:
256,192,90637,1,4,0:0:0:0:
256,192,90971,1,4,0:0:0:0:
256,192,91137,1,4,0:0:0:0:
256,192,91304,1,4,0:0:0:0:
256,192,91471,1,4,0:0:0:0:
256,192,91637,1,8,0:0:0:0:
256,192,91721,1,8,0:0:0:0:
256,192,91804,1,8,0:0:0:0:
256,192,91971,1,4,0:0:0:0:
