osu file format v12

[General]
AudioFilename: Colorful precious life (Short Ver.).mp3
AudioLeadIn: 2000
PreviewTime: 53429
Countdown: 0
SampleSet: Soft
StackLeniency: 0.5
Mode: 0
LetterboxInBreaks: 0

[Editor]
Bookmarks: 138,10804,21471,32137,42804,53471,64137
DistanceSpacing: 1.1
BeatDivisor: 4
GridSize: 4

[Metadata]
Title:Colorful precious life (Short Ver.)
TitleUnicode:カラフル precious life (Short Ver.)
Artist:solfa feat. Chata
ArtistUnicode:solfa feat. 茶太
Creator:Flask
Version:Insane
Source:Koiimo SWEET*DAYS
Tags:opening eroge hentai parasol taiko ReySHeL qoot8123 0gre Regou
BeatmapID:236810
BeatmapSetID:85853

[Difficulty]
HPDrainRate:7
CircleSize:4
OverallDifficulty:7
ApproachRate:8
SliderMultiplier:1.55
SliderTickRate:2

[Events]
//Background and Video events
0,0,"moe.jpg",0,0
Video,0,"kyun.avi"
//Break Periods
//Storyboard Layer 0 (Background)
//Storyboard Layer 1 (Fail)
//Storyboard Layer 2 (Pass)
//Storyboard Layer 3 (Foreground)
//Storyboard Sound Samples
//Background Colour Transformations
3,100,163,162,255

[TimingPoints]
138,333.333333333333,4,2,1,20,1,0
138,-153.846153846154,4,2,1,20,0,0
5471,-100,4,2,1,50,0,0
6637,-100,4,2,1,25,0,0
6887,-100,4,2,1,50,0,0
7971,-100,4,2,1,25,0,0
8221,-100,4,2,1,50,0,0
9304,-100,4,2,1,25,0,0
9387,-100,4,2,1,50,0,0
10304,-100,4,2,1,20,0,0
10804,-100,4,2,2,60,0,0
12471,-100,4,2,4,60,0,0
12554,-100,4,2,2,60,0,0
20971,-100,4,2,1,50,0,0
21137,-100,4,2,1,40,0,0
21304,-100,4,2,1,30,0,0
21387,-100,4,2,1,20,0,0
21471,-100,4,2,1,50,0,0
21804,-100,4,2,3,50,0,0
31137,-100,4,2,1,30,0,0
31387,-100,4,2,3,50,0,0
31804,-100,4,2,1,50,0,0
31887,-100,4,2,1,40,0,0
31971,-100,4,2,1,30,0,0
32137,-100,4,2,3,50,0,0
39137,-100,4,2,5,50,0,0
39221,-100,4,2,3,50,0,0
39804,-100,4,2,1,30,0,0
40137,-100,4,2,3,50,0,0
41137,-100,4,2,1,50,0,0
42471,-100,4,2,1,40,0,0
42637,-100,4,2,1,30,0,0
42721,-100,4,2,1,20,0,0
42804,-100,4,2,1,60,0,0
53137,-100,4,2,1,50,0,0
53221,-100,4,2,1,40,0,0
53304,-100,4,2,1,30,0,0
53471,-100,4,2,2,70,0,1
63137,-100,4,2,1,60,0,1
63637,-100,4,2,1,40,0,1
63804,-100,4,2,1,50,0,1
63971,-100,4,2,1,60,0,1
64054,-100,4,2,2,70,0,0
64137,-100,4,2,2,70,0,1
73471,-100,4,2,1,60,0,1
74137,-100,4,2,1,50,0,1
74304,-100,4,2,1,45,0,1
74471,-100,4,2,1,40,0,1
74804,-100,4,2,2,50,0,0
78971,-100,4,2,2,60,0,0
80054,-100,4,2,2,50,0,0
81804,-100,4,2,4,50,0,0
81887,-100,4,2,2,50,0,0
90304,-100,4,2,1,40,0,0
90471,-100,4,2,1,30,0,0
90637,-100,4,2,1,50,0,0
91637,-100,4,2,1,40,0,0
91971,-100,4,2,1,50,0,1
92054,-100,4,2,1,50,0,0

[Colours]
Combo1 : 255,255,15
Combo2 : 255,149,255
Combo3 : 151,151,255
Combo4 : 255,55,55

[HitObjects]
128,236,138,2,0,L|120:184,3,50.3749976940156,2|0|2|0,0:0|0:0|0:0|0:0,0:0:0:0:
124,84,971,1,0,0:0:0:0:
124,84,1137,2,0,P|152:92|184:84,1,50.3749976940156,2|0,0:0|0:0,0:0:0:0:
224,84,1471,6,0,P|244:80|272:88,3,50.3749976940156,2|0|2|0,0:0|0:0|0:0|0:0,0:0:0:0:
256,188,2304,1,0,0:0:0:0:
256,188,2471,2,0,L|256:244,1,50.3749976940156,2|0,0:0|0:0,0:0:0:0:
256,288,2804,6,0,P|252:320|236:340,3,50.3749976940156,2|0|2|0,0:0|0:0|0:0|0:0,0:0:0:0:
144,352,3637,1,0,0:0:0:0:
144,352,3804,2,0,P|120:344|92:348,1,50.3749976940156,2|0,0:0|0:0,0:0:0:0:
48,364,4137,6,0,L|48:308,3,50.3749976940156,2|0|2|0,0:0|0:0|0:0|0:0,0:0:0:0:
48,212,4971,1,0,0:0:0:0:
48,212,5137,2,0,L|48:152,1,50.3749976940156,2|0,0:0|0:0,0:0:0:0:
60,84,5471,6,0,P|88:56|136:52,1,77.5,4|0,0:0|0:0,0:0:0:0:
192,84,5804,2,0,P|202:122|181:165,1,77.5,2|0,0:0|0:0,0:0:0:0:
188,312,6304,1,0,0:0:0:0:
252,352,6471,1,2,0:0:0:0:
320,316,6637,1,0,1:0:0:0:
332,240,6804,6,0,L|340:156,1,77.5,0|0,1:0|0:0,0:0:0:0:
268,132,7137,2,0,L|260:216,1,77.5,2|0,0:0|0:0,0:0:0:0:
120,272,7637,1,0,0:0:0:0:
48,244,7804,1,2,0:0:0:0:
28,168,7971,1,0,1:0:0:0:
44,92,8137,6,0,P|52:56|52:12,1,77.5,0|0,1:0|0:0,0:0:0:0:
132,24,8471,2,0,P|124:60|124:104,1,77.5,2|0,0:0|0:0,0:0:0:0:
188,240,8971,1,0,0:0:0:0:
220,312,9137,1,2,0:0:0:0:
296,328,9304,1,0,1:0:0:0:
441,274,9637,5,2,0:0:0:0:
388,129,9971,2,0,L|348:56,1,77.5,2|2,0:0|0:0,0:0:0:0:
276,36,10304,2,0,L|224:28,5,38.75,8|8|8|8|8|8,0:0|0:0|0:0|0:0|0:0|0:0,0:0:0:0:
156,24,10804,6,0,B|148:80|200:108|200:108|272:120,1,155,4|8,0:0|0:0,0:0:0:0:
308,192,11304,1,0,0:0:0:0:
252,267,11471,2,0,B|200:276|200:276|148:304|156:360,1,155,0|8,0:0|0:0,0:0:0:0:
248,360,11971,2,0,L|332:344,1,77.5
412,320,12304,6,0,P|460:252|440:188,1,155,2|2,0:0|0:0,0:0:0:0:
276,108,12971,1,2,0:0:0:0:
220,36,13137,1,8,0:0:0:0:
312,24,13304,1,2,0:0:0:0:
284,192,13471,6,0,P|268:268|196:288,1,155,4|8,0:0|0:0,0:0:0:0:
60,168,14137,2,0,P|76:92|148:72,1,155,2|8,0:0|0:0,0:0:0:0:
280,96,14637,6,0,B|328:112|360:96|360:96|408:80|440:96,1,155,4|2,0:0|0:0,0:0:0:0:
500,140,15137,2,0,P|516:104|508:56,1,77.5,8|2,0:0|0:0,0:0:0:0:
380,284,15637,2,0,P|364:320|372:368,2,77.5,2|8|2,0:0|0:0|0:0,0:0:0:0:
268,196,16137,6,0,P|267:113|235:49,1,155,4|8,0:0|0:0,0:0:0:0:
144,28,16637,2,0,P|100:40|64:32,1,77.5
12,108,16971,1,2,0:0:0:0:
56,192,17137,1,8,0:0:0:0:
12,276,17304,1,2,0:0:0:0:
148,192,17471,6,0,P|220:160|296:180,1,155,4|8,0:0|0:0,0:0:0:0:
372,224,17971,2,0,P|412:232|460:220,1,77.5
504,152,18304,1,2,0:0:0:0:
460,72,18471,1,8,0:0:0:0:
412,152,18637,1,2,0:0:0:0:
416,300,18804,6,0,B|432:344|400:376|400:376|364:364|316:392,1,155,4|8,0:0|0:0,0:0:0:0:
256,328,19304,1,0,0:0:0:0:
182,384,19471,2,0,B|148:364|112:376|112:376|80:344|96:300,1,155,2|8,0:0|0:0,0:0:0:0:
172,172,19971,5,4,0:0:0:0:
172,172,20304,1,4,0:0:0:0:
303,126,20471,1,4,0:0:0:0:
349,258,20637,1,4,0:0:0:0:
216,303,20804,1,4,0:0:0:0:
260,216,20971,2,0,L|244:168,5,38.75,8|8|8|8|8|8,0:0|0:0|0:0|0:0|0:0|0:0,0:0:0:0:
236,132,21471,6,0,P|280:68|356:68,1,155,4|8,0:0|0:0,0:0:0:0:
432,112,21971,2,0,P|465:182|427:247,1,155,2|0,0:0|0:0,0:0:0:0:
368,176,22471,1,8,0:0:0:0:
368,176,22637,2,0,L|200:176,1,155,2|0,0:0|0:0,0:0:0:0:
144,240,23137,2,0,P|135:276|139:316,1,77.5,8|0,0:0|0:0,0:0:0:0:
96,168,23471,2,0,P|59:159|19:163,1,77.5,2|0,0:0|0:0,0:0:0:0:
152,108,23804,2,0,P|160:71|156:31,1,77.5,0|0,0:0|0:0,0:0:0:0:
32,20,24137,5,2,0:0:0:0:
32,20,24471,2,0,P|-4:80|16:172,1,155,8|2,0:0|0:0,0:0:0:0:
60,236,24971,2,0,P|72:272|56:320,1,77.5,0|8,0:0|0:0,0:0:0:0:
0,376,25304,2,0,P|76:348|148:376,1,155,2|0,0:0|0:0,0:0:0:0:
236,372,25804,2,0,P|276:380|320:368,1,77.5,8|0,0:0|0:0,0:0:0:0:
392,324,26137,2,0,P|432:316|467:323,1,77.5,2|0,0:0|0:0,0:0:0:0:
348,240,26471,2,0,P|361:201|393:169,1,77.5,8|0,0:0|0:0,0:0:0:0:
264,284,26804,6,0,P|220:216|224:136,1,155,2|8,0:0|0:0,0:0:0:0:
372,32,27471,1,2,0:0:0:0:
372,32,27637,2,0,P|388:72|384:112,1,77.5,0|8,0:0|0:0,0:0:0:0:
360,196,27971,2,0,P|360:248|408:336,1,155,2|0,0:0|0:0,0:0:0:0:
324,372,28471,2,0,P|284:364|244:376,1,77.5,8|0,0:0|0:0,0:0:0:0:
156,376,28804,2,0,P|116:384|76:372,1,77.5,2|0,0:0|0:0,0:0:0:0:
120,292,29137,2,0,P|81:278|52:248,1,77.5,8|0,0:0|0:0,0:0:0:0:
132,204,29471,6,0,P|96:144|116:64,1,155,2|8,0:0|0:0,0:0:0:0:
300,44,30137,1,2,0:0:0:0:
300,44,30304,2,0,P|344:52|384:44,1,77.5,0|8,0:0|0:0,0:0:0:0:
464,76,30637,6,0,P|432:152|460:216,1,155,2|0,0:0|0:0,0:0:0:0:
480,336,31137,2,0,L|512:372,2,38.75,8|8|8,0:0|0:0|0:0,0:0:0:0:
372,288,31471,2,0,P|296:256|232:284,1,155,2|8,0:0|0:0,0:0:0:0:
207,311,31887,1,0,0:0:0:0:
180,339,31971,2,0,L|147:371,2,38.75,8|8|4,0:0|0:0|0:0,0:0:0:0:
224,164,32471,5,8,0:0:0:0:
224,164,32637,2,0,P|220:88|268:28,1,155,2|0,0:0|0:0,0:0:0:0:
360,12,33137,1,8,0:0:0:0:
452,24,33304,2,0,P|498:83|494:159,1,155,2|0,0:0|0:0,0:0:0:0:
460,244,33804,2,0,P|444:280|452:320,1,77.5,8|0,0:0|0:0,0:0:0:0:
368,360,34137,2,0,P|344:328|306:315,1,77.5,2|0,0:0|0:0,0:0:0:0:
320,224,34471,2,0,P|359:219|389:192,1,77.5,8|0,0:0|0:0,0:0:0:0:
356,72,34804,5,2,0:0:0:0:
168,40,35137,1,8,0:0:0:0:
168,40,35304,2,0,P|160:112|84:136,1,155,2|0,0:0|0:0,0:0:0:0:
12,192,35804,1,8,0:0:0:0:
89,246,35971,2,0,P|160:272|168:344,1,155,2|0,0:0|0:0,0:0:0:0:
260,344,36471,2,0,P|264:304|256:260,1,77.5,8|0,0:0|0:0,0:0:0:0:
360,140,36804,2,0,P|323:156|289:185,1,77.5,2|0,0:0|0:0,0:0:0:0:
136,152,37137,2,0,P|168:175|210:190,1,77.5,8|0,0:0|0:0,0:0:0:0:
360,252,37471,6,0,P|428:284|456:360,1,155,4|8,0:0|0:0,0:0:0:0:
260,344,38137,1,2,0:0:0:0:
168,332,38304,2,0,P|132:328|80:340,1,77.5,0|8,0:0|0:0,0:0:0:0:
16,376,38637,2,0,P|0:292|20:224,2,155,2|0|0,0:0|0:0|0:0,0:0:0:0:
92,336,39471,2,0,P|84:296|96:256,1,77.5,2|0,0:0|0:0,0:0:0:0:
168,140,39804,2,0,L|160:96,3,38.75,8|8|8|8,0:0|0:0|0:0|0:0,0:0:0:0:
160,56,40137,6,0,B|180:16|180:16|232:52|288:24,1,155,4|0,0:0|0:0,0:0:0:0:
424,24,40637,2,0,P|472:64|432:136,1,155,4|0,0:0|0:0,0:0:0:0:
308,192,41137,1,8,0:0:0:0:
434,248,41304,2,0,P|472:320|424:360,1,155,4|0,0:0|0:0,0:0:0:0:
340,324,41804,2,0,P|300:316|260:328,1,77.5,8|0,0:0|0:0,0:0:0:0:
136,380,42137,1,0,0:0:0:0:
156,240,42304,2,0,L|140:196,5,38.75,8|8|8|8|8|8,0:0|0:0|0:0|0:0|0:0|0:0,0:0:0:0:
128,160,42804,6,0,B|108:112|108:112|96:44|36:40,1,155,4|8,0:0|0:0,0:0:0:0:
16,132,43304,2,0,B|44:208|44:208|16:236|20:280,1,155,2|0,0:0|0:0,0:0:0:0:
112,272,43804,1,8,0:0:0:0:
124,364,43971,2,0,B|163:367|191:339|191:339|267:367,1,155,2|0,0:0|0:0,0:0:0:0:
408,372,44471,1,8,0:0:0:0:
408,372,44804,6,0,P|396:332|400:288,1,77.5,2|0,0:0|0:0,0:0:0:0:
400,136,45137,2,0,P|412:176|408:220,1,77.5,8|0,0:0|0:0,0:0:0:0:
276,256,45471,2,0,B|224:276|176:224|176:224|124:224,1,155,2|8,0:0|0:0,0:0:0:0:
128,132,45971,2,0,B|170:132|170:132|218:80|270:100,1,155,2|0,0:0|0:0,0:0:0:0:
352,148,46471,1,8,0:0:0:0:
412,76,46637,2,0,P|440:136|408:220,1,155,2|0,0:0|0:0,0:0:0:0:
316,320,47137,1,8,0:0:0:0:
316,320,47471,6,0,L|236:320,1,77.5,2|0,0:0|0:0,0:0:0:0:
88,372,47804,2,0,L|168:372,1,77.5,8|0,0:0|0:0,0:0:0:0:
272,248,48137,2,0,P|312:184|272:116,1,155,4|8,0:0|0:0,0:0:0:0:
184,120,48637,2,0,P|144:184|184:252,1,155,2|0,0:0|0:0,0:0:0:0:
292,336,49137,1,8,0:0:0:0:
396,244,49304,6,0,B|432:184|504:208|504:208|536:156|512:84,1,232.5,4|8,0:0|0:0,0:0:0:0:
460,32,49971,2,0,P|388:16|324:68,1,155,2|0,0:0|0:0,0:0:0:0:
312,156,50471,1,8,0:0:0:0:
256,192,50637,12,8,51804,0:0:0:0:
192,272,51971,5,4,0:0:0:0:
352,120,52304,1,4,0:0:0:0:
216,296,52637,2,0,L|276:352,1,77.5,4|4,0:0|0:0,0:0:0:0:
272,348,53137,6,0,L|310:370,3,38.75,8|8|8|8,0:0|0:0|0:0|0:0,0:0:0:0:
356,376,53471,2,0,P|396:376|428:356,1,77.5,4|0,0:0|0:0,0:0:0:0:
468,272,53804,1,8,0:0:0:0:
452,180,53971,2,0,P|424:112|456:28,1,155,2|2,0:0|0:0,0:0:0:0:
508,108,54471,1,8,0:0:0:0:
344,116,54637,1,0,0:0:0:0:
432,256,54804,6,0,P|448:296|440:328,1,77.5,2|0,0:0|0:0,0:0:0:0:
356,368,55137,1,8,0:0:0:0:
280,312,55304,2,0,P|204:284|132:316,1,155,2|0,0:0|0:0,0:0:0:0:
208,372,55804,1,8,0:0:0:0:
208,200,55971,1,0,0:0:0:0:
60,284,56137,6,0,P|12:252|-8:156,1,155,4|8,0:0|0:0,0:0:0:0:
24,76,56637,2,0,B|68:52|112:68|112:68|144:80|184:64,1,155,2|0,0:0|0:0,0:0:0:0:
324,16,57137,2,0,P|284:16|244:36,1,77.5,8|0,0:0|0:0,0:0:0:0:
240,124,57471,2,0,P|312:144|368:96,1,155,4|8,0:0|0:0,0:0:0:0:
408,180,57971,2,0,P|344:220|256:220,1,155,2|0,0:0|0:0,0:0:0:0:
120,196,58471,2,0,P|156:184|196:192,1,77.5,8|0,0:0|0:0,0:0:0:0:
268,312,58804,6,0,P|296:344|336:356,1,77.5,4|0,0:0|0:0,0:0:0:0:
400,296,59137,1,8,0:0:0:0:
472,356,59304,2,0,P|500:280|484:204,1,155,2|2,0:0|0:0,0:0:0:0:
400,124,59804,1,8,0:0:0:0:
508,92,59971,1,0,0:0:0:0:
424,12,60137,6,0,P|384:4|336:20,1,77.5,2|0,0:0|0:0,0:0:0:0:
276,72,60471,1,8,0:0:0:0:
216,144,60637,2,0,P|144:176|76:144,1,155,2|0,0:0|0:0,0:0:0:0:
148,88,61137,2,0,L|148:8,1,77.5,8|0,0:0|0:0,0:0:0:0:
148,252,61471,6,0,B|148:304|148:304|144:368|88:380,1,155,4|8,0:0|0:0,0:0:0:0:
60,292,61971,2,0,B|60:240|60:240|64:176|120:164,1,155,2|2,0:0|0:0,0:0:0:0:
208,184,62471,1,8,0:0:0:0:
336,236,62637,6,0,P|396:272|476:244,1,155,4|0,0:0|0:0,0:0:0:0:
504,104,63137,2,0,P|480:128|472:176,1,77.5,8|0,0:0|0:0,0:0:0:0:
448,352,63471,2,0,L|404:372,3,38.75,2|0|8|8,0:0|0:0|0:0|0:0,0:0:0:0:
368,376,63804,2,0,L|328:380,3,38.75,8|8|8|8,0:0|0:0|0:0|0:0,0:0:0:0:
284,376,64137,6,0,P|244:356|228:320,1,77.5,4|0,0:0|0:0,0:0:0:0:
216,236,64471,1,8,0:0:0:0:
228,144,64637,2,0,P|208:72|140:40,1,155,2|2,0:0|0:0,0:0:0:0:
140,132,65137,1,8,0:0:0:0:
280,28,65304,1,0,0:0:0:0:
292,200,65471,6,0,P|304:240|336:268,1,77.5,2|0,0:0|0:0,0:0:0:0:
388,336,65804,1,8,0:0:0:0:
292,348,65971,2,0,P|208:332|136:372,1,155,2|2,0:0|0:0,0:0:0:0:
72,248,66471,1,8,0:0:0:0:
4,360,66637,1,0,0:0:0:0:
72,248,66804,6,0,P|112:196|96:112,1,155,4|8,0:0|0:0,0:0:0:0:
180,72,67304,2,0,P|205:132|285:160,1,155,2|2,0:0|0:0,0:0:0:0:
268,68,67804,1,8,0:0:0:0:
276,252,67971,2,0,P|210:243|132:368,1,232.5,4|8,0:0|0:0,3:0:0:0:
256,368,68637,5,4,0:0:0:0:
272,364,68971,5,4,0:0:0:0:
288,360,69304,6,0,B|340:336|340:336|352:272|416:264,1,155,4|0,0:0|0:0,0:0:0:0:
456,192,69804,1,8,0:0:0:0:
400,117,69971,2,0,B|352:112|340:48|340:48|288:24,1,155,2|0,0:0|0:0,0:0:0:0:
196,36,70471,1,8,0:0:0:0:
248,112,70637,2,0,P|176:124|108:68,1,155,2|0,0:0|0:0,0:0:0:0:
36,132,71137,2,0,P|64:172|96:192,1,77.5,8|0,0:0|0:0,0:0:0:0:
116,344,71471,2,0,P|136:299|137:262,1,77.5,2|0,0:0|0:0,0:0:0:0:
268,172,71804,2,0,P|219:176|186:193,1,77.5,8|0,0:0|0:0,0:0:0:0:
260,288,72137,6,0,P|328:292|416:240,2,155,4|8|0,0:0|0:0|0:0,0:0:0:0:
176,244,72971,2,0,P|136:236|96:244,1,77.5,2|8,0:0|0:0,0:0:0:0:
48,340,73304,2,0,L|48:180,1,155,4|0,0:0|0:0,0:0:0:0:
88,76,73804,2,0,P|124:52|160:48,1,77.5,8|0,0:0|0:0,0:0:0:0:
276,68,74137,2,0,L|320:76,3,38.75,8|8|8|8,0:0|0:0|0:0|0:0,0:0:0:0:
356,96,74471,2,0,L|388:124,3,38.75,8|8|8|8,0:0|0:0|0:0|0:0,0:0:0:0:
412,160,74804,6,0,P|416:200|408:240,2,77.5,4|0|8,0:0|0:0|0:0,0:0:0:0:
496,120,75304,2,0,P|504:200|496:276,1,155,2|0,0:0|0:0,0:0:0:0:
440,348,75804,2,0,P|404:368|364:372,1,77.5,8|0,0:0|0:0,0:0:0:0:
280,336,76137,2,0,P|244:340|208:360,2,77.5,2|0|8,0:0|0:0|0:0,0:0:0:0:
352,280,76637,2,0,P|380:212|356:132,1,155,2|0,0:0|0:0,0:0:0:0:
288,80,77137,2,0,P|268:44|264:8,1,77.5,8|0,0:0|0:0,0:0:0:0:
272,172,77471,6,0,P|252:208|221:228,2,77.5,4|0|8,0:0|0:0|0:0,0:0:0:0:
184,148,77971,2,0,L|312:260,1,155,2|0,0:0|0:0,0:0:0:0:
372,312,78471,2,0,P|368:356|344:388,1,77.5,8|0,0:0|0:0,0:0:0:0:
208,384,78804,6,0,P|189:357|185:313,1,77.5,4|4,0:0|0:0,0:0:0:0:
188,296,79304,5,4,0:0:0:0:
192,280,79637,5,4,0:0:0:0:
196,264,79971,6,0,P|216:200|160:128,1,155,4|0,0:0|0:0,0:0:0:0:
124,212,80471,1,8,0:0:0:0:
52,156,80637,2,0,P|32:220|88:292,1,155,0|0,0:0|0:0,0:0:0:0:
164,320,81137,2,0,P|204:324|240:348,1,77.5,8|0,0:0|0:0,0:0:0:0:
324,372,81471,1,0,0:0:0:0:
412,340,81637,6,0,B|440:308|484:312|484:312|504:272|488:224,1,155,2|2,0:0|0:0,0:0:0:0:
324,148,82304,1,2,0:0:0:0:
276,68,82471,1,8,0:0:0:0:
368,64,82637,1,2,0:0:0:0:
324,228,82804,6,0,P|292:296|220:312,1,155,4|8,0:0|0:0,0:0:0:0:
104,164,83471,2,0,P|136:96|208:80,1,155,2|8,0:0|0:0,0:0:0:0:
324,148,83971,6,0,P|404:156|476:120,1,155,4|2,0:0|0:0,0:0:0:0:
504,40,84471,2,0,P|464:36|428:48,1,77.5,8|2,0:0|0:0,0:0:0:0:
356,248,84971,2,0,P|396:252|432:240,2,77.5,2|8|2,0:0|0:0|0:0,0:0:0:0:
220,224,85471,6,0,P|144:208|68:232,1,155,4|8,0:0|0:0,0:0:0:0:
32,312,85971,2,0,P|0:288|-16:248,1,77.5
0,164,86304,1,2,0:0:0:0:
72,104,86471,1,8,0:0:0:0:
8,40,86637,1,2,0:0:0:0:
164,100,86804,6,0,P|240:124|316:92,1,155,4|8,0:0|0:0,0:0:0:0:
388,52,87304,2,0,P|424:36|464:40,1,77.5
504,120,87637,1,2,0:0:0:0:
444,192,87804,1,8,0:0:0:0:
504,264,87971,1,2,0:0:0:0:
328,268,88137,6,0,P|252:288|176:264,1,155,4|8,0:0|0:0,0:0:0:0:
128,192,88637,1,0,0:0:0:0:
180,117,88804,2,0,P|252:96|328:116,1,155,2|8,0:0|0:0,0:0:0:0:
400,236,89304,5,4,0:0:0:0:
400,236,89638,1,4,0:0:0:0:
303,352,89804,1,4,0:0:0:0:
314,201,89971,1,4,0:0:0:0:
393,329,90138,1,4,0:0:0:0:
254,273,90304,2,0,L|208:264,3,38.75,8|8|8|8,0:0|0:0|0:0|0:0,0:0:0:0:
172,252,90637,1,4,0:0:0:0:
172,252,90971,5,4,0:0:0:0:
142,117,91138,1,4,0:0:0:0:
9,146,91305,1,4,0:0:0:0:
37,280,91471,1,4,0:0:0:0:
88,200,91637,2,0,L|136:188,4,38.75,8|8|8|8|4,0:0|0:0|0:0|0:0|0:0,0:0:0:0:
256,192,92054,12,4,95971,0:0:0:0:
