osu file format v12

[General]
AudioFilename: hoshisanc.mp3
AudioLeadIn: 2000
PreviewTime: 52333
Countdown: 0
SampleSet: Soft
StackLeniency: 0.7
Mode: 0
LetterboxInBreaks: 0
WidescreenStoryboard: 0

[Editor]
DistanceSpacing: 1.43
BeatDivisor: 4
GridSize: 4

[Metadata]
Title:brand new day
TitleUnicode:brand new day
Artist:solfa feat. Ceui
ArtistUnicode:solfa feat. Ceui
Creator:CloudSplash16
Version:Hard
Source:Hoshi no Ne Sanctuary
Tags:laurier toara_fict opening visual novel eroge 星ノ音サンクチュアリ marmalade cs16
BeatmapID:287492
BeatmapSetID:110305

[Difficulty]
HPDrainRate:6
CircleSize:4
OverallDifficulty:6
ApproachRate:7
SliderMultiplier:1.5
SliderTickRate:2

[Events]
//Background and Video events
0,0,"bg.png",0,0
Video,0,"OP1.avi"
//Break Periods
//Storyboard Layer 0 (Background)
//Storyboard Layer 1 (Fail)
//Storyboard Layer 2 (Pass)
//Storyboard Layer 3 (Foreground)
//Storyboard Sound Samples
//Background Colour Transformations
3,100,163,162,255

[TimingPoints]
1752,355.029585798817,4,2,1,60,1,0
1752,-133.333333333333,4,2,1,60,0,0
3882,-133.333333333333,4,2,2,60,0,0
4592,-133.333333333333,4,2,1,60,0,0
6367,-133.333333333333,4,2,2,50,0,0
7432,-100,4,2,2,60,0,0
18793,-100,4,2,1,40,0,0
28734,-100,4,2,1,30,0,0
29444,-100,4,2,1,40,0,0
41515,-100,4,2,2,60,0,0
52876,-100,4,2,2,70,0,1
53941,-100,4,2,3,70,0,1
54030,-100,4,2,2,70,0,1
56781,-100,4,2,3,70,0,1
56870,-100,4,2,2,70,0,1
65302,-100,4,2,3,70,0,1
65391,-100,4,2,2,70,0,1
69917,-100,4,2,2,60,0,1
75598,-100,4,2,2,55,0,0
78438,-100,4,2,2,55,0,0
81278,-100,4,2,1,45,0,0
82698,-100,4,2,1,35,0,0
84118,-100,4,2,1,25,0,0
85538,-100,4,2,1,15,0,0
86959,-100,4,2,1,5,0,0

[Colours]
Combo1 : 255,128,64
Combo2 : 255,128,128
Combo3 : 255,255,128
Combo4 : 128,255,128
Combo5 : 128,255,255
Combo6 : 255,128,255

[HitObjects]
234,161,1752,2,0,P|292:143|346:174,1,112.500004291535,4|8,0:0|0:0,0:0:0:0:
284,224,2284,1,8,0:0:0:0:
207,247,2462,2,0,P|152:199|160:106,1,168.750006437302,8|4,0:0|0:0,0:0:0:0:
284,224,3527,2,0,L|284:336,2,112.500004291535,8|8|8,0:0|0:0|0:0,0:0:0:0:
328,108,4592,6,0,P|424:100|500:204,1,225.000008583069,4|8,0:0|0:0,0:0:0:0:
408,276,5657,1,8,0:0:0:0:
408,276,5834,2,0,P|336:296|248:264,1,168.750006437302,4|2,0:0|0:0,0:0:0:0:
216,180,6544,1,2,0:0:0:0:
216,180,6633,1,2,0:0:0:0:
216,180,6722,2,0,P|177:209|159:277,1,112.500004291535,2|2,0:0|0:0,0:0:0:0:
332,196,7432,6,0,P|340:156|320:96,1,75,4|0,0:0|0:0,0:0:0:0:
281,54,7787,1,8,0:0:0:0:
197,31,7965,1,0,0:0:0:0:
131,86,8142,2,0,P|135:146|71:214,1,150,2|8,0:0|0:0,0:0:0:0:
51,126,8675,2,0,P|110:132|168:206,1,150,2|2,0:0|0:0,0:0:0:0:
213,270,9207,1,8,0:0:0:0:
284,318,9385,1,0,0:0:0:0:
368,300,9562,2,0,P|404:272|420:232,1,75,2|0,0:0|0:0,0:0:0:0:
388,168,9917,2,0,P|352:196|336:236,1,75,8|0,0:0|0:0,0:0:0:0:
417,246,10272,6,0,P|461:206|448:112,1,150,2|8,0:0|0:0,0:0:0:0:
388,80,10805,1,0,0:0:0:0:
312,56,10982,2,0,P|268:69|239:102,1,75,2|2,0:0|0:0,0:0:0:0:
247,172,11337,2,0,P|290:158|319:125,1,75,8|0,0:0|0:0,0:0:0:0:
247,88,11692,2,0,P|177:107|117:65,1,150,2|8,0:0|0:0,0:0:0:0:
192,24,12225,1,0,0:0:0:0:
117,66,12402,2,0,P|97:130|143:198,1,150,2|8,0:0|0:0,0:0:0:0:
395,66,13112,6,0,P|415:130|369:198,1,150,4|8,0:0|0:0,0:0:0:0:
304,240,13645,2,0,P|324:264|392:268,2,75,0|2|0,0:0|0:0|0:0,0:0:0:0:
256,167,14178,1,8,0:0:0:0:
328,120,14355,2,0,P|252:80|184:120,1,150,2|2,0:0|0:0,0:0:0:0:
168,184,14888,2,0,P|176:232|164:264,1,75,8|0,0:0|0:0,0:0:0:0:
96,220,15243,2,0,P|88:172|100:140,2,75,2|0|8,0:0|0:0|0:0,0:0:0:0:
124,325,15775,6,0,P|200:333|244:277,1,150,4|2,0:0|0:0,0:0:0:0:
320,300,16308,1,8,0:0:0:0:
362,231,16485,6,0,P|290:226|243:281,1,150,4|0,0:0|0:0,0:0:0:0:
320,300,17018,1,8,0:0:0:0:
362,232,17195,6,0,P|366:155|314:112,1,150,4|0,0:0|0:0,0:0:0:0:
292,192,17728,1,8,0:0:0:0:
314,112,17905,6,0,P|238:127|210:188,1,150,4|0,0:0|0:0,0:0:0:0:
208,268,18438,1,8,0:0:0:0:
268,324,18615,1,0,0:0:0:0:
208,268,18793,6,0,P|147:240|132:164,1,150,4|2,0:0|0:0,0:0:0:0:
284,232,19503,2,0,P|290:298|231:349,1,150,0|2,0:0|0:0,0:0:0:0:
212,188,20213,2,0,P|266:149|340:174,1,150,0|2,0:0|0:0,0:0:0:0:
420,204,20746,2,0,P|392:240|348:256,2,75,0|0|0,0:0|0:0|0:0,0:0:0:0:
440,124,21278,2,0,P|390:94|357:93,1,75,2|0,0:0|0:0,0:0:0:0:
296,120,21633,6,0,P|236:116|180:37,1,150,0|2,0:0|0:0,0:0:0:0:
272,32,22166,1,0,0:0:0:0:
360,58,22343,2,0,P|385:112|341:198,1,150,0|2,0:0|0:0,0:0:0:0:
216,160,23053,2,0,P|137:126|83:151,1,150,0|2,0:0|0:0,0:0:0:0:
231,293,23763,2,0,P|275:305|319:289,1,75,0|0,0:0|0:0,0:0:0:0:
347,224,24118,2,0,P|303:212|259:228,1,75,2|0,0:0|0:0,0:0:0:0:
184,224,24473,6,0,P|124:220|72:140,1,150,0|2,0:0|0:0,0:0:0:0:
160,136,25006,1,0,0:0:0:0:
239,159,25183,2,0,P|265:228|231:292,1,150,0|2,0:0|0:0,0:0:0:0:
184,224,25716,1,0,0:0:0:0:
184,224,25894,2,0,P|244:212|312:276,1,150,0|0,0:0|0:0,0:0:0:0:
360,336,26426,2,0,P|388:304|396:272,1,75,2|0,0:0|0:0,0:0:0:0:
300,128,26959,1,2,0:0:0:0:
137,190,27314,6,0,P|76:162|61:86,1,150,0|2,0:0|0:0,0:0:0:0:
140,106,27846,1,0,0:0:0:0:
212,150,28024,2,0,P|218:216|157:275,1,150,0|2,0:0|0:0,0:0:0:0:
140,106,28734,2,0,P|194:67|272:92,1,150,0|2,0:0|0:0,0:0:0:0:
344,232,29444,2,0,P|418:257|472:218,1,150,0|2,0:0|0:0,0:0:0:0:
303,156,30154,6,0,P|267:192|259:236,1,75,4|0,0:0|0:0,0:0:0:0:
211,281,30509,1,2,0:0:0:0:
132,304,30686,1,0,0:0:0:0:
52,280,30864,2,0,P|8:244|20:156,1,150,0|2,0:0|0:0,0:0:0:0:
76,208,31396,1,0,0:0:0:0:
92,132,31574,2,0,P|120:96|164:84,1,75,0|0,0:0|0:0,0:0:0:0:
216,112,31929,2,0,P|188:148|144:160,1,75,2|0,0:0|0:0,0:0:0:0:
146,85,32284,2,0,P|174:49|218:37,1,75,0|0,0:0|0:0,0:0:0:0:
284,40,32639,1,2,0:0:0:0:
356,80,32817,1,0,0:0:0:0:
421,134,32994,6,0,P|446:188|402:274,1,150,0|2,0:0|0:0,0:0:0:0:
356,196,33527,2,0,P|277:162|223:187,1,150
143,227,34059,2,0,P|165:257|200:272,1,75,2|0,0:0|0:0,0:0:0:0:
223,187,34414,2,0,P|153:137|95:149,1,150,0|2,0:0|0:0,0:0:0:0:
152,332,35124,2,0,P|186:346|223:342,1,75,2|0,0:0|0:0,0:0:0:0:
316,324,35479,1,2,0:0:0:0:
316,324,35834,6,0,P|368:264|364:180,1,150,4|2,0:0|0:0,0:0:0:0:
260,96,36544,2,0,P|180:120|116:96,1,150,0|2,0:0|0:0,0:0:0:0:
48,44,37077,1,0,0:0:0:0:
36,132,37254,2,0,L|36:212,2,75,0|0|2,0:0|0:0|0:0,0:0:0:0:
120,98,37787,2,0,P|156:138|152:234,1,150
104,304,38320,2,0,P|152:320|188:312,1,75,2|0,0:0|0:0,0:0:0:0:
240,256,38675,6,0,P|331:254|371:290,1,150,0|2,0:0|0:0,0:0:0:0:
464,184,39385,1,0,0:0:0:0:
404,56,39740,2,0,P|348:40|316:48,1,75,2|0,0:0|0:0,0:0:0:0:
268,104,40095,2,0,P|208:100|152:21,1,150,0|2,0:0|0:0,0:0:0:0:
244,16,40627,1,0,0:0:0:0:
332,42,40805,2,0,P|357:96|340:140,1,75,8|8,0:0|0:0,0:0:0:0:
355,109,41071,1,8,0:0:0:0:
355,109,41160,1,8,0:0:0:0:
200,176,41515,6,0,P|148:148|60:192,1,150,4|8,0:0|0:0,0:0:0:0:
64,260,42047,1,0,0:0:0:0:
135,226,42225,2,0,P|118:166|179:98,1,150,2|8,0:0|0:0,0:0:0:0:
200,176,42757,2,0,P|240:200|276:200,2,75,0|2|0,0:0|0:0|0:0,0:0:0:0:
260,124,43290,2,0,P|287:125|327:149,1,75,8|0,0:0|0:0,0:0:0:0:
345,227,43645,1,2,0:0:0:0:
283,278,43823,1,2,0:0:0:0:
204,288,44000,2,0,P|168:272|132:272,1,75,8|0,0:0|0:0,0:0:0:0:
60,320,44355,6,0,P|43:260|104:188,1,150,2|8,0:0|0:0,0:0:0:0:
172,176,44888,1,0,0:0:0:0:
240,126,45065,2,0,P|256:185|196:258,1,150,2|8,0:0|0:0,0:0:0:0:
123,286,45598,2,0,P|151:324|184:340,2,75,2|0|2,0:0|0:0|0:0,0:0:0:0:
82,210,46130,2,0,P|73:183|82:137,1,75,8|0,0:0|0:0,0:0:0:0:
123,62,46485,1,2,0:0:0:0:
205,34,46663,1,2,0:0:0:0:
281,74,46840,2,0,P|317:90|361:94,1,75,8|0,0:0|0:0,0:0:0:0:
425,46,47195,6,0,P|442:106|381:178,1,150,4|8,0:0|0:0,0:0:0:0:
221,197,47905,1,2,0:0:0:0:
328,333,48260,1,8,0:0:0:0:
394,173,48615,2,0,P|368:119|292:71,1,150,2|8,0:0|0:0,0:0:0:0:
197,170,49148,2,0,P|220:204|261:216,1,75,0|2,0:0|0:0,0:0:0:0:
321,190,49503,2,0,P|297:155|256:143,2,75,0|8|0,0:0|0:0|0:0,0:0:0:0:
309,266,50036,6,0,B|261:310|205:282|205:282|157:302,1,150,4|0,0:0|0:0,0:0:0:0:
93,330,50568,1,4,0:0:0:0:
79,162,50923,2,0,L|79:66,1,75,2|8,0:0|0:0,0:0:0:0:
156,124,51278,2,0,P|208:164|296:160,1,150,4|0,0:0|0:0,0:0:0:0:
360,120,51811,1,2,0:0:0:0:
360,120,52521,2,0,L|360:208,1,75
360,288,52876,6,0,P|312:264|216:288,1,150,4|8,0:0|0:0,0:0:0:0:
144,336,53408,2,0,P|128:296|136:248,1,75,0|2,0:0|0:0,0:0:0:0:
184,200,53763,2,0,P|188:140|124:72,1,150
104,160,54296,2,0,P|163:154|221:80,1,150,2|8,0:0|0:0,0:0:0:0:
272,16,54828,2,0,P|296:40|308:92,1,75,0|2,0:0|0:0,0:0:0:0:
272,160,55183,1,2,0:0:0:0:
232,240,55361,2,0,P|244:278|268:302,1,75,8|0,0:0|0:0,0:0:0:0:
371,244,55716,6,0,P|323:220|227:244,1,150,2|8,0:0|0:0,0:0:0:0:
160,292,56249,2,0,P|144:252|152:204,1,75,0|2,0:0|0:0,0:0:0:0:
204,160,56604,2,0,P|208:100|144:32,1,150
124,120,57136,2,0,P|169:82|263:93,1,150,4|8,0:0|0:0,0:0:0:0:
348,160,57669,2,0,P|324:184|272:196,1,75,0|2,0:0|0:0,0:0:0:0:
204,160,58024,1,0,0:0:0:0:
124,120,58201,2,0,P|86:132|62:156,1,75,8|0,0:0|0:0,0:0:0:0:
73,283,58556,6,0,P|113:291|173:271,1,75,4|0,0:0|0:0,0:0:0:0:
226,251,58911,1,8,0:0:0:0:
294,307,59089,1,0,0:0:0:0:
372,267,59266,2,0,P|390:235|389:198,1,75,2|0,0:0|0:0,0:0:0:0:
305,213,59621,1,8,0:0:0:0:
389,198,59799,2,0,P|347:138|274:130,1,150,2|2,0:0|0:0,0:0:0:0:
196,164,60331,1,8,0:0:0:0:
275,130,60509,1,0,0:0:0:0:
206,78,60686,2,0,P|161:64|121:74,1,75,2|2,0:0|0:0,0:0:0:0:
124,154,61041,2,0,P|158:167|196:164,1,75,8|0,0:0|0:0,0:0:0:0:
356,143,61574,6,0,P|355:179|375:210,1,75,0|8,0:0|0:0,0:0:0:0:
464,248,61929,2,0,P|424:293|331:296,1,150
272,248,62462,1,8,0:0:0:0:
192,268,62639,2,0,P|107:254|71:205,1,150
76,120,63172,2,0,P|80:80|108:48,1,75,8|0,0:0|0:0,0:0:0:0:
188,44,63527,2,0,P|184:84|156:116,1,75,2|2,0:0|0:0,0:0:0:0:
128,192,63882,1,2,0:0:0:0:
164,273,64059,1,2,0:0:0:0:
236,324,64237,6,0,P|284:348|380:324,1,150,4|8,0:0|0:0,0:0:0:0:
464,336,64769,2,0,P|457:293|426:255,1,75,0|2,0:0|0:0,0:0:0:0:
361,238,65124,2,0,P|327:188|348:97,1,150,2|0,0:0|0:0,0:0:0:0:
410,163,65657,2,0,P|355:187|268:152,1,150,2|8,0:0|0:0,0:0:0:0:
193,122,66189,2,0,P|184:154|199:205,1,75,0|2,0:0|0:0,0:0:0:0:
265,247,66544,1,2,0:0:0:0:
339,296,66722,2,0,P|347:334|338:367,1,75,8|0,0:0|0:0,0:0:0:0:
265,247,67077,6,0,P|197:220|127:243,1,150,4|2,0:0|0:0,0:0:0:0:
56,292,67609,1,4,0:0:0:0:
56,292,67965,2,0,P|43:262|46:216,1,75,2|8,0:0|0:0,0:0:0:0:
127,243,68320,2,0,P|169:302|242:314,1,150,4|2,0:0|0:0,0:0:0:0:
339,296,68852,1,8,0:0:0:0:
394,219,69030,2,0,P|394:175|378:135,1,75,0|2,0:0|0:0,0:0:0:0:
307,90,69385,1,0,0:0:0:0:
253,167,69562,2,0,P|253:211|269:251,1,75,2|2,0:0|0:0,0:0:0:0:
339,296,69917,6,0,P|295:328|197:307,1,150,4|8,0:0|0:0,0:0:0:0:
108,312,70450,2,0,P|112:268|144:232,1,75,0|2,0:0|0:0,0:0:0:0:
212,216,70805,1,2,0:0:0:0:
284,168,70982,2,0,P|300:143|304:99,1,75,8|0,0:0|0:0,0:0:0:0:
288,10,71337,2,0,P|341:16|393:98,1,150,2|8,0:0|0:0,0:0:0:0:
470,144,71870,2,0,P|438:174|390:182,1,75,0|2,0:0|0:0,0:0:0:0:
327,138,72225,1,2,0:0:0:0:
242,121,72402,2,0,P|212:126|178:154,1,75,8|0,0:0|0:0,0:0:0:0:
116,216,72757,6,0,P|168:240|258:195,1,150,4|8,0:0|0:0,0:0:0:0:
242,121,73290,1,0,0:0:0:0:
314,67,73467,2,0,P|330:103|326:143,1,75,2|2,0:0|0:0,0:0:0:0:
408,152,73823,2,0,P|393:188|362:214,1,75,8|0,0:0|0:0,0:0:0:0:
292,256,74178,2,0,B|232:228|173:250|173:250|159:227,1,150,4|8,0:0|0:0,0:0:0:0:
122,148,74710,2,0,P|148:96|161:88,1,75,0|2,0:0|0:0,0:0:0:0:
242,98,75065,2,0,P|216:150|203:158,1,75,2|8,0:0|0:0,0:0:0:0:
159,227,75420,6,0,P|146:235|120:287,2,75,0|4|0,0:0|0:0|0:0,0:0:0:0:
204,296,75953,1,8,0:0:0:0:
352,316,76308,1,2,0:0:0:0:
456,208,76663,1,8,0:0:0:0:
414,135,76840,2,0,P|401:143|376:196,2,75,0|4|0,0:0|0:0|0:0,0:0:0:0:
496,136,77373,1,8,0:0:0:0:
456,208,77550,2,0,P|430:260|417:268,1,75,0|2,0:0|0:0,0:0:0:0:
352,316,77905,1,2,0:0:0:0:
280,276,78083,2,0,P|224:256|210:260,1,75,8|0,0:0|0:0,0:0:0:0:
128,288,78438,6,0,L|128:196,1,75,4|2,0:0|0:0,0:0:0:0:
256,100,78970,1,8,0:0:0:0:
384,213,79325,2,0,L|299:213,1,75,2|8,0:0|0:0,0:0:0:0:
224,213,79680,1,4,0:0:0:0:
256,192,79858,12,0,87846,0:0:0:0:
