osu file format v13

[General]
AudioFilename: Hanayuki.mp3
AudioLeadIn: 1500
PreviewTime: 54031
Countdown: 0
SampleSet: Soft
StackLeniency: 0.7
Mode: 0
LetterboxInBreaks: 0
WidescreenStoryboard: 0

[Editor]
Bookmarks: 57166,70317
DistanceSpacing: 1
BeatDivisor: 6
GridSize: 4
TimelineZoom: 1.4

[Metadata]
Title:Hanayuki(TVsize)
TitleUnicode:花雪(TVsize)
Artist:smileY inc.
ArtistUnicode:smileY inc.
Creator:yf_bmp
Version:Insane
Source:ハナヤマタ
Tags:Hanayamata tv size ending 大坪由佳 Ootsubo Yuka ゆうゆ Yuuyu Alex_Li Flask
BeatmapID:500486
BeatmapSetID:212807

[Difficulty]
HPDrainRate:7
CircleSize:4.3
OverallDifficulty:7
ApproachRate:8.7
SliderMultiplier:1.6
SliderTickRate:1

[Events]
//Background and Video events
Video,360,"Hanayuki.avi"
0,0,"BGI.jpg",0,0
//Break Periods
//Storyboard Layer 0 (Background)
//Storyboard Layer 1 (Fail)
//Storyboard Layer 2 (Pass)
//Storyboard Layer 3 (Foreground)
//Storyboard Sound Samples
//Background Colour Transformations
3,100,238,134,163

[TimingPoints]
504,410.958904109589,4,2,1,60,1,0
504,-125,4,2,1,60,0,0
1531,-125,4,2,1,40,0,0
1736,-125,4,2,1,60,0,0
3175,-125,4,2,1,40,0,0
3380,-125,4,2,1,60,0,0
4819,-125,4,2,1,40,0,0
5024,-125,4,2,1,60,0,0
5230,-125,4,2,1,40,0,0
5435,-125,4,2,1,60,0,0
5846,-125,4,2,1,40,0,0
6257,-125,4,2,1,60,0,0
9956,-200,4,2,1,60,0,0
10367,-125,4,2,1,60,0,0
13038,-100,4,2,1,60,0,0
13654,-125,4,2,2,60,0,0
26805,-100,4,2,2,60,0,0
36668,-100,4,2,1,60,0,0
39545,-100,4,2,1,40,0,0
39956,-83.3333333333333,4,2,1,70,0,0
51257,-111.111111111111,4,2,1,60,0,0
51668,-100,4,2,1,30,0,0
52079,-90.9090909090909,4,2,1,40,0,0
52490,-83.3333333333333,4,2,1,50,0,0
53106,-100,4,2,1,60,0,0
54750,-100,4,2,2,80,0,1
57627,-100,4,2,0,80,0,1
57832,-100,4,2,2,80,0,1
60093,-66.6666666666667,4,2,1,70,0,1
61017,-66.6666666666667,4,2,1,60,0,1
61120,-66.6666666666667,4,2,1,50,0,1
61325,-100,4,2,2,80,0,1
67490,-100,4,2,1,60,0,1
67695,-100,4,2,1,70,0,1
67901,-100,4,2,2,80,0,1
70777,-100,4,2,0,80,0,1
70983,-100,4,2,2,80,0,1
73243,-66.6666666666667,4,2,1,70,0,1
74168,-66.6666666666667,4,2,1,60,0,1
74271,-66.6666666666667,4,2,1,50,0,1
74476,-100,4,2,2,80,0,1
77558,-100,4,2,2,60,0,1
77764,-100,4,2,1,80,0,1
79819,-100,4,2,1,70,0,1
80024,-100,4,2,1,60,0,1
80230,-100,4,2,1,45,0,1
80435,-100,4,2,1,80,0,1
80640,-100,4,2,1,50,0,1
81051,495.867768595041,4,2,1,60,1,0
81051,-133.333333333333,4,2,1,60,0,0
81546,566.037735849057,4,2,1,60,1,0
81546,-133.333333333333,4,2,1,60,0,0
82112,618.556701030928,4,2,1,60,1,0
82734,674.157303370787,4,2,1,60,1,0
82734,-200,4,2,1,60,0,0
84363,-100,4,2,1,60,0,0

[Colours]
Combo1 : 182,144,193
Combo2 : 235,110,143
Combo3 : 147,209,198
Combo4 : 246,170,55
Combo5 : 140,193,233

[HitObjects]
360,327,504,5,2,0:0:0:0:
452,300,812,1,0,0:0:0:0:
452,204,1120,1,0,0:0:0:0:
268,160,1325,1,0,0:0:0:0:
304,248,1531,1,2,0:0:0:0:
360,172,1736,2,0,L|360:104,1,64,2|0,0:0|0:0,0:0:0:0:
184,32,2147,5,2,0:0:0:0:
180,128,2456,1,0,0:0:0:0:
268,160,2764,1,0,0:0:0:0:
96,76,2969,1,2,0:0:0:0:
92,172,3175,2,0,L|91:238,1,64,2|0,0:0|0:0,0:0:0:0:
228,352,3586,1,0,0:0:0:0:
228,352,3688,1,0,0:0:0:0:
228,352,3791,5,2,0:0:0:0:
136,324,3997,1,0,0:0:0:0:
292,276,4202,1,0,0:0:0:0:
384,304,4408,1,0,0:0:0:0:
496,148,4613,1,2,0:0:0:0:
464,240,4819,2,0,L|476:312,1,64,2|0,0:0|0:0,0:0:0:0:
474,303,5230,1,2,0:0:0:0:
472,56,5435,1,2,0:0:0:0:
404,124,5846,5,2,0:0:0:0:
316,184,6051,1,0,0:0:0:0:
235,115,6257,2,0,L|228:52,1,64,0|4,0:0|0:3,0:0:0:0:
240,44,6565,1,0,0:0:0:0:
252,36,6668,1,0,0:0:0:0:
316,184,6873,1,8,0:3:0:0:
168,252,7079,6,0,P|148:308|176:372,1,128,4|0,0:1|0:0,0:0:0:0:
368,296,7695,2,0,L|240:306,1,128,2|0,0:0|0:0,0:0:0:0:
44,140,8312,1,0,0:0:0:0:
76,232,8517,1,2,0:0:0:0:
140,160,8723,6,0,L|272:164,1,128,4|0,0:1|0:0,0:0:0:0:
267,163,9236,1,0,0:0:0:0:
267,163,9339,1,0,0:0:0:0:
428,272,9545,2,0,P|396:273|367:259,1,64
232,16,9956,6,0,L|228:76,1,60,0|0,1:0|1:0,0:0:0:0:
304,92,10367,6,0,P|335:99|368:96,1,64,4|0,0:1|0:0,0:0:0:0:
192,144,10777,2,0,P|160:140|129:148,1,64,8|2,0:3|0:0,0:0:0:0:
328,216,11188,2,0,P|391:218|456:188,1,128,0|0,0:0|0:0,0:0:0:0:
192,144,11805,1,2,0:0:0:0:
56,332,12010,5,0,3:0:0:0:
156,252,12216,1,0,3:0:0:0:
44,188,12421,1,0,3:0:0:0:
176,360,12627,1,0,3:0:0:0:
208,356,12730,1,0,3:0:0:0:
240,352,12832,1,0,3:0:0:0:
503,344,13038,2,0,P|427:343|400:272,1,160,0|0,1:0|0:0,0:0:0:0:
456,160,13654,5,4,0:0:0:0:
296,216,13860,1,0,0:0:0:0:
360,56,14065,2,0,P|364:92|348:124,1,64,0|0,3:0|0:0,0:0:0:0:
192,180,14476,2,0,L|128:176,1,64,0|0,3:0|0:0,0:0:0:0:
8,284,14887,2,0,L|72:280,1,64,0|0,3:0|0:0,0:0:0:0:
256,328,15298,6,0,P|320:316|376:340,1,128,2|0,3:2|3:0,0:0:0:0:
468,284,15914,1,0,0:0:0:0:
468,284,16120,2,0,L|476:352,1,64,0|2,3:0|0:0,0:0:0:0:
376,236,16531,1,0,3:0:0:0:
448,48,16736,1,0,0:0:0:0:
476,144,16942,6,0,B|432:156|396:128|348:140,1,128,2|0,3:2|3:0,0:0:0:0:
184,288,17558,1,0,0:0:0:0:
280,327,17764,2,0,P|283:296|284:264,1,64,2|0,3:2|0:0,0:0:0:0:
216,80,18175,2,0,P|212:111|211:143,1,64,0|2,3:0|0:0,0:0:0:0:
376,236,18586,6,0,L|452:240,1,64,0|0,3:0|0:0,0:0:0:0:
184,288,18997,1,2,3:2:0:0:
72,196,19202,1,0,0:0:0:0:
72,196,19305,1,0,0:0:0:0:
72,196,19408,1,2,3:2:0:0:
48,340,19613,1,0,0:0:0:0:
156,212,19819,1,0,3:0:0:0:
104,52,20024,1,0,0:0:0:0:
52,120,20230,6,0,L|48:184,1,64,2|0,3:2|0:0,0:0:0:0:
100,280,20640,1,0,3:0:0:0:
208,280,20846,2,0,P|237:290|260:313,1,64,0|0,0:0|3:0,0:0:0:0:
356,260,21257,2,0,P|369:288|369:320,1,64,0|0,0:0|3:0,0:0:0:0:
272,188,21668,1,0,0:0:0:0:
460,264,21873,6,0,L|464:200,1,64,2|0,3:2|0:0,0:0:0:0:
412,104,22284,1,0,3:0:0:0:
303,103,22490,2,0,P|274:93|251:70,1,64,2|0,0:0|3:0,0:0:0:0:
156,124,22901,2,0,P|142:95|142:63,1,64,0|0,0:0|3:0,0:0:0:0:
332,16,23312,1,0,0:0:0:0:
240,176,23517,5,0,3:0:0:0:
56,160,23723,1,2,0:0:0:0:
240,272,23928,1,0,3:0:0:0:
132,284,24134,1,2,0:0:0:0:
276,364,24339,1,0,3:0:0:0:
24,384,24545,2,0,P|53:372|85:372,1,64,8|0,3:0|3:0,0:0:0:0:
336,288,24956,6,0,P|397:297|450:263,1,128,4|2,3:2|0:0,0:0:0:0:
480,48,25572,1,0,3:0:0:0:
376,200,25777,1,2,0:0:0:0:
384,96,25983,1,0,3:0:0:0:
468,164,26188,1,0,0:0:0:0:
456,160,26291,1,0,1:0:0:0:
444,156,26394,1,0,3:0:0:0:
300,180,26599,1,2,0:2:0:0:
160,24,26805,5,4,0:2:0:0:
196,112,27010,1,8,3:2:0:0:
196,112,27113,1,0,0:0:0:0:
196,112,27216,2,0,P|196:152|180:196,1,80,0|8,0:0|3:2,0:0:0:0:
16,256,27627,1,0,0:0:0:0:
112,264,27832,1,8,3:2:0:0:
132,272,27935,1,0,3:0:0:0:
148,284,28038,1,0,0:0:0:0:
0,164,28243,1,8,3:2:0:0:
0,144,28346,1,0,3:0:0:0:
8,123,28449,6,0,P|67:125|122:148,1,120,0|0,0:0|3:0,0:0:0:0:
196,112,28860,1,0,3:0:0:0:
216,120,28962,1,0,3:0:0:0:
236,120,29065,1,8,0:2:0:0:
396,24,29271,1,0,0:0:0:0:
344,116,29476,2,0,P|341:158|352:200,1,80,8|0,3:2|0:0,0:0:0:0:
420,368,29887,1,8,3:2:0:0:
424,348,29990,1,0,0:0:0:0:
424,328,30093,5,0,0:0:0:0:
240,276,30298,1,8,3:2:0:0:
220,280,30401,1,0,0:0:0:0:
200,280,30503,1,0,0:0:0:0:
136,176,30709,1,8,3:2:0:0:
334,240,30914,2,0,L|328:320,1,80,0|8,0:0|3:2,0:0:0:0:
312,332,31223,1,0,0:0:0:0:
296,344,31325,1,0,0:0:0:0:
64,111,31531,6,0,P|114:81|172:87,1,120,8|0,3:2|0:0,0:0:0:0:
248,136,31942,2,0,L|332:140,1,80,8|0,3:2|0:0,0:0:0:0:
500,24,32353,1,8,3:2:0:0:
500,24,32456,1,0,0:0:0:0:
500,24,32558,1,0,0:0:0:0:
420,184,32764,1,8,3:2:0:0:
416,84,32969,1,8,0:0:0:0:
504,244,33175,1,0,3:0:0:0:
492,260,33277,1,0,0:0:0:0:
476,272,33380,6,0,P|436:288|396:284,1,80,4|8,0:0|3:2,0:0:0:0:
328,244,33688,1,0,0:0:0:0:
308,236,33791,2,0,P|268:233|231:249,1,80,0|8,0:0|3:2,0:0:0:0:
112,372,34202,2,0,P|133:338|138:299,1,80,0|8,0:0|3:2,0:0:0:0:
112,220,34510,1,0,0:0:0:0:
100,204,34613,2,0,L|20:200,1,80,0|8,0:0|3:2,0:0:0:0:
8,120,34921,1,0,0:0:0:0:
20,104,35024,6,0,L|100:100,1,80,0|8,0:0|3:2,0:0:0:0:
160,40,35332,1,0,0:0:0:0:
172,56,35435,2,0,L|252:60,1,80,0|8,0:0|3:2,0:0:0:0:
424,24,35846,1,0,0:0:0:0:
372,188,36051,1,8,3:2:0:0:
348,92,36257,1,8,0:2:0:0:
348,92,36360,1,0,3:0:0:0:
348,92,36462,1,8,3:2:0:0:
348,92,36565,1,0,3:0:0:0:
348,92,36668,6,0,B|388:128|420:92|460:128,1,120,4|0,0:0|3:0,0:0:0:0:
459,127,37079,1,0,0:0:0:0:
276,280,37284,2,0,L|192:284,1,80,0|0,3:0|1:0,0:0:0:0:
92,168,37695,1,8,0:3:0:0:
184,188,37901,1,4,0:3:0:0:
64,352,38106,6,0,B|8:312|8:312|-8:272|9:222,1,160,4|0,0:2|1:0,0:0:0:0:
64,80,38723,1,8,0:3:0:0:
120,260,38928,1,0,3:0:0:0:
120,260,39031,1,0,0:0:0:0:
120,260,39134,1,4,0:3:0:0:
308,268,39339,1,0,3:0:0:0:
336,260,39442,1,0,0:0:0:0:
364,260,39545,1,4,3:0:0:0:
484,96,39750,1,4,3:0:0:0:
488,56,39853,1,0,0:0:0:0:
476,16,39956,6,0,P|424:28|408:64,1,95.9999970703126,4|0,0:0|0:0,0:0:0:0:
428,240,40264,2,0,P|432:188|416:148,1,95.9999970703126,4|0,0:0|0:0,0:0:0:0:
340,116,40572,1,4,0:3:0:0:
48,188,40777,2,0,L|144:196,1,95.9999970703126,4|0,0:0|0:0,0:0:0:0:
224,188,41086,1,2,0:0:0:0:
236,208,41188,1,0,1:0:0:0:
244,228,41291,1,0,3:0:0:0:
248,252,41394,1,0,3:0:0:0:
248,276,41497,1,0,3:0:0:0:
239,299,41599,6,0,P|193:291|146:301,1,95.9999970703126,4|0,0:0|0:0,0:0:0:0:
324,320,41908,2,0,P|370:311|417:321,1,95.9999970703126,0|0,1:0|0:0,0:0:0:0:
268,380,42216,1,4,3:0:0:0:
236,376,42319,1,0,3:0:0:0:
200,376,42421,5,0,1:0:0:0:
180,360,42524,1,0,0:0:0:0:
168,340,42627,1,0,0:0:0:0:
160,316,42730,1,0,0:0:0:0:
160,292,42832,2,0,L|172:252,2,31.9999990234375,0|0|0,3:0|3:0|3:0,0:0:0:0:
112,200,43038,2,0,L|108:148,1,47.9999985351563,0|0,3:0|3:0,0:0:0:0:
28,16,43243,6,0,P|75:38|101:72,1,95.9999970703126,4|0,0:0|0:0,0:0:0:0:
96,244,43551,2,0,P|92:192|108:152,1,95.9999970703126,4|0,0:0|0:0,0:0:0:0:
176,108,43860,1,4,0:3:0:0:
464,188,44065,2,0,L|368:196,1,95.9999970703126,4|2,0:2|0:0,0:0:0:0:
288,192,44373,1,0,0:0:0:0:
276,208,44476,1,0,1:0:0:0:
268,228,44579,1,0,3:0:0:0:
264,252,44682,1,0,3:0:0:0:
264,276,44784,1,0,3:0:0:0:
268,296,44887,6,0,P|224:292|136:340,1,143.999995605469,4|0,0:3|0:0,0:0:0:0:
64,304,45298,2,0,P|72:264|64:200,1,95.9999970703126,4|0,0:3|0:0,0:0:0:0:
4,28,45709,2,0,P|-4:68|4:132,1,95.9999970703126,8|0,0:3|0:0,0:0:0:0:
176,188,46120,1,0,0:0:0:0:
316,64,46325,5,4,0:0:0:0:
228,104,46531,2,0,L|132:96,1,95.9999970703126,0|2,0:0|0:0,0:0:0:0:
260,252,46942,1,0,1:0:0:0:
496,196,47147,1,0,0:0:0:0:
408,156,47353,2,0,L|308:164,1,95.9999970703126,0|2,0:0|0:0,0:0:0:0:
440,8,47764,1,0,1:0:0:0:
420,252,47969,6,0,P|419:298|448:368,1,95.9999970703126
484,104,48380,1,2,0:0:0:0:
320,268,48586,1,0,1:0:0:0:
336,364,48791,1,0,0:0:0:0:
224,252,48997,1,2,0:0:0:0:
208,296,49099,1,0,1:0:0:0:
208,344,49202,1,0,0:0:0:0:
144,200,49408,1,4,0:2:0:0:
100,112,49613,1,0,0:0:0:0:
52,120,49716,1,0,1:0:0:0:
16,152,49819,5,4,0:1:0:0:
228,160,50024,1,2,0:0:0:0:
144,200,50230,1,0,1:0:0:0:
100,112,50435,1,2,0:0:0:0:
188,72,50640,1,0,1:0:0:0:
52,244,50846,1,4,0:3:0:0:
44,260,51257,6,0,L|56:339,1,71.9999978027344,4|0,0:0|0:0,0:0:0:0:
144,200,51668,2,0,L|156:279,1,80,0|0,1:0|1:0,0:0:0:0:
244,140,52079,2,0,L|260:248,1,88.000002685547,0|0,1:0|1:0,0:0:0:0:
344,80,52490,2,0,L|359:177,1,95.9999970703126,0|0,1:0|1:0,0:0:0:0:
444,16,52901,1,0,1:0:0:0:
488,308,53106,5,0,1:0:0:0:
492,284,53414,1,0,1:0:0:0:
496,260,53723,1,0,1:0:0:0:
337,159,53928,5,0,1:0:0:0:
344,296,54134,1,0,0:0:0:0:
348,320,54236,1,0,1:0:0:0:
352,344,54339,1,0,0:0:0:0:
192,124,54545,1,0,1:0:0:0:
180,156,54647,1,0,0:0:0:0:
184,188,54750,6,0,P|228:228|288:224,1,120,4|8,0:0|0:0,0:0:0:0:
416,144,55161,2,0,L|336:160,1,80,0|8,1:0|0:0,0:0:0:0:
264,344,55572,1,0,0:0:0:0:
104,364,55777,1,0,0:0:0:0:
84,340,55880,1,8,0:0:0:0:
72,308,55983,2,0,P|68:260|76:224,1,80,0|8,1:0|0:0,0:0:0:0:
180,64,56394,6,0,P|184:123|170:181,1,120,0|8,0:0|0:0,0:0:0:0:
8,123,56805,2,0,P|47:122|86:131,1,80,0|8,1:0|0:0,0:0:0:0:
240,256,57216,2,0,P|279:257|318:248,1,80,0|8,0:0|1:2,0:0:0:0:
452,104,57627,1,8,1:3:0:0:
368,56,57832,1,0,0:0:0:0:
364,72,57935,1,0,0:0:0:0:
363,88,58038,6,0,P|367:133|428:196,1,120,4|8,0:0|0:0,0:0:0:0:
464,332,58449,2,0,L|472:252,1,80,0|8,1:0|0:0,0:0:0:0:
256,236,58860,2,0,L|248:156,1,80,0|0,0:0|0:0,0:0:0:0:
252,140,59168,1,8,0:0:0:0:
256,124,59271,1,0,1:0:0:0:
344,316,59476,1,8,0:0:0:0:
135,287,59682,2,0,L|56:296,1,80
4,228,59990,1,0,0:0:0:0:
0,212,60093,6,0,P|57:220|99:180,1,120.000004577637,4|0,0:0|1:0,0:0:0:0:
324,88,60503,2,0,B|248:123|228:59|148:95,1,180.000006866455,4|0,0:1|1:0,0:0:0:0:
56,88,60914,2,0,P|49:55|52:24,1,60.0000022888184,8|8,0:3|0:3,0:0:0:0:
196,180,61120,2,0,P|197:209|190:239,1,60.0000022888184,4|0,0:3|0:0,0:0:0:0:
44,335,61325,6,0,P|101:319|159:330,1,120,4|8,0:0|0:0,0:0:0:0:
295,379,61736,2,0,P|265:353|252:316,1,80,0|8,1:0|0:0,0:0:0:0:
384,164,62147,2,0,L|512:156,1,120,0|8,0:0|0:0,0:0:0:0:
508,172,62558,1,0,1:0:0:0:
292,216,62764,1,8,0:0:0:0:
444,344,62969,6,0,P|451:303|448:264,1,80
440,252,63277,1,8,0:0:0:0:
428,240,63380,1,0,1:0:0:0:
204,40,63586,2,0,L|120:48,1,80,8|8,0:0|0:0,0:0:0:0:
68,184,63997,2,0,L|152:176,1,80,0|0,1:0|1:0,0:0:0:0:
320,112,64408,1,8,1:2:0:0:
356,104,64510,1,0,1:2:0:0:
392,108,64613,6,0,P|408:164|389:220,1,120,4|8,0:0|0:0,0:0:0:0:
380,232,65024,1,0,1:0:0:0:
160,184,65230,1,8,1:2:0:0:
328,328,65435,2,0,B|412:336|412:336|368:352,1,120,4|8,0:0|0:0,0:0:0:0:
368,360,65846,1,0,1:0:0:0:
180,324,66051,1,8,1:2:0:0:
180,324,66154,1,0,0:0:0:0:
180,324,66257,6,0,P|136:324|96:308,1,80,4|8,0:0|0:2,0:0:0:0:
76,292,66565,1,0,0:0:0:0:
80,260,66668,1,2,1:2:0:0:
108,248,66771,1,0,0:0:0:0:
132,224,66873,1,10,0:0:0:0:
124,192,66976,1,0,1:0:0:0:
96,180,67079,1,2,0:0:0:0:
76,156,67182,1,0,0:0:0:0:
84,124,67284,1,8,1:2:0:0:
112,112,67387,1,0,0:0:0:0:
144,124,67490,5,8,0:3:0:0:
164,128,67593,1,8,0:3:0:0:
184,128,67695,1,0,1:0:0:0:
204,124,67798,1,4,0:3:0:0:
232,108,67901,6,0,L|228:248,1,120,4|8,0:0|0:0,0:0:0:0:
284,376,68312,2,0,P|289:336|277:298,1,80,0|8,1:0|0:0,0:0:0:0:
76,344,68723,2,0,L|195:355,1,120,0|8,0:0|0:0,0:0:0:0:
207,343,69134,1,0,1:0:0:0:
440,252,69339,1,8,0:0:0:0:
360,304,69545,6,0,L|366:184,1,120,0|8,0:0|0:0,0:0:0:0:
495,100,69956,2,0,P|459:115|419:114,1,80,0|8,1:0|0:0,0:0:0:0:
232,40,70367,2,0,P|195:24|155:25,1,80,8|0,0:0|1:0,0:0:0:0:
0,152,70777,1,8,1:3:0:0:
84,200,70983,1,0,0:0:0:0:
84,200,71086,1,0,0:0:0:0:
84,200,71188,6,0,P|92:136|68:80,1,120,4|8,0:0|0:0,0:0:0:0:
60,76,71599,1,0,1:0:0:0:
0,152,71805,1,8,0:0:0:0:
72,304,72010,2,0,B|128:288|136:320|192:308,1,120,0|8,0:0|0:0,0:0:0:0:
204,300,72421,1,0,1:0:0:0:
352,336,72627,1,8,0:0:0:0:
324,120,72832,1,0,0:0:0:0:
488,264,73038,1,8,0:0:0:0:
512,168,73243,6,0,P|452:168|408:204,1,120.000004577637,4|0,0:2|1:0,0:0:0:0:
184,300,73654,2,0,B|260:265|280:329|360:293,1,180.000006866455,4|0,0:1|1:0,0:0:0:0:
456,296,74065,2,0,P|463:329|460:360,1,60.0000022888184,8|8,0:3|0:3,0:0:0:0:
316,204,74271,2,0,P|315:175|322:145,1,60.0000022888184,4|0,0:3|0:0,0:0:0:0:
380,60,74476,6,0,P|320:68|262:54,1,120.000004577637,4|8,0:0|0:0,0:0:0:0:
248,48,74887,1,0,1:0:0:0:
68,128,75093,2,0,P|110:127|176:112,1,80,8|8,0:0|0:0,0:0:0:0:
176,236,75504,1,8,0:0:0:0:
144,256,75607,1,0,0:0:0:0:
120,284,75709,1,0,1:0:0:0:
284,288,75914,1,8,0:0:0:0:
32,228,76120,6,0,L|40:356,1,120,0|8,0:0|0:0,0:0:0:0:
52,356,76531,1,2,1:2:0:0:
192,324,76736,1,8,0:0:0:0:
20,220,76942,1,10,0:0:0:0:
272,208,77147,1,8,0:0:0:0:
276,176,77250,1,0,0:0:0:0:
268,144,77353,1,8,1:2:0:0:
0,44,77558,1,8,0:2:0:0:
28,32,77661,1,0,1:0:0:0:
61,33,77764,6,0,B|104:60|136:12|177:37,1,120,4|0,0:0|1:0,0:0:0:0:
177,37,78175,1,0,0:0:0:0:
320,16,78380,1,0,1:0:0:0:
140,184,78586,2,0,P|137:248|176:320,1,120,4|0,0:0|1:0,0:0:0:0:
158,298,78997,1,0,0:0:0:0:
272,380,79202,1,0,1:0:0:0:
456,208,79408,6,0,L|364:204,1,80,4|0,0:1|0:0,0:0:0:0:
256,284,79819,1,0,1:0:0:0:
276,288,79921,1,0,1:0:0:0:
296,288,80024,1,8,0:3:0:0:
316,284,80127,1,4,0:3:0:0:
332,276,80230,1,0,0:0:0:0:
380,56,80435,1,0,1:0:0:0:
280,92,80640,1,8,0:3:0:0:
276,112,80743,1,8,0:3:0:0:
275,132,80846,1,0,1:0:0:0:
276,152,80949,1,0,0:0:0:0:
280,168,81051,6,0,L|344:172,1,60.0000022888184,2|0,0:0|0:0,0:0:0:0:
172,211,81546,2,0,P|143:219|113:219,1,60.0000022888184,0|2,0:0|0:0,0:0:0:0:
40,164,81970,1,0,0:0:0:0:
40,164,82041,1,0,0:0:0:0:
40,164,82112,2,0,L|43:84,1,80,2|0,0:0|0:0,0:0:0:0:
144,304,82734,2,0,L|148:348,1,40,0|2,0:0|0:0,0:0:0:0:
272,180,83408,5,2,0:0:0:0:
268,200,84363,2,0,L|271:218,1,13.3333333333333,0|2,0:0|0:0,0:0:0:0:
