osu file format v13

[General]
AudioFilename: Hanayuki.mp3
AudioLeadIn: 1500
PreviewTime: 54031
Countdown: 0
SampleSet: Soft
StackLeniency: 0.7
Mode: 0
LetterboxInBreaks: 0
WidescreenStoryboard: 0

[Editor]
Bookmarks: 57166,70317
DistanceSpacing: 0.5
BeatDivisor: 12
GridSize: 4
TimelineZoom: 1.4

[Metadata]
Title:Hanayuki(TVsize)
TitleUnicode:花雪(TVsize)
Artist:smileY inc.
ArtistUnicode:smileY inc.
Creator:yf_bmp
Version:Hard
Source:ハナヤマタ
Tags:Hanayamata tv size ending 大坪由佳 Ootsubo Yuka ゆうゆ Yuuyu Alex_Li Flask
BeatmapID:500485
BeatmapSetID:212807

[Difficulty]
HPDrainRate:6
CircleSize:4
OverallDifficulty:6
ApproachRate:7
SliderMultiplier:1.6
SliderTickRate:1

[Events]
//Background and Video events
Video,360,"Hanayuki.avi"
0,0,"BGH.jpg",0,0
//Break Periods
//Storyboard Layer 0 (Background)
//Storyboard Layer 1 (Fail)
//Storyboard Layer 2 (Pass)
//Storyboard Layer 3 (Foreground)
//Storyboard Sound Samples
//Background Colour Transformations
3,100,238,134,163

[TimingPoints]
504,410.958904109589,4,2,1,60,1,0
504,-125,4,2,1,60,0,0
1531,-125,4,2,1,40,0,0
1736,-125,4,2,1,60,0,0
3175,-125,4,2,1,40,0,0
3380,-125,4,2,1,60,0,0
4819,-125,4,2,1,40,0,0
5024,-125,4,2,1,60,0,0
5230,-125,4,2,1,40,0,0
5435,-125,4,2,1,60,0,0
5846,-125,4,2,1,40,0,0
6257,-125,4,2,1,60,0,0
13038,-100,4,2,1,60,0,0
13654,-125,4,2,2,60,0,0
26805,-100,4,2,2,60,0,0
36668,-100,4,2,1,60,0,0
39545,-100,4,2,1,40,0,0
39956,-83.3333333333333,4,2,1,70,0,0
40777,-100,4,2,1,70,0,0
43243,-83.3333333333333,4,2,1,70,0,0
44065,-100,4,2,1,70,0,0
51257,-111.111111111111,4,2,1,60,0,0
51668,-100,4,2,1,30,0,0
52079,-90.9090909090909,4,2,1,40,0,0
52490,-90.9090909090909,4,2,1,50,0,0
53106,-100,4,2,1,60,0,0
54750,-100,4,2,2,80,0,1
57627,-100,4,2,0,80,0,1
57832,-100,4,2,2,80,0,1
60093,-100,4,2,1,70,0,1
61017,-100,4,2,1,60,0,1
61120,-100,4,2,1,50,0,1
61325,-100,4,2,2,80,0,1
67490,-100,4,2,1,60,0,1
67695,-100,4,2,1,70,0,1
67901,-100,4,2,2,80,0,1
70777,-100,4,2,0,80,0,1
70983,-100,4,2,2,80,0,1
73243,-100,4,2,1,70,0,1
74168,-100,4,2,1,60,0,1
74271,-100,4,2,1,50,0,1
74476,-100,4,2,2,80,0,1
77558,-100,4,2,2,60,0,1
77764,-100,4,2,1,80,0,1
81051,495.867768595041,4,2,1,60,1,0
81051,-133.333333333333,4,2,1,60,0,0
81546,566.037735849057,4,2,1,60,1,0
81546,-133.333333333333,4,2,1,60,0,0
82112,618.556701030928,4,2,1,60,1,0
82734,674.157303370787,4,2,1,60,1,0
82734,-200,4,2,1,60,0,0
84307,-100,4,2,1,60,0,0

[Colours]
Combo1 : 182,144,193
Combo2 : 235,110,143
Combo3 : 147,209,198
Combo4 : 246,170,55
Combo5 : 140,193,233

[HitObjects]
152,308,504,6,0,L|48:316,2,96,2|0|0,0:0|0:0|0:0,0:0:0:0:
224,268,1325,1,0,0:0:0:0:
224,352,1531,1,2,0:0:0:0:
152,228,1736,2,0,L|156:152,1,64,2|0,0:0|0:0,0:0:0:0:
208,100,2147,6,0,L|312:112,2,96,2|0|2,0:0|0:0|0:0,0:0:0:0:
124,88,2969,1,0,0:0:0:0:
76,20,3175,2,0,P|41:72|56:132,1,128,2|0,0:0|0:0,0:0:0:0:
84,164,3688,1,0,0:0:0:0:
84,164,3791,6,0,L|80:236,1,64,2|0,0:0|0:0,0:0:0:0:
160,324,4202,2,0,L|156:252,1,64,0|0,0:0|0:0,0:0:0:0:
220,208,4613,1,2,0:0:0:0:
288,256,4819,2,0,L|428:260,1,128,2|2,0:0|0:0,0:0:0:0:
496,136,5435,1,2,0:0:0:0:
484,148,5846,6,0,L|488:220,1,64,0|2,0:0|0:0,0:0:0:0:
492,296,6257,1,0,0:0:0:0:
368,260,6462,1,4,0:3:0:0:
368,260,6565,1,0,0:0:0:0:
368,260,6668,2,0,P|360:296|372:336,1,64,0|4,0:0|0:3,0:0:0:0:
412,184,7079,6,0,B|372:160|328:180|328:180|288:224,1,128,4|0,0:1|0:0,0:0:0:0:
224,328,7695,2,0,L|216:192,1,128,2|0,0:0|0:0,0:0:0:0:
255,66,8312,2,0,P|264:96|259:127,1,64,0|2,0:0|0:0,0:0:0:0:
132,212,8723,6,0,L|4:200,1,128,4|0,0:1|0:0,0:0:0:0:
8,284,9339,1,0,0:0:0:0:
116,124,9545,2,0,L|32:116,1,64,0|4,0:0|0:3,0:0:0:0:
20,296,9956,1,2,1:2:0:0:
216,352,10264,5,0,1:0:0:0:
216,352,10367,2,0,L|152:356,1,64,4|0,0:2|0:0,0:0:0:0:
256,268,10777,2,0,L|192:272,1,64,4|2,0:3|0:0,0:0:0:0:
292,188,11188,2,0,P|344:220|408:200,1,128
436,124,11805,1,2,0:0:0:0:
352,72,12010,6,0,L|356:164,1,64,2|0,1:2|3:0,0:0:0:0:
268,28,12421,2,0,L|272:120,1,64,0|0,3:0|3:0,0:0:0:0:
270,91,12730,1,0,0:0:0:0:
270,91,12832,1,0,3:0:0:0:
184,32,13038,2,0,L|192:200,1,160,0|0,1:0|0:0,0:0:0:0:
142,319,13654,6,0,P|132:288|136:256,1,64,4|0,0:2|0:0,0:0:0:0:
60,220,14065,2,0,L|53:156,1,64,0|0,3:0|0:0,0:0:0:0:
8,88,14476,2,0,P|16:57|12:24,1,64,0|0,3:0|0:0,0:0:0:0:
53,156,14887,1,0,3:0:0:0:
88,80,15093,1,0,0:0:0:0:
88,80,15195,1,0,0:0:0:0:
88,80,15298,6,0,B|132:60|168:100|214:79,1,128,2|0,3:2|3:0,0:0:0:0:
280,28,15914,1,0,0:0:0:0:
348,80,16120,2,0,L|344:144,1,64,0|2,3:0|0:2,0:0:0:0:
292,212,16531,2,0,L|296:276,1,64,0|0,3:0|0:0,0:0:0:0:
369,319,16942,6,0,P|379:288|376:256,1,64,2|0,3:2|0:0,0:0:0:0:
452,220,17353,2,0,L|458:156,1,64,0|0,3:0|0:0,0:0:0:0:
504,88,17764,2,0,P|496:57|500:24,1,64,2|0,3:2|0:0,0:0:0:0:
458,156,18175,1,0,3:0:0:0:
424,80,18381,1,2,0:2:0:0:
424,80,18483,1,0,0:0:0:0:
424,80,18586,6,0,B|380:60|344:100|297:79,1,128,0|0,3:0|3:0,0:0:0:0:
232,28,19202,1,2,0:0:0:0:
148,32,19408,2,0,L|144:96,1,64,2|0,3:2|0:0,0:0:0:0:
220,172,19819,2,0,L|224:108,1,64,0|0,3:0|0:0,0:0:0:0:
68,140,20230,6,0,P|56:200|92:252,1,128,2|0,3:2|3:0,0:0:0:0:
172,280,20846,2,0,L|164:356,1,64,0|0,0:0|3:0,0:0:0:0:
256,248,21257,2,0,L|256:320,1,64,0|0,0:0|3:0,0:0:0:0:
340,280,21668,1,0,0:0:0:0:
444,140,21873,6,0,P|456:200|420:252,1,128,2|0,3:2|3:0,0:0:0:0:
340,280,22489,2,0,L|348:356,1,64,2|0,0:0|3:0,0:0:0:0:
256,248,22900,2,0,L|256:320,1,64,0|0,0:0|3:0,0:0:0:0:
172,280,23312,1,0,0:0:0:0:
88,184,23517,6,0,L|96:260,1,64,0|2,3:0|0:2,0:0:0:0:
168,156,23928,1,0,3:0:0:0:
104,100,24134,1,2,0:2:0:0:
264,44,24339,1,0,3:0:0:0:
184,72,24545,1,8,1:3:0:0:
248,124,24750,1,0,3:0:0:0:
376,107,24956,6,0,P|436:95|486:132,1,128,4|0,0:0|0:0,0:0:0:0:
420,264,25572,1,8,1:3:0:0:
416,180,25777,1,0,0:0:0:0:
492,216,25983,1,4,3:3:0:0:
496,300,26188,1,0,3:0:0:0:
496,300,26291,1,0,1:0:0:0:
496,300,26394,2,0,P|476:328|440:344,1,64,0|0,3:0|3:0,0:0:0:0:
316,344,26805,6,0,L|224:332,1,80,4|8,0:0|3:2,0:0:0:0:
180,268,27216,2,0,P|156:296|152:340,1,80,0|8,0:0|3:2,0:0:0:0:
56,220,27627,2,0,L|68:304,1,80,0|8,0:0|3:2,0:0:0:0:
8,136,28038,2,0,P|48:140|92:120,1,80,0|8,0:0|3:2,0:0:0:0:
84,125,28346,1,0,3:0:0:0:
84,125,28449,1,0,3:0:0:0:
152,68,28654,5,8,0:2:0:0:
152,68,28757,1,0,3:0:0:0:
152,68,28860,2,0,L|144:28,2,40,0|0|8,3:0|3:0|3:2,0:0:0:0:
232,108,29271,2,0,P|242:152|232:188,1,80,0|8,0:0|3:2,0:0:0:0:
184,260,29682,1,0,0:0:0:0:
196,344,29887,1,8,3:2:0:0:
196,344,29990,1,0,3:0:0:0:
196,344,30093,6,0,L|288:332,1,80,0|8,0:0|3:2,0:0:0:0:
332,268,30504,2,0,P|356:296|360:340,1,80,0|8,0:0|3:2,0:0:0:0:
456,220,30915,2,0,L|444:304,1,80,0|8,0:0|3:2,0:0:0:0:
504,134,31325,2,0,P|465:138|428:124,1,80,0|8,0:0|3:2,0:0:0:0:
428,124,31634,1,0,3:0:0:0:
428,124,31737,1,0,3:0:0:0:
360,68,31942,5,0,3:0:0:0:
360,68,32045,1,0,3:0:0:0:
360,68,32147,2,0,L|264:76,1,80,0|8,3:0|3:2,0:0:0:0:
216,136,32558,2,0,P|208:172|216:216,1,80,0|8,0:0|3:2,0:0:0:0:
200,56,32969,1,8,0:0:0:0:
136,116,33175,1,0,3:0:0:0:
136,116,33277,1,0,3:0:0:0:
136,116,33380,6,0,L|16:108,1,120,4|0,0:0|3:0,0:0:0:0:
32,96,33791,2,0,P|42:133|28:170,1,80,0|8,0:0|3:2,0:0:0:0:
20,260,34202,1,0,0:0:0:0:
104,368,34408,2,0,P|93:330|107:293,1,80,8|0,3:2|3:2,0:0:0:0:
256,336,34819,1,8,3:2:0:0:
256,336,34921,1,0,3:0:0:0:
256,336,35024,6,0,L|376:344,1,120,0|0,0:0|3:0,0:0:0:0:
360,356,35435,2,0,P|349:318|363:281,1,80,0|8,0:0|3:2,0:0:0:0:
316,136,35846,2,0,P|326:173|312:210,1,80,0|8,0:2|3:2,0:0:0:0:
226,219,36257,1,0,0:0:0:0:
363,281,36462,1,8,3:2:0:0:
363,281,36565,1,0,3:0:0:0:
363,281,36668,6,0,L|492:272,1,120,4|0,0:0|0:0,0:0:0:0:
496,256,37079,2,0,L|488:340,1,80,0|0,0:0|1:0,0:0:0:0:
432,108,37490,2,0,L|439:187,1,80,0|8,0:0|0:3,0:0:0:0:
492,44,37901,1,4,0:3:0:0:
410,27,38106,6,0,P|333:16|264:55,1,160,4|0,0:2|1:0,0:0:0:0:
244,140,38723,2,0,L|248:224,1,80,8|4,0:3|0:3,0:0:0:0:
160,124,39134,1,4,0:3:0:0:
76,104,39339,1,0,3:0:0:0:
76,104,39442,1,0,3:0:0:0:
76,104,39545,2,0,L|80:188,1,80,4|4,0:3|0:3,0:0:0:0:
220,304,39956,6,0,L|372:288,2,143.999995605469,4|4|4,0:0|0:0|0:0,0:0:0:0:
344,207,40777,2,0,P|419:219|448:280,1,120,4|0,1:3|0:2,0:0:0:0:
448,272,41188,2,0,L|444:320,4,40,2|0|0|0|4,3:2|3:0|3:0|3:2|0:0,0:0:0:0:
448,136,41908,5,0,1:0:0:0:
363,288,42216,1,0,0:0:0:0:
363,288,42319,1,0,0:0:0:0:
363,288,42421,2,0,P|324:292|288:272,1,80,0|0,1:0|3:0,0:0:0:0:
228,208,42832,2,0,L|192:212,3,26.6666666666667,0|0|0|0,3:0|3:0|3:0|3:0,0:0:0:0:
244,120,43243,6,0,L|92:136,2,143.999995605469,4|4|4,0:0|0:0|0:0,0:0:0:0:
120,216,44065,2,0,P|45:204|16:143,1,120,4|0,1:3|0:2,0:0:0:0:
16,151,44476,2,0,L|20:103,4,40,2|0|0|0|4,3:2|3:0|3:0|3:2|0:0,0:0:0:0:
64,356,45298,5,4,3:0:0:0:
100,136,45709,2,0,P|139:132|199:237,1,160,8|0,3:0|0:0,0:0:0:0:
120,217,46325,5,4,0:0:0:0:
36,192,46531,1,0,0:0:0:0:
64,52,46736,2,0,L|156:56,1,80,2|0,0:0|1:0,0:0:0:0:
100,136,47147,1,0,0:0:0:0:
143,55,47353,1,0,0:0:0:0:
276,112,47558,2,0,P|284:152|272:196,1,80,2|0,0:0|1:0,0:0:0:0:
204,240,47969,6,0,P|270:279|341:250,1,160,0|2,0:0|0:0,0:0:0:0:
424,168,48586,2,0,P|420:212|436:248,1,80,0|0,1:0|0:0,0:0:0:0:
392,324,48997,1,0,3:0:0:0:
392,324,49099,1,0,1:0:0:0:
392,324,49202,1,0,0:0:0:0:
508,196,49408,2,0,L|500:112,1,80,4|0,1:2|0:0,0:0:0:0:
444,48,49819,5,4,0:1:0:0:
372,96,50024,1,0,0:0:0:0:
284,92,50230,2,0,P|256:60|252:16,1,80,0|0,1:0|0:0,0:0:0:0:
324,176,50640,2,0,L|316:256,1,80,0|0,1:0|0:0,0:0:0:0:
300,244,51257,6,0,P|264:239|230:250,1,71.9999978027344,4|0,0:0|0:0,0:0:0:0:
216,164,51668,2,0,P|179:179|152:212,1,80,0|0,1:0|1:0,0:0:0:0:
95,140,52079,2,0,P|70:175|67:218,1,88.000002685547,0|0,1:0|1:0,0:0:0:0:
124,376,52490,2,0,L|120:268,1,88.000002685547,0|0,1:0|1:0,0:0:0:0:
0,272,52901,1,0,1:0:0:0:
153,209,53106,6,0,L|276:216,2,120,0|0|0,1:0|1:0|1:0,0:0:0:0:
300,296,53928,1,0,1:0:0:0:
384,296,54134,2,0,L|428:288,4,40,0|0|0|0|0,0:0|1:0|0:0|0:0|1:0,0:0:0:0:
388,184,54750,6,0,P|444:199|497:174,1,120,4|8,0:0|0:0,0:0:0:0:
504,156,55161,2,0,L|492:72,1,80,0|8,1:0|0:0,0:0:0:0:
424,24,55572,2,0,P|367:39|314:14,1,120,0|8,0:0|0:0,0:0:0:0:
296,24,55983,2,0,L|284:108,1,80,0|8,1:0|0:0,0:0:0:0:
296,251,56394,6,0,P|288:197|232:195,1,120,0|8,0:0|0:0,0:0:0:0:
216,208,56805,2,0,L|220:296,1,80,0|8,1:0|0:0,0:0:0:0:
160,352,57216,2,0,P|123:336|84:340,1,80,0|8,0:0|1:2,0:0:0:0:
8,300,57627,1,8,1:3:0:0:
84,256,57832,1,8,0:0:0:0:
84,256,57935,1,0,0:0:0:0:
84,256,58038,6,0,P|100:192|76:136,1,120,4|8,0:0|0:0,0:0:0:0:
68,156,58449,2,0,P|112:159|144:144,1,80,0|8,1:0|0:0,0:0:0:0:
212,88,58860,2,0,P|276:72|332:96,1,120,0|8,0:0|0:0,0:0:0:0:
340,104,59271,2,0,L|328:200,1,80,0|8,1:0|0:0,0:0:0:0:
292,260,59682,6,0,P|288:304|304:344,1,80,0|8,0:0|0:0,0:0:0:0:
432,372,60093,2,0,P|436:328|420:288,1,80,4|0,0:2|1:0,0:0:0:0:
330,183,60503,2,0,L|500:176,1,160,4|8,0:1|0:3,0:0:0:0:
488,56,61120,1,4,1:3:0:0:
488,56,61223,1,0,1:0:0:0:
488,56,61325,6,0,P|472:104|504:164,1,120,4|8,0:0|0:0,0:0:0:0:
489,176,61736,2,0,L|488:264,1,80,0|8,1:0|0:2,0:0:0:0:
424,316,62147,2,0,P|372:292|312:308,1,120,0|8,0:0|0:0,0:0:0:0:
300,320,62558,2,0,L|220:324,1,80,0|8,1:0|0:0,0:0:0:0:
124,328,62969,6,0,P|142:274|120:212,1,120,0|8,0:0|0:0,0:0:0:0:
108,204,63380,2,0,L|24:208,1,80,0|8,1:0|0:0,0:0:0:0:
152,124,63791,2,0,P|192:140|232:132,1,80,8|0,0:0|1:0,0:0:0:0:
304,92,64202,1,0,1:0:0:0:
304,180,64408,1,8,1:2:0:0:
304,180,64510,1,0,1:0:0:0:
304,180,64613,6,0,L|312:304,1,120,4|8,0:0|0:0,0:0:0:0:
296,312,65024,1,0,1:0:0:0:
392,272,65230,1,8,1:2:0:0:
488,232,65435,2,0,L|476:360,1,120,4|8,0:0|0:0,0:0:0:0:
492,364,65846,1,0,1:0:0:0:
380,372,66051,1,8,1:2:0:0:
296,312,66257,5,4,0:0:0:0:
208,328,66462,2,0,L|212:372,2,40,2|0|0,0:0|0:0|1:0,0:0:0:0:
232,200,66873,2,0,L|235:239,2,40,2|0|0,0:0|0:0|0:0,0:0:0:0:
168,92,67284,2,0,L|171:131,4,40,0|0|8|4|0,0:0|0:0|1:3|0:3|3:0,0:0:0:0:
124,208,67901,6,0,P|68:193|15:218,1,120,4|8,0:0|0:0,0:0:0:0:
8,236,68312,2,0,L|20:320,1,80,0|8,1:0|0:0,0:0:0:0:
88,368,68723,2,0,P|145:353|198:378,1,120,0|8,0:0|0:0,0:0:0:0:
216,368,69134,2,0,L|228:284,1,80,0|8,1:0|0:0,0:0:0:0:
216,141,69545,6,0,P|224:195|280:197,1,120,0|8,0:0|0:0,0:0:0:0:
296,184,69956,2,0,L|292:96,1,80,0|8,1:0|0:2,0:0:0:0:
352,40,70367,2,0,P|389:56|428:52,1,80,0|8,0:0|1:2,0:0:0:0:
504,92,70778,1,8,1:3:0:0:
428,136,70983,1,0,0:0:0:0:
428,136,71086,1,0,0:0:0:0:
428,136,71189,6,0,P|412:200|436:256,1,120,4|8,0:0|0:0,0:0:0:0:
444,236,71600,2,0,P|400:233|368:248,1,80,0|8,1:0|0:0,0:0:0:0:
300,304,72011,2,0,P|236:320|180:296,1,120,0|8,0:0|0:0,0:0:0:0:
172,288,72422,2,0,L|184:192,1,80,0|8,1:0|0:0,0:0:0:0:
220,132,72833,6,0,P|224:88|208:48,1,80,0|0,0:0|0:0,0:0:0:0:
80,20,73244,2,0,P|76:64|92:104,1,80,4|0,0:2|1:0,0:0:0:0:
182,209,73654,2,0,L|12:216,1,160,4|8,0:1|0:3,0:0:0:0:
24,336,74271,1,4,1:3:0:0:
24,336,74374,1,0,1:0:0:0:
24,336,74476,6,0,P|40:288|8:228,1,120,4|8,0:0|0:0,0:0:0:0:
23,216,74887,2,0,L|24:128,1,80,0|8,1:0|0:0,0:0:0:0:
80,68,75298,2,0,P|124:84|168:72,1,80,0|8,0:0|0:0,0:0:0:0:
240,60,75709,2,0,L|320:56,1,80,0|8,1:0|0:0,0:0:0:0:
416,52,76120,6,0,P|398:106|420:168,1,120,2|8,0:2|0:0,0:0:0:0:
432,176,76531,2,0,L|516:172,1,80,2|8,1:2|0:0,0:0:0:0:
388,256,76942,2,0,P|348:240|308:248,1,80,10|0,0:0|1:0,0:0:0:0:
236,288,77353,1,0,1:0:0:0:
236,200,77559,1,0,1:0:0:0:
236,200,77661,1,0,1:0:0:0:
236,200,77764,6,0,L|228:76,1,120,4|0,0:2|0:0,0:0:0:0:
244,68,78175,1,0,1:0:0:0:
148,108,78381,1,0,1:0:0:0:
52,148,78586,2,0,L|64:20,1,120,4|0,0:0|0:0,0:0:0:0:
48,16,78997,1,0,1:0:0:0:
160,8,79202,1,0,1:0:0:0:
244,68,79408,5,4,0:1:0:0:
256,192,79613,12,2,81051,0:0:0:0:
460,312,81546,6,0,B|484:268|460:228|460:228|424:240,1,120.000004577637,0|2,0:0|0:0,0:0:0:0:
416,248,82734,6,0,L|424:152,1,80,2|2,0:0|0:0,0:0:0:0:
420,152,84363,2,0,L|416:140,1,13.3333333333333,0|2,0:0|0:0,0:0:0:0:
