osu file format v13

[General]
AudioFilename: Hanayuki.mp3
AudioLeadIn: 1500
PreviewTime: 54031
Countdown: 0
SampleSet: Soft
StackLeniency: 0.7
Mode: 0
LetterboxInBreaks: 0
WidescreenStoryboard: 0

[Editor]
Bookmarks: 57166,70317
DistanceSpacing: 1
BeatDivisor: 4
GridSize: 4
TimelineZoom: 2.2

[Metadata]
Title:Hanayuki(TVsize)
TitleUnicode:花雪(TVsize)
Artist:smileY inc.
ArtistUnicode:smileY inc.
Creator:yf_bmp
Version:Flask's Insane
Source:ハナヤマタ
Tags:Hanayamata tv size ending 大坪由佳 Ootsubo Yuka ゆうゆ Yuuyu Alex_Li Flask
BeatmapID:505285
BeatmapSetID:212807

[Difficulty]
HPDrainRate:7
CircleSize:4
OverallDifficulty:7
ApproachRate:8.8
SliderMultiplier:1.6
SliderTickRate:1

[Events]
//Background and Video events
Video,360,"Hanayuki.avi"
0,0,"BGF.jpg",0,0
//Break Periods
//Storyboard Layer 0 (Background)
//Storyboard Layer 1 (Fail)
//Storyboard Layer 2 (Pass)
//Storyboard Layer 3 (Foreground)
//Storyboard Sound Samples
Sample,63380,0,"Clap.wav",70
//Background Colour Transformations
3,100,238,134,163

[TimingPoints]
504,410.958904109589,4,2,1,60,1,0
504,-125,4,2,1,60,0,0
6462,-125,4,2,3,40,0,0
7079,-125,4,2,1,60,0,0
8312,-200,4,2,1,60,0,0
9545,-100,4,2,3,60,0,0
9956,-133.333333333333,4,2,3,60,0,0
10367,-100,4,2,1,60,0,0
10469,-100,4,2,3,60,0,0
12216,-100,4,2,3,40,0,0
13038,-133.333333333333,4,2,3,60,0,0
13551,-133.333333333333,4,2,3,5,0,0
13654,-125,4,2,1,60,0,0
13757,-125,4,2,3,60,0,0
24956,-125,4,2,1,60,0,0
25367,-125,4,2,3,60,0,0
26188,-100,4,2,3,60,0,0
26805,-100,4,2,1,60,0,0
26908,-100,4,2,3,40,0,0
27319,-100,4,2,3,60,0,0
28140,-100,4,2,3,40,0,0
28962,-100,4,2,3,60,0,0
29887,-100,4,2,3,40,0,0
30812,-100,4,2,3,60,0,0
31017,-100,4,2,3,40,0,0
31428,-100,4,2,3,60,0,0
32456,-100,4,2,3,40,0,0
32867,-100,4,2,3,60,0,0
33277,-100,4,2,1,60,0,0
33483,-100,4,2,3,40,0,0
33894,-100,4,2,3,60,0,0
34305,-100,4,2,3,40,0,0
35743,-100,4,2,3,60,0,0
36668,-100,4,2,1,60,0,0
36771,-100,4,2,3,60,0,0
36976,-100,4,2,3,40,0,0
37387,-100,4,2,3,60,0,0
38003,-100,4,2,1,60,0,0
38517,-100,4,2,1,40,0,0
38620,-100,4,2,3,40,0,0
39031,-100,4,2,3,60,0,0
39956,-100,4,2,1,60,0,0
41188,-100,4,2,1,40,0,0
41599,-100,4,2,1,60,0,0
42421,-100,4,2,1,40,0,0
43243,-100,4,2,1,60,0,0
44476,-100,4,2,1,40,0,0
44887,-100,4,2,3,60,0,0
46325,-100,4,2,1,60,0,0
46428,-100,4,2,3,60,0,0
48997,-100,4,2,3,40,0,0
49305,-100,4,2,1,60,0,0
50846,-133.333333333333,4,2,1,60,0,0
51154,-133.333333333333,4,2,1,5,0,0
51257,-100,4,2,1,60,0,0
51565,-100,4,2,1,5,0,0
51668,-100,4,2,1,60,0,0
51771,-100,4,2,3,60,0,0
53106,-74.0740740740741,4,2,3,60,0,0
54031,-83.3333333333333,4,2,1,60,0,0
54750,-83.3333333333333,4,2,2,80,0,1
81051,495.867768595041,4,2,1,60,1,0
81051,-133.333333333333,4,2,1,60,0,0
81546,566.037735849057,4,2,1,60,1,0
81546,-133.333333333333,4,2,1,60,0,0
82112,618.556701030928,4,2,1,60,1,0
82575,-100,4,2,1,5,0,0
82734,674.157303370787,4,2,1,60,1,0
82734,-200,4,2,1,60,0,0

[Colours]
Combo1 : 182,144,193
Combo2 : 235,110,143
Combo3 : 147,209,198
Combo4 : 246,170,55
Combo5 : 140,193,233

[HitObjects]
156,56,504,6,0,P|104:60|52:52,2,96,2|0|0,0:0|0:0|0:0,0:0:0:0:
240,28,1325,2,0,L|256:112,1,64
164,208,1736,2,0,L|177:145,1,64,2|0,0:0|0:0,0:0:0:0:
352,183,2147,6,0,P|404:175|460:183,2,96,2|0|0,0:0|0:0|0:0,0:0:0:0:
496,108,2969,1,2,0:0:0:0:
491,256,3175,2,0,L|504:324,1,64
352,328,3586,5,0,0:0:0:0:
332,332,3688,1,0,0:0:0:0:
312,336,3791,2,0,P|244:340|176:336,1,128,2|0,0:0|0:0,0:0:0:0:
56,80,4613,2,0,P|124:76|192:80,1,128,2|0,0:0|0:0,0:0:0:0:
248,144,5230,1,2,0:0:0:0:
300,16,5435,6,0,L|312:88,1,64,2|0,0:0|0:0,0:0:0:0:
240,232,5846,1,0,0:0:0:0:
152,208,6051,2,0,P|100:200|44:200,1,96,2|0,0:0|0:0,0:0:0:0:
32,172,6462,5,4,0:0:0:0:
36,208,6565,1,4,0:0:0:0:
40,244,6668,1,4,0:0:0:0:
44,280,6771,1,4,0:0:0:0:
48,316,6873,1,4,0:0:0:0:
76,336,6976,1,4,0:0:0:0:
108,352,7079,1,4,0:2:0:0:
140,356,8312,6,0,P|176:364|220:360,1,80,2|4,0:0|0:0,0:0:0:0:
244,352,9750,5,4,0:0:0:0:
328,312,9956,2,0,L|424:304,1,90.0000034332277,8|8,0:0|0:0,0:0:0:0:
496,316,10367,6,0,P|508:268|504:232,1,80,4|0,0:2|0:0,0:0:0:0:
352,36,10777,1,4,0:0:0:0:
336,124,10983,1,4,0:0:0:0:
504,100,11188,2,0,P|464:96|416:96,1,80,2|0,0:0|0:0,0:0:0:0:
184,280,11599,1,4,0:0:0:0:
168,192,11805,1,4,0:0:0:0:
268,320,12010,5,2,1:2:0:0:
96,252,12216,1,0,1:0:0:0:
64,256,12319,1,0,1:0:0:0:
32,260,12421,1,0,1:0:0:0:
220,112,12627,1,0,1:0:0:0:
264,116,12730,1,0,1:0:0:0:
308,120,12832,1,4,1:3:0:0:
456,292,13038,6,0,B|464:336|464:336|416:372|356:344,1,150.000005722046,8|0,0:0|0:0,0:0:0:0:
304,292,13654,6,0,L|296:224,1,64,4|0,0:2|0:0,0:0:0:0:
464,128,14065,2,0,L|456:208,1,64,4|0,0:0|0:0,0:0:0:0:
240,352,14476,2,0,P|208:350|176:354,1,64,4|0,0:0|0:0,0:0:0:0:
29,215,14887,2,0,L|101:219,1,64,4|0,0:0|0:0,0:0:0:0:
280,136,15298,6,0,P|300:92|288:16,2,128,6|4|4,0:0|0:0|0:0,0:0:0:0:
196,172,16325,1,2,0:0:0:0:
348,196,16531,1,4,0:0:0:0:
216,72,16736,1,0,0:0:0:0:
260,268,16942,6,0,P|264:308|264:336,1,64,6|0,0:0|0:0,0:0:0:0:
100,204,17353,1,4,0:0:0:0:
88,116,17558,1,0,0:0:0:0:
28,260,17764,1,4,0:0:0:0:
180,240,17969,1,0,0:0:0:0:
340,220,18175,1,4,0:0:0:0:
108,372,18380,5,2,0:0:0:0:
108,372,18483,1,0,0:0:0:0:
108,372,18586,2,0,P|104:340|108:296,1,64,4|0,0:0|0:0,0:0:0:0:
248,120,18997,2,0,P|268:76|272:44,1,64,6|0,0:0|0:0,0:0:0:0:
384,296,19408,2,0,P|424:316|448:336,1,64,6|0,0:0|0:0,0:0:0:0:
452,172,19819,1,4,0:0:0:0:
380,64,20024,1,2,0:0:0:0:
264,240,20230,6,0,L|192:244,1,64,6|0,0:0|0:0,0:0:0:0:
384,296,20640,1,4,0:0:0:0:
452,108,20846,2,0,P|456:144|448:180,1,64,0|4,0:0|0:0,0:0:0:0:
252,256,21257,2,0,L|180:260,1,64,0|4,0:0|0:0,0:0:0:0:
60,112,21668,5,0,0:0:0:0:
56,92,21771,1,0,0:0:0:0:
52,68,21873,1,6,0:0:0:0:
12,192,22079,1,0,0:0:0:0:
148,132,22284,1,4,0:0:0:0:
0,208,22490,1,2,0:0:0:0:
112,324,22695,2,0,P|116:292|108:244,1,64,4|0,0:0|0:0,0:0:0:0:
32,372,23106,1,4,0:0:0:0:
200,288,23312,1,0,0:0:0:0:
376,352,23517,5,4,0:0:0:0:
316,172,23723,2,0,P|312:204|316:248,1,64,2|4,0:0|0:0,0:0:0:0:
496,84,24134,2,0,P|448:56|400:52,1,96
384,52,24545,1,0,0:0:0:0:
512,200,24750,1,4,0:0:0:0:
256,240,24956,1,4,0:0:0:0:
256,240,25367,5,2,0:0:0:0:
124,312,25573,1,4,0:0:0:0:
112,128,25777,1,0,1:0:0:0:
116,108,25880,1,0,1:0:0:0:
120,88,25983,1,0,1:0:0:0:
335,110,26188,1,0,0:0:0:0:
376,108,26291,2,0,L|448:104,1,40,8|8,0:0|0:0,0:0:0:0:
440,28,26497,2,0,L|376:32,1,40,0|4,0:0|0:0,0:0:0:0:
372,236,26805,5,4,0:0:0:0:
248,80,27010,1,8,0:0:0:0:
252,104,27113,1,8,0:0:0:0:
256,128,27216,1,8,0:0:0:0:
488,184,27421,1,0,0:0:0:0:
244,252,27627,2,0,P|204:268|172:304,1,80,4|0,0:0|0:0,0:0:0:0:
356,340,28038,1,4,0:0:0:0:
416,140,28243,5,8,0:0:0:0:
424,116,28346,1,8,0:0:0:0:
432,92,28449,1,8,0:0:0:0:
176,36,28654,1,8,0:0:0:0:
138,38,28757,2,0,L|82:42,1,40,8|8,0:0|0:0,0:0:0:0:
29,124,28962,2,0,L|77:120,1,40
204,200,29271,1,4,0:0:0:0:
88,356,29476,2,0,P|96:320|92:264,1,80,0|4,0:0|0:0,0:0:0:0:
288,120,29887,5,8,0:0:0:0:
288,120,29990,1,8,0:0:0:0:
288,120,30093,2,0,P|324:96|376:84,1,80,10|0,0:0|0:0,0:0:0:0:
468,152,30401,1,8,0:0:0:0:
448,168,30503,2,0,P|412:184|364:184,1,80,10|0,0:0|0:0,0:0:0:0:
496,60,30914,1,4,0:0:0:0:
504,252,31120,1,8,0:0:0:0:
496,276,31223,1,8,0:0:0:0:
488,300,31325,1,8,0:0:0:0:
268,336,31531,6,0,B|224:320|176:340|176:340|128:320,1,120,2|0,0:0|0:0,0:0:0:0:
96,376,31942,1,0,0:0:0:0:
352,368,32147,2,0,P|356:324|344:284,1,80,6|0,0:0|0:0,0:0:0:0:
372,252,32456,1,8,0:0:0:0:
328,256,32558,1,8,0:0:0:0:
284,244,32661,1,8,0:0:0:0:
256,212,32764,1,8,0:0:0:0:
96,52,32969,1,4,0:0:0:0:
76,180,33175,1,8,0:0:0:0:
336,168,33380,5,4,0:0:0:0:
204,260,33586,1,8,0:0:0:0:
204,260,33688,1,8,0:0:0:0:
204,260,33791,1,8,0:0:0:0:
224,96,33997,2,0,P|232:56|228:12,1,80,0|4,0:0|0:0,0:0:0:0:
76,180,34408,1,8,0:0:0:0:
44,184,34510,1,8,0:0:0:0:
12,188,34613,1,8,0:0:0:0:
173,356,34819,5,10,0:0:0:0:
200,354,34921,1,8,0:0:0:0:
228,352,35024,2,0,P|276:360|320:352,1,80,8|0,0:0|0:0,0:0:0:0:
348,368,35332,1,8,0:0:0:0:
340,324,35435,1,8,0:0:0:0:
360,284,35538,1,8,0:0:0:0:
400,264,35640,1,8,0:0:0:0:
500,92,35846,2,0,L|488:48,2,40,4|0|0,0:0|0:0|0:0,0:0:0:0:
512,280,36257,1,4,0:0:0:0:
384,132,36462,2,0,L|336:120,1,40
188,192,36668,6,0,P|228:200|288:188,1,80,4|0,0:0|0:0,0:0:0:0:
284,156,36976,1,8,0:0:0:0:
296,200,37079,1,8,0:0:0:0:
300,244,37182,1,8,0:0:0:0:
284,284,37284,1,8,0:0:0:0:
64,104,37490,1,2,0:0:0:0:
128,292,37695,1,4,0:0:0:0:
256,40,37901,1,4,0:0:0:0:
512,321,38106,6,0,L|384:313,1,120,4|0,0:0|0:0,0:0:0:0:
372,332,38517,1,4,1:2:0:0:
392,188,38723,1,8,0:0:0:0:
416,40,38928,1,8,0:0:0:0:
228,88,39134,1,4,0:0:0:0:
256,92,39236,1,4,0:0:0:0:
284,96,39339,1,4,0:0:0:0:
504,196,39545,1,4,0:0:0:0:
280,264,39750,2,0,L|232:260,1,40,4|0,0:0|0:0,0:0:0:0:
200,336,39956,6,0,P|144:352|100:336,1,80,4|0,0:0|0:0,0:0:0:0:
44,320,40264,2,0,L|28:284,1,40,4|0,0:0|1:0,0:0:0:0:
144,152,40572,1,0,0:0:0:0:
308,256,40777,2,0,P|360:264|440:248,1,120,4|0,0:0|0:0,0:0:0:0:
488,212,41188,2,0,L|508:252,3,40,0|0|0|0,1:0|1:0|1:0|1:0,0:0:0:0:
384,56,41599,5,4,3:2:0:0:
308,256,41908,1,4,3:2:0:0:
512,220,42216,1,4,0:0:0:0:
392,168,42421,2,0,L|344:160,1,40,0|0,1:0|1:0,0:0:0:0:
288,56,42627,2,0,L|305:101,1,40,0|0,1:0|1:0,0:0:0:0:
260,188,42832,2,0,L|280:160,6,20,0|0|0|0|0|0|0,1:0|1:0|1:0|1:0|1:0|1:0|1:0,0:0:0:0:
76,332,43243,6,0,P|88:288|72:240,1,80,4|0,0:0|0:0,0:0:0:0:
28,184,43551,2,0,L|32:132,1,40,4|0,0:0|1:0,0:0:0:0:
184,296,43860,1,0,0:0:0:0:
312,36,44065,2,0,P|308:96|316:160,1,120,4|0,0:0|0:0,0:0:0:0:
384,200,44476,2,0,L|436:204,3,40,0|0|0|0,1:0|1:0|1:0|1:0,0:0:0:0:
496,168,44887,5,6,0:0:0:0:
432,320,45093,1,0,0:0:0:0:
432,320,45195,1,0,0:0:0:0:
432,320,45298,2,0,P|389:323|338:321,1,80,4|0,0:0|0:0,0:0:0:0:
179,242,45709,1,6,0:0:0:0:
279,222,45914,1,0,0:0:0:0:
157,333,46120,1,4,0:0:0:0:
23,132,46325,5,4,0:0:0:0:
111,167,46531,1,0,0:0:0:0:
257,76,46736,2,0,P|217:83|181:107,1,80,0|8,0:0|0:0,0:0:0:0:
36,224,47147,1,0,0:0:0:0:
94,71,47353,1,4,0:0:0:0:
201,276,47558,2,0,P|206:234|200:194,1,80,0|8,0:0|0:0,0:0:0:0:
354,344,47969,6,0,P|388:322|476:325,1,120,2|0,0:0|0:0,0:0:0:0:
512,380,48380,1,2,0:0:0:0:
402,266,48586,1,8,0:0:0:0:
265,342,48791,1,0,0:0:0:0:
496,284,48997,1,8,0:0:0:0:
500,260,49099,1,8,0:0:0:0:
504,236,49202,1,8,0:0:0:0:
447,139,49408,1,4,1:2:0:0:
424,353,49613,1,0,0:0:0:0:
256,228,49819,6,0,P|216:226|176:229,1,80,4|0,1:2|0:0,0:0:0:0:
42,349,50230,2,0,P|85:340|121:316,1,80,0|0,1:0|0:0,0:0:0:0:
77,131,50640,1,0,1:0:0:0:
73,221,50846,6,0,L|77:131,1,90.0000034332277,0|0,1:0|0:0,0:0:0:0:
35,69,51257,6,0,P|86:95|160:84,1,120,4|0,0:0|0:0,0:0:0:0:
215,57,51668,1,0,0:0:0:0:
105,11,51873,1,4,0:0:0:0:
94,133,52079,1,4,0:0:0:0:
242,327,52284,1,4,0:0:0:0:
257,206,52490,1,4,0:0:0:0:
463,90,52695,1,4,0:0:0:0:
472,267,52901,5,4,0:0:0:0:
472,267,53003,1,4,0:0:0:0:
472,267,53106,2,0,P|423:289|367:281,1,108.000000411987,8|0,0:0|0:0,0:0:0:0:
325,216,53414,2,0,P|330:162|365:118,1,108.000000411987,8|0,0:0|0:0,0:0:0:0:
438,112,53723,2,0,P|467:128|488:159,1,54.0000002059937,8|0,0:0|0:0,0:0:0:0:
421,335,53928,1,8,0:0:0:0:
121,275,54134,6,0,P|136:254|159:237,1,47.9999985351563,4|0,0:0|0:0,0:0:0:0:
224,214,54339,2,0,P|249:209|277:214,1,47.9999985351563,0|0,0:0|0:0,0:0:0:0:
346,230,54545,2,0,P|366:245|384:268,1,47.9999985351563
421,335,54750,5,4,0:0:0:0:
320,145,54956,1,0,0:0:0:0:
320,145,55058,1,0,0:0:0:0:
320,145,55161,2,0,P|316:100|333:49,1,95.9999970703126,0|0,1:0|0:0,0:0:0:0:
178,178,55572,2,0,P|134:162|37:174,1,143.999995605469
3,241,55983,1,0,1:0:0:0:
127,333,56188,1,0,0:0:0:0:
211,104,56394,5,2,0:0:0:0:
350,250,56599,1,0,0:0:0:0:
350,250,56702,1,0,0:0:0:0:
350,250,56805,2,0,P|300:253|254:249,1,95.9999970703126,0|0,1:0|0:0,0:0:0:0:
429,70,57216,2,0,L|438:176,1,95.9999970703126
306,340,57627,1,0,1:0:0:0:
181,180,57832,5,0,0:0:0:0:
181,180,57935,1,0,0:0:0:0:
181,180,58038,2,0,B|99:169|99:169|77:199|43:214,1,143.999995605469,4|0,0:0|0:0,0:0:0:0:
0,260,58449,1,0,1:0:0:0:
104,72,58654,1,0,0:0:0:0:
310,137,58860,6,0,P|376:139|431:82,1,143.999995605469,4|0,0:0|0:0,0:0:0:0:
446,13,59271,1,0,1:0:0:0:
497,206,59476,1,0,0:0:0:0:
296,322,59682,5,0,0:0:0:0:
315,195,59887,1,0,0:0:0:0:
486,369,60093,1,4,1:2:0:0:
430,259,60298,1,0,0:0:0:0:
192,361,60503,1,4,0:0:0:0:
387,361,60709,2,0,L|376:308,2,47.9999985351563,0|0|0,0:0|0:0|1:0,0:0:0:0:
224,228,61120,5,0,1:0:0:0:
220,199,61223,1,0,1:0:0:0:
216,170,61325,2,0,P|286:190|350:147,1,143.999995605469,4|0,0:0|0:0,0:0:0:0:
148,100,61736,2,0,P|124:152|125:193,1,95.9999970703126,0|0,1:0|0:0,0:0:0:0:
246,76,62147,1,0,0:0:0:0:
19,53,62353,1,0,0:0:0:0:
47,48,62456,1,0,0:0:0:0:
75,42,62558,1,0,1:0:0:0:
126,210,62764,1,0,0:0:0:0:
386,117,62969,6,0,P|344:96|297:101,1,95.9999970703126,0|0,0:0|0:0,0:0:0:0:
273,118,63277,2,0,P|248:163|249:206,1,95.9999970703126,0|0,0:0|0:0,0:0:0:0:
261,232,63586,2,0,P|307:260|358:262,1,95.9999970703126,0|0,0:0|0:0,0:0:0:0:
480,342,63997,1,0,0:0:0:0:
333,181,64202,1,0,1:0:0:0:
441,240,64408,5,0,1:0:0:0:
468,234,64510,1,0,1:0:0:0:
496,227,64613,1,4,1:2:0:0:
271,333,64819,2,0,P|274:363|274:381,1,47.9999985351563,0|0,1:0|1:0,0:0:0:0:
242,315,65024,1,0,1:0:0:0:
193,122,65230,1,0,1:0:0:0:
364,338,65435,5,4,1:2:0:0:
140,293,65640,1,0,1:0:0:0:
111,297,65743,1,0,1:0:0:0:
82,301,65846,1,0,1:0:0:0:
292,259,66051,1,0,0:0:0:0:
93,129,66257,6,0,P|104:82|139:42,1,95.9999970703126,4|8,1:2|0:0,0:0:0:0:
212,37,66565,1,0,0:0:0:0:
212,37,66668,2,0,L|264:25,1,47.9999985351563,8|2,0:0|0:0,0:0:0:0:
338,109,66873,2,0,L|273:102,1,47.9999985351563,8|2,0:0|0:0,0:0:0:0:
411,43,67079,2,0,L|424:93,1,47.9999985351563,8|2,0:0|0:0,0:0:0:0:
429,319,67284,6,0,P|405:333|380:340,1,47.9999985351563,8|0,0:0|0:0,0:0:0:0:
309,345,67490,2,0,P|282:337|259:325,1,47.9999985351563,8|0,0:0|0:0,0:0:0:0:
214,270,67695,2,0,P|199:246|193:220,1,47.9999985351563,8|0,0:0|0:0,0:0:0:0:
195,151,67901,5,4,0:0:0:0:
144,328,68106,1,0,0:0:0:0:
144,328,68209,1,0,0:0:0:0:
144,328,68312,2,0,P|98:343|51:346,1,95.9999970703126,0|0,1:0|0:0,0:0:0:0:
310,232,68723,2,0,P|356:230|405:250,1,95.9999970703126,0|0,0:0|0:0,0:0:0:0:
168,147,69134,1,0,1:0:0:0:
210,243,69339,1,0,0:0:0:0:
362,131,69545,6,0,P|385:91|383:35,1,95.9999970703126,0|0,0:0|0:0,0:0:0:0:
272,111,69853,1,0,0:0:0:0:
272,111,69956,2,0,P|276:165|305:208,1,95.9999970703126,0|0,1:0|0:0,0:0:0:0:
492,353,70367,1,0,0:0:0:0:
380,271,70572,1,0,0:0:0:0:
256,332,70777,1,0,1:0:0:0:
129,174,70983,5,0,1:0:0:0:
129,174,71086,1,0,1:0:0:0:
129,174,71188,2,0,B|108:219|123:268|123:268|66:280,1,143.999995605469,4|0,1:2|0:0,0:0:0:0:
14,226,71599,1,0,1:0:0:0:
202,225,71805,1,0,0:0:0:0:
390,217,72010,6,0,L|387:71,1,143.999995605469,4|0,0:0|0:0,0:0:0:0:
330,24,72421,1,0,1:0:0:0:
496,121,72627,1,0,0:0:0:0:
321,139,72832,5,0,0:0:0:0:
438,37,73038,1,0,0:0:0:0:
448,201,73243,1,4,1:2:0:0:
257,232,73449,1,0,0:0:0:0:
403,119,73654,1,4,0:0:0:0:
219,84,73860,1,0,0:0:0:0:
190,82,73962,1,0,0:0:0:0:
161,80,74065,1,0,1:0:0:0:
18,297,74271,5,0,1:0:0:0:
61,289,74373,1,0,1:0:0:0:
107,283,74476,2,0,P|148:306|217:305,1,95.9999970703126,4|0,1:2|0:0,0:0:0:0:
268,337,74784,2,0,L|317:335,1,47.9999985351563,0|0,0:0|1:0,0:0:0:0:
473,187,75093,2,0,P|478:148|472:87,1,95.9999970703126
423,294,75504,1,0,0:0:0:0:
451,299,75606,1,0,0:0:0:0:
479,303,75709,1,0,1:0:0:0:
360,150,75914,1,0,0:0:0:0:
260,274,76120,5,0,0:0:0:0:
455,142,76325,1,0,0:0:0:0:
455,142,76428,1,0,0:0:0:0:
455,142,76531,2,0,L|360:150,1,95.9999970703126,2|0,1:2|0:0,0:0:0:0:
69,201,76942,2,0,L|164:208,1,95.9999970703126,2|0,0:0|0:0,0:0:0:0:
361,292,77353,1,0,1:0:0:0:
256,92,77558,5,0,1:0:0:0:
256,92,77661,1,0,1:0:0:0:
256,92,77764,2,0,B|222:0|222:0|201:51,1,143.999995605469,4|0,1:2|0:0,0:0:0:0:
176,115,78175,1,0,1:0:0:0:
119,247,78380,1,0,0:0:0:0:
64,380,78586,6,0,L|235:368,1,143.999995605469,4|0,1:2|0:0,0:0:0:0:
286,352,78997,1,0,1:0:0:0:
119,247,79202,1,0,0:0:0:0:
422,240,79408,5,4,1:2:0:0:
444,352,79613,1,0,0:0:0:0:
225,242,79819,2,0,L|228:184,1,47.9999985351563,0|0,0:0|1:0,0:0:0:0:
188,164,80024,1,0,1:0:0:0:
216,124,80126,1,0,1:0:0:0:
208,76,80229,1,0,1:0:0:0:
164,56,80332,1,0,0:0:0:0:
120,72,80435,1,0,0:0:0:0:
377,72,80640,1,0,1:0:0:0:
377,72,80743,1,0,1:0:0:0:
377,72,80846,1,0,1:0:0:0:
377,72,80949,1,0,1:0:0:0:
377,72,81051,6,0,L|448:64,1,60.0000022888184,2|0,0:0|0:0,0:0:0:0:
300,120,81546,1,2,0:0:0:0:
224,168,81829,1,0,0:0:0:0:
153,218,82112,6,0,L|275:208,1,120,2|0,0:0|0:0,0:0:0:0:
219,266,82734,1,2,0:0:0:0:
135,312,83071,1,0,0:0:0:0:
51,257,83408,6,0,B|61:205|43:149|43:149|61:156,1,120,2|2,0:0|0:0,0:0:0:0:
