osu file format v13

[General]
AudioFilename: Hanayuki.mp3
AudioLeadIn: 1500
PreviewTime: 54031
Countdown: 0
SampleSet: Soft
StackLeniency: 0.7
Mode: 0
LetterboxInBreaks: 0
WidescreenStoryboard: 0

[Editor]
Bookmarks: 57166,70317
DistanceSpacing: 0.5
BeatDivisor: 4
GridSize: 4
TimelineZoom: 1.4

[Metadata]
Title:Hanayuki(TVsize)
TitleUnicode:花雪(TVsize)
Artist:smileY inc.
ArtistUnicode:smileY inc.
Creator:yf_bmp
Version:AL's Easy
Source:ハナヤマタ
Tags:Hanayamata tv size ending 大坪由佳 Ootsubo Yuka ゆうゆ Yuuyu Alex_Li Flask
BeatmapID:500618
BeatmapSetID:212807

[Difficulty]
HPDrainRate:2
CircleSize:3
OverallDifficulty:2
ApproachRate:2
SliderMultiplier:0.8
SliderTickRate:1

[Events]
//Background and Video events
Video,360,"Hanayuki.avi"
0,0,"BGE.jpg",0,0
//Break Periods
//Storyboard Layer 0 (Background)
//Storyboard Layer 1 (Fail)
//Storyboard Layer 2 (Pass)
//Storyboard Layer 3 (Foreground)
//Storyboard Sound Samples
//Background Colour Transformations
3,100,238,134,163

[TimingPoints]
504,410.958904109589,4,2,1,60,1,0
7079,-100,4,2,1,70,0,0
13654,-100,4,2,2,60,0,0
36668,-100,4,2,2,40,0,0
37490,-100,4,2,2,60,0,0
39956,-100,4,2,1,65,0,0
46325,-100,4,2,1,50,0,0
52284,-100,4,2,1,60,0,0
53106,-100,4,2,1,80,0,0
54750,-100,4,2,2,80,0,1
77764,-100,4,2,1,80,0,1
81051,495.867768595041,4,2,1,60,1,0
81546,566.037735849057,4,2,1,60,1,0
82112,618.556701030928,4,2,1,60,1,0
82734,674.157303370787,4,2,1,60,1,0

[Colours]
Combo1 : 182,144,193
Combo2 : 235,110,143
Combo3 : 147,209,198
Combo4 : 246,170,55
Combo5 : 140,193,233

[HitObjects]
176,128,504,6,0,P|256:108|336:132,1,160,2|0,0:0|0:0,0:0:0:0:
388,184,1736,1,2,0:0:0:0:
332,240,2147,2,0,P|255:259|178:239,1,160,0|2,0:0|0:0,0:0:0:0:
92,104,3791,6,0,B|168:80|168:80|244:104,1,160,2|2,0:0|0:0,0:0:0:0:
380,188,5435,2,0,P|400:240|384:304,2,120,2|2|0,0:0|0:0|0:0,0:0:0:0:
308,152,7079,6,0,B|280:152|252:136|252:136|228:152|192:152,2,120,4|0|0,1:0|0:0|0:0,0:0:0:0:
308,232,8723,2,0,B|280:232|252:248|252:248|228:232|192:232,2,120,4|0|0,1:0|0:0|1:0,0:0:0:0:
376,192,10367,6,0,P|412:124|376:56,1,160,4|0,0:0|0:0,0:0:0:0:
332,124,11599,1,0,1:0:0:0:
268,76,12010,2,0,P|228:68|188:76,2,80,0|0|0,0:0|1:0|0:0,0:0:0:0:
132,160,13654,6,0,B|124:200|124:200|132:240,1,80,0|8,0:0|0:0,0:0:0:0:
211,238,14476,2,0,B|219:278|219:278|211:318,1,80,0|8,0:0|0:0,0:0:0:0:
140,352,15298,2,0,P|96:360|60:352,2,80,0|8|0,0:0|0:0|0:0,0:0:0:0:
264,252,16942,6,0,P|308:244|344:252,1,80,0|8,0:0|0:0,0:0:0:0:
388,316,17764,2,0,P|422:261|408:208,1,120,0|2,0:0|0:0,0:0:0:0:
316,132,18997,1,8,0:0:0:0:
240,160,19408,2,0,B|200:168|200:168|160:160,1,80,0|8,0:0|0:0,0:0:0:0:
104,104,20230,6,0,P|80:160|136:236,1,160
208,264,21462,1,8,0:0:0:0:
284,236,21873,2,0,P|334:178|312:105,1,160
416,228,23517,6,0,B|408:272|408:272|416:308,1,80,0|8,0:0|0:0,0:0:0:0:
336,312,24339,2,0,P|280:296|216:320,2,120,0|2|8,0:0|0:0|0:0,0:0:0:0:
416,308,25983,2,0,P|456:300|496:308,1,80,0|8,0:0|0:0,0:0:0:0:
508,228,26805,6,0,P|500:188|508:148,1,80,4|8,0:0|0:0,0:0:0:0:
452,92,27627,2,0,P|460:52|452:12,1,80,0|8,0:0|0:0,0:0:0:0:
376,32,28449,2,0,B|300:56|300:56|224:32,1,160,0|0,0:0|0:0,0:0:0:0:
148,60,29682,1,8,0:0:0:0:
208,116,30093,6,0,P|220:156|212:192,1,80,0|8,0:0|0:0,0:0:0:0:
168,260,30914,2,0,P|228:248|288:264,1,120,0|2,0:0|0:0,0:0:0:0:
356,296,31942,2,0,P|413:310|472:298,1,120,0|0,0:0|0:0,0:0:0:0:
508,228,32969,1,8,0:0:0:0:
448,176,33380,6,0,P|408:168|368:176,1,80,4|8,0:0|0:0,0:0:0:0:
304,220,34202,2,0,P|264:228|224:220,1,80,0|8,0:0|0:0,0:0:0:0:
188,152,35024,2,0,B|188:116|212:80|212:80|232:44|232:-4,1,160
268,156,36668,6,0,P|224:224|144:220,1,160,4|0,0:0|0:0,0:0:0:0:
148,344,38106,2,0,B|224:344|224:344|276:324|276:324|344:324,1,200,4|0,0:0|0:0,0:0:0:0:
424,344,39545,1,8,0:0:0:0:
492,304,39956,6,0,P|496:276|492:244,2,60,4|0|0,1:0|0:0|0:0,0:0:0:0:
384,252,41188,1,0,1:0:0:0:
308,280,41599,2,0,P|304:252|308:220,2,60,4|0|0,1:0|0:0|0:0,0:0:0:0:
188,292,42832,1,0,1:0:0:0:
220,364,43243,6,0,P|188:372|156:364,2,60,4|0|0,1:0|0:0|0:0,0:0:0:0:
296,268,44476,1,0,3:0:0:0:
348,328,44887,2,0,P|376:260|324:192,1,160,2|0,3:0|1:0,0:0:0:0:
212,176,46325,6,0,P|172:184|128:176,2,80,4|0|0,1:0|0:0|0:0,0:0:0:0:
268,120,47558,1,0,0:0:0:0:
324,176,47969,6,0,B|380:192|380:192|440:176,1,120,2|0,0:0|1:0,0:0:0:0:
488,240,48997,2,0,P|480:280|492:328,1,80,0|0,0:0|1:0,0:0:0:0:
412,348,49819,2,0,P|372:340|324:352,2,80,0|0|0,1:0|0:0|0:0,0:0:0:0:
344,252,51257,6,0,P|328:196|348:136,1,120,4|0,0:0|0:0,0:0:0:0:
416,96,52284,2,0,B|456:108|456:108|492:96,2,80,0|0|0,0:0|0:0|1:0,0:0:0:0:
256,112,53928,6,0,L|176:112,1,80,0|0,0:0|0:0,0:0:0:0:
108,156,54750,6,0,P|104:196|108:236,1,80,4|8,0:0|0:0,0:0:0:0:
188,248,55572,2,0,P|192:288|188:328,1,80,0|8,0:0|0:0,0:0:0:0:
112,356,56394,2,0,P|188:336|268:360,1,160
328,308,57627,1,8,0:0:0:0:
404,340,58038,6,0,B|444:348|444:348|484:340,1,80,4|8,0:0|0:0,0:0:0:0:
484,260,58860,2,0,B|445:252|445:252|405:260,1,80,0|8,0:0|0:0,0:0:0:0:
332,224,59682,2,0,P|324:184|332:144,2,80,0|12|4,0:0|0:0|0:0,0:0:0:0:
196,312,61325,6,0,B|156:320|156:320|116:312,1,80,4|8,0:0|0:0,0:0:0:0:
117,232,62147,2,0,B|155:224|155:224|195:232,1,80,0|8,0:0|0:0,0:0:0:0:
264,272,62969,2,0,P|324:284|388:268,2,120,0|2|0,0:0|0:0|0:0,0:0:0:0:
232,200,64613,6,0,P|228:160|232:120,1,80,4|8,0:0|0:0,0:0:0:0:
312,104,65435,2,0,P|315:64|311:24,1,80,4|8,0:0|0:0,0:0:0:0:
232,16,66257,2,0,B|152:8|152:8|72:16,1,160,4|0,0:0|0:0,0:0:0:0:
12,68,67490,1,8,0:0:0:0:
72,120,67901,6,0,L|84:200,1,80,4|8,0:0|0:0,0:0:0:0:
83,279,68723,2,0,L|71:359,1,80,0|8,0:0|0:0,0:0:0:0:
152,364,69545,2,0,L|164:284,2,80,0|8|0,0:0|0:0|0:0,0:0:0:0:
232,380,70777,1,8,0:0:0:0:
292,328,71188,6,0,P|368:308|448:324,1,160,4|0,0:0|0:0,0:0:0:0:
332,208,72832,2,0,B|340:168|340:168|332:128,1,80,0|12,0:0|0:0,0:0:0:0:
252,128,73654,2,0,B|244:166|244:166|252:206,1,80,4|8,0:0|0:0,0:0:0:0:
284,280,74476,6,0,P|220:268|156:284,1,120,4|2,0:0|0:0,0:0:0:0:
64,340,75709,1,0,0:0:0:0:
24,272,76120,2,0,P|16:232|28:184,2,80,0|8|2,0:0|0:0|0:0,0:0:0:0:
96,232,77353,1,8,0:0:0:0:
164,192,77764,6,0,B|204:184|204:184|248:192,1,80,4|2,0:0|0:0,0:0:0:0:
244,272,78586,2,0,B|204:280|204:280|165:272,1,80,4|2,0:0|0:0,0:0:0:0:
256,192,79408,12,2,81051,0:0:0:0:
