osu file format v13

[General]
AudioFilename: Hanayuki.mp3
AudioLeadIn: 1500
PreviewTime: 54031
Countdown: 0
SampleSet: Soft
StackLeniency: 0.7
Mode: 0
LetterboxInBreaks: 0
WidescreenStoryboard: 0

[Editor]
DistanceSpacing: 1.1
BeatDivisor: 4
GridSize: 4
TimelineZoom: 1.8

[Metadata]
Title:Hanayuki(TVsize)
TitleUnicode:花雪(TVsize)
Artist:smileY inc.
ArtistUnicode:smileY inc.
Creator:No Dap
Version:Insane
Source:ハナヤマタ
Tags:Hanayamata tv size ending 大坪由佳 Ootsubo Yuka ゆうゆ yuuyu
BeatmapID:540526
BeatmapSetID:232575

[Difficulty]
HPDrainRate:6.8
CircleSize:4
OverallDifficulty:7
ApproachRate:8
SliderMultiplier:1.7
SliderTickRate:1

[Events]
//Background and Video events
Video,858,"Hanayuki.avi"
0,0,"BGN.jpg",0,0
//Break Periods
//Storyboard Layer 0 (Background)
//Storyboard Layer 1 (Fail)
//Storyboard Layer 2 (Pass)
//Storyboard Layer 3 (Foreground)
//Storyboard Sound Samples

[TimingPoints]
504,410.958904109589,4,2,1,40,1,0
504,-125,4,2,1,40,0,0
6462,-125,4,2,1,35,0,0
7079,-111.111111111111,4,2,1,50,0,0
10367,-100,4,2,1,60,0,0
13654,-111.111111111111,4,2,1,60,0,0
15298,-100,4,2,1,45,0,0
26805,-100,4,2,1,50,0,0
28654,-100,4,2,1,40,0,0
29065,-100,4,2,1,50,0,0
38106,-100,4,2,1,55,0,0
39956,-86.9565217391305,4,2,1,55,0,0
40264,-76.9230769230769,4,2,1,55,0,0
40777,-86.9565217391305,4,2,1,55,0,0
41908,-76.9230769230769,4,2,1,55,0,0
43243,-86.9565217391305,4,2,1,55,0,0
43551,-76.9230769230769,4,2,1,55,0,0
44065,-86.9565217391305,4,2,1,55,0,0
44887,-100,4,2,1,55,0,0
54750,-90.9090909090909,4,2,1,65,0,1
66257,-90.9090909090909,4,2,1,40,0,1
67901,-90.9090909090909,4,2,1,65,0,1
74065,-90.9090909090909,4,2,1,45,0,1
74476,-90.9090909090909,4,2,1,65,0,1
77147,-90.9090909090909,4,2,1,50,0,1
77764,-90.9090909090909,4,2,1,60,0,1
81051,495.867768595041,4,2,1,50,1,0
81546,566.037735849057,4,2,1,50,1,8
82112,618.556701030928,4,2,1,50,1,8
82730,674.157303370787,4,2,1,50,1,8
83404,674.157303370787,4,2,1,50,1,0

[Colours]
Combo1 : 147,74,74
Combo2 : 59,255,255
Combo3 : 179,179,255
Combo4 : 255,55,255
Combo5 : 255,255,110

[HitObjects]
160,224,504,6,0,L|148:104,2,102,2|0|0,0:0|0:0|0:0,0:0:0:0:
136,304,1325,1,2,0:0:0:0:
304,120,1736,2,0,L|312:188,1,68,2|0,0:0|0:0,0:0:0:0:
384,232,2147,6,0,P|436:204|448:144,2,102,2|0|0,0:0|0:0|0:0,0:0:0:0:
312,188,2969,2,0,L|294:53,1,136,2|0,0:0|0:0,0:0:0:0:
180,152,3586,1,2,0:0:0:0:
180,152,3688,1,2,0:0:0:0:
180,152,3791,6,0,P|176:218|212:275,1,136,2|0,0:0|0:0,0:0:0:0:
424,288,4613,2,0,B|357:284|305:308|305:308|321:268|297:229,1,204,2|2,0:0|0:0,0:0:0:0:
408,176,5435,2,0,B|436:112|428:36|428:36|400:68|379:70,1,204,2|2,0:0|0:0,0:0:0:0:
160,47,6463,5,2,0:0:0:0:
161,69,6565,1,2,0:0:0:0:
162,92,6668,1,2,0:0:0:0:
164,115,6771,1,2,0:0:0:0:
165,137,6873,1,2,0:0:0:0:
166,160,6976,1,2,0:0:0:0:
168,183,7079,6,0,P|234:174|312:216,2,152.999995330811,4|0|0,0:0|0:0|0:0,0:0:0:0:
208,328,8312,1,8,0:3:0:0:
312,224,8723,6,0,L|331:66,1,152.999995330811,4|0,0:0|0:0,0:0:0:0:
392,288,9545,2,0,L|404:208,1,76.4999976654053,0|4,0:0|0:3,0:0:0:0:
416,116,9956,1,8,0:0:0:0:
480,260,10161,1,0,0:0:0:0:
480,260,10264,1,8,0:0:0:0:
480,260,10367,6,0,P|484:301|468:348,1,85,4|0,0:0|0:0,0:0:0:0:
304,320,10777,2,0,P|299:278|312:237,1,85,2|2,0:0|0:0,0:0:0:0:
196,364,11188,2,0,L|111:356,1,85,2|0,0:0|0:0,0:0:0:0:
112,220,11599,1,2,0:0:0:0:
24,272,11805,1,2,0:0:0:0:
4,76,12010,5,8,0:0:0:0:
36,184,12216,1,4,0:3:0:0:
208,60,12421,5,8,0:0:0:0:
192,232,12627,1,4,0:3:0:0:
192,232,12730,1,4,0:3:0:0:
192,232,12832,1,8,0:0:0:0:
112,48,13038,1,4,0:0:0:0:
136,312,13654,6,2,P|209:323|273:284,1,152.999995330811,4|0,0:0|0:0,0:0:0:0:
344,80,14476,2,0,L|337:156,1,76.4999976654053,2|0,0:0|0:0,0:0:0:0:
260,224,14887,1,0,0:0:0:0:
208,140,15093,1,0,0:0:0:0:
124,176,15298,6,0,P|125:218|136:259,1,85,2|0,0:0|0:0,0:0:0:0:
156,68,15709,1,0,0:0:0:0:
36,108,15914,2,0,P|23:148|19:190,1,85,2|0,0:0|0:0,0:0:0:0:
72,356,16325,2,0,L|61:272,1,85,2|0,0:0|0:0,0:0:0:0:
204,272,16736,1,0,0:0:0:0:
132,207,16942,6,0,P|108:130|166:74,2,170,2|2|2,0:0|0:0|0:0,0:0:0:0:
244,144,17969,1,0,0:0:0:0:
204,272,18175,2,0,P|200:314|208:355,1,85,0|2,0:0|0:0,0:0:0:0:
244,144,18586,5,0,0:0:0:0:
204,272,18791,1,0,0:0:0:0:
132,208,18997,2,0,P|84:208|32:228,1,85,2|0,0:0|0:0,0:0:0:0:
100,300,19408,1,2,0:0:0:0:
136,128,19613,1,0,0:0:0:0:
204,272,19819,2,0,P|250:270|298:246,1,85,2|2,0:0|0:0,0:0:0:0:
456,200,20230,6,0,L|432:388,1,170,2|0,0:0|0:0,0:0:0:0:
355,207,20846,2,0,P|382:129|464:100,1,170,2|2,0:0|0:0,0:0:0:0:
456,200,21462,1,0,0:0:0:0:
384,304,21668,6,0,P|341:306|302:291,1,85,0|2,0:0|0:0,0:0:0:0:
240,208,22079,2,0,P|233:165|225:124,1,85,0|0,0:0|0:0,0:0:0:0:
168,48,22490,1,2,0:0:0:0:
96,168,22695,2,0,P|68:200|46:236,1,85
172,300,23106,1,0,0:0:0:0:
304,236,23312,1,0,0:0:0:0:
200,184,23517,5,2,0:0:0:0:
256,368,23723,2,0,B|292:368|324:356|324:356|344:360|344:360|368:352|368:352|396:344|422:346,1,170,2|2,0:0|0:0,0:0:0:0:
408,232,24339,1,2,0:0:0:0:
296,144,24545,1,8,0:3:0:0:
412,104,24750,1,4,0:3:0:0:
236,228,24956,6,0,B|211:183|211:183|196:128|226:67,1,170,4|2,0:0|0:0,0:0:0:0:
344,212,25572,2,0,P|344:254|328:293,1,85,0|2,0:0|0:0,0:0:0:0:
296,144,25983,1,2,0:0:0:0:
236,228,26188,1,0,0:0:0:0:
236,228,26291,1,0,0:0:0:0:
236,228,26394,1,8,0:0:0:0:
284,360,26599,1,0,0:0:0:0:
472,280,26805,6,0,P|480:228|468:168,1,85,4|0,0:0|0:0,0:0:0:0:
392,124,27216,1,0,0:0:0:0:
392,124,27319,1,0,0:0:0:0:
392,124,27421,1,0,0:0:0:0:
392,236,27627,1,2,0:0:0:0:
472,120,27832,2,0,L|484:80,2,42.5,0|0|8,0:0|0:0|0:0,0:0:0:0:
312,176,28243,1,0,0:0:0:0:
312,176,28346,1,0,0:0:0:0:
312,176,28449,5,2,0:0:0:0:
199,102,28654,1,0,0:0:0:0:
194,133,28756,1,0,0:0:0:0:
189,165,28859,1,0,0:0:0:0:
184,196,28962,1,0,0:0:0:0:
179,228,29064,1,0,0:0:0:0:
224,340,29271,5,2,0:0:0:0:
96,220,29476,2,0,L|84:172,2,42.5,0|0|8,0:0|0:0|0:0,0:0:0:0:
112,352,29887,1,0,0:0:0:0:
112,352,29990,1,0,0:0:0:0:
112,352,30093,5,2,0:0:0:0:
180,228,30298,1,0,0:0:0:0:
268,296,30503,2,0,P|272:339|260:379,1,85
180,336,30914,1,2,0:0:0:0:
260,204,31120,1,0,0:0:0:0:
260,204,31223,1,0,0:0:0:0:
260,204,31325,1,8,0:0:0:0:
344,356,31531,6,0,P|357:316|359:274,1,85,2|0,0:0|0:0,0:0:0:0:
268,296,31942,1,0,0:0:0:0:
292,132,32147,1,2,0:0:0:0:
156,244,32353,1,2,0:0:0:0:
336,232,32558,1,0,0:0:0:0:
304,40,32764,1,2,0:0:0:0:
168,128,32969,1,10,0:0:0:0:
364,180,33175,1,0,0:0:0:0:
364,180,33277,1,0,0:0:0:0:
364,180,33380,6,0,B|352:244|352:244|364:284|364:284|356:346,1,170,4|0,0:0|0:0,0:0:0:0:
232,312,33997,2,0,P|189:311|147:320,1,85,0|2,0:0|0:0,0:0:0:0:
260,208,34408,1,0,0:0:0:0:
260,208,34510,1,0,0:0:0:0:
260,208,34613,1,8,0:0:0:0:
356,346,34819,6,0,B|364:284|364:284|352:244|352:244|364:180,1,170,2|2,0:0|0:0,0:0:0:0:
412,88,35435,2,0,P|451:72|493:73,1,85,2|0,0:0|0:0,0:0:0:0:
440,232,35846,1,2,0:0:0:0:
252,128,36051,1,0,0:0:0:0:
252,128,36154,1,0,0:0:0:0:
252,128,36257,1,8,0:0:0:0:
340,24,36462,1,0,0:0:0:0:
340,24,36668,6,0,L|356:204,1,170,4|0,0:0|0:0,0:0:0:0:
380,316,37284,1,0,0:0:0:0:
120,196,37490,5,4,0:3:0:0:
296,132,37695,1,8,0:3:0:0:
220,336,37901,1,4,0:3:0:0:
212,120,38106,6,0,P|243:65|302:47,1,127.5,4|0,0:0|0:0,0:0:0:0:
372,72,38517,2,0,L|456:61,1,85,4|0,0:0|0:0,0:0:0:0:
280,232,38928,1,2,0:0:0:0:
136,168,39134,2,0,P|128:127|129:84,1,85,0|8,0:0|0:0,0:0:0:0:
144,52,39442,1,8,0:0:0:0:
144,52,39545,1,8,0:0:0:0:
382,145,39750,1,8,0:0:0:0:
382,145,39853,1,8,0:0:0:0:
382,145,39956,6,0,L|368:248,1,97.7500018644333,4|0,0:0|0:0,0:0:0:0:
288,316,40264,2,0,B|244:304|172:312|172:312|220:256,1,165.749992412568,4|4,0:0|0:0,0:0:0:0:
408,320,40777,6,0,P|440:284|448:232,1,97.7500018644333,4|0,0:0|0:0,0:0:0:0:
396,176,41086,1,0,0:0:0:0:
396,176,41188,2,0,L|400:124,1,48.8750009322167,8|8,0:0|0:0,0:0:0:0:
304,92,41394,2,0,L|307:140,1,48.8750009322167,8|8,0:0|0:0,0:0:0:0:
236,184,41599,6,0,P|190:171|157:136,1,97.7500018644333,4|0,0:0|0:0,0:0:0:0:
80,108,41908,2,0,B|68:148|88:180|88:180|48:204|45:256,1,165.749992412568,4|4,0:0|0:0,0:0:0:0:
184,328,42421,5,8,0:0:0:0:
212,342,42523,1,8,0:0:0:0:
242,347,42626,1,8,0:0:0:0:
272,344,42729,1,8,0:0:0:0:
297,332,42832,2,0,L|352:324,2,36.8333316472372,8|8|8,0:0|0:0|0:0,0:0:0:0:
249,264,43038,2,0,L|252:208,1,55.2499974708558,8|8,0:0|0:0,0:0:0:0:
293,135,43243,6,0,L|196:126,1,97.7500018644333,4|0,0:0|0:0,0:0:0:0:
124,56,43551,2,0,B|60:40|24:92|24:92|37:18,1,165.749992412568,4|4,0:0|0:0,0:0:0:0:
104,184,44065,2,0,L|100:281,1,97.7500018644333,4|0,0:0|0:0,0:0:0:0:
264,240,44476,5,8,0:0:0:0:
264,240,44579,1,8,0:0:0:0:
264,240,44682,1,8,0:0:0:0:
264,240,44784,1,8,0:0:0:0:
263,239,44887,2,0,P|326:245|380:213,1,127.5,2|0,0:0|0:0,0:0:0:0:
384,200,45298,2,0,L|476:188,1,85,8|0,0:0|0:0,0:0:0:0:
360,104,45709,2,0,L|444:68,1,85,2|0,0:0|0:0,0:0:0:0:
284,44,46120,1,8,0:0:0:0:
275,232,46325,6,0,P|233:236|192:227,1,85,4|0,0:0|0:0,0:0:0:0:
108,136,46736,1,2,0:0:0:0:
40,240,46942,1,8,0:0:0:0:
140,348,47147,2,0,P|136:305|128:264,1,85,2|0,0:0|0:0,0:0:0:0:
108,136,47558,1,2,0:0:0:0:
312,152,47764,1,8,0:0:0:0:
312,152,47867,1,0,0:0:0:0:
312,152,47969,6,0,P|228:147|176:224,1,170,2|2,0:0|0:0,0:0:0:0:
452,252,48586,2,0,P|447:209|441:167,1,85,8|0,0:0|0:0,0:0:0:0:
384,56,48997,1,8,0:0:0:0:
384,56,49099,1,8,0:0:0:0:
384,56,49202,1,8,0:0:0:0:
296,228,49408,2,0,P|288:269|283:312,1,85,4|0,0:0|0:0,0:0:0:0:
208,60,49819,5,10,0:0:0:0:
108,176,50024,1,10,0:0:0:0:
244,240,50230,5,10,0:0:0:0:
0,272,50435,1,10,0:0:0:0:
92,48,50640,5,10,0:0:0:0:
120,332,50846,1,10,0:0:0:0:
124,348,51257,6,0,B|136:280|136:280|128:248|128:248|139:178,1,170,4|0,0:0|0:0,0:0:0:0:
248,140,51873,5,4,0:3:0:0:
232,40,52079,1,4,0:3:0:0:
340,188,52284,5,4,0:3:0:0:
352,56,52490,1,4,0:3:0:0:
424,236,52695,5,4,0:3:0:0:
484,68,52901,1,4,0:3:0:0:
332,272,53106,6,0,P|269:277|211:252,2,127.5,4|4|4,0:3|0:3|0:3,0:0:0:0:
192,128,53928,1,4,0:3:0:0:
360,84,54134,5,8,0:0:0:0:
360,84,54236,1,8,0:0:0:0:
360,84,54339,2,0,L|368:144,1,42.5,8|8,0:0|0:0,0:0:0:0:
452,176,54545,2,0,L|457:133,1,42.5,8|8,0:0|0:0,0:0:0:0:
424,264,54750,6,0,L|260:280,1,140.25000428009,4|0,0:0|0:0,0:0:0:0:
203,316,55161,2,0,P|249:307|284:277,1,93.5000028533936,8|0,0:0|0:0,0:0:0:0:
288,116,55572,1,2,0:0:0:0:
208,208,55777,1,0,0:0:0:0:
204,216,55880,1,0,0:0:0:0:
200,224,55983,1,8,0:0:0:0:
168,32,56188,1,0,0:0:0:0:
84,148,56394,6,0,L|100:296,1,140.25000428009,2|0,0:0|0:0,0:0:0:0:
140,352,56805,2,0,P|184:365|230:356,1,93.5000028533936,8|0,0:0|0:0,0:0:0:0:
320,160,57216,2,0,L|340:260,1,93.5000028533936,2|0,0:0|0:0,0:0:0:0:
352,80,57627,2,0,L|356:28,1,46.7500014266968,8|8,0:0|0:0,0:0:0:0:
276,83,57832,2,0,L|264:36,1,46.7500014266968,8|8,0:0|0:0,0:0:0:0:
236,156,58038,6,0,P|179:195|112:182,1,140.25000428009,4|0,0:0|0:0,0:0:0:0:
84,72,58449,2,0,P|128:82|160:115,1,93.5000028533936,8|0,0:0|0:0,0:0:0:0:
204,272,58860,2,0,L|188:376,1,93.5000028533936,2|0,0:0|0:0,0:0:0:0:
344,288,59271,1,8,0:0:0:0:
204,272,59476,1,0,0:0:0:0:
383,208,59682,6,0,P|388:152|384:108,1,93.5000028533936,2|0,0:0|0:0,0:0:0:0:
460,16,60093,1,4,0:0:0:0:
292,92,60298,1,0,0:0:0:0:
468,172,60503,2,0,L|456:292,1,93.5000028533936,4|0,0:0|0:0,0:0:0:0:
312,316,60914,1,8,0:0:0:0:
308,320,61017,1,8,0:0:0:0:
304,324,61120,1,8,0:0:0:0:
300,328,61223,1,8,0:0:0:0:
296,331,61325,6,0,P|229:351|161:339,1,140.25000428009,4|0,0:0|0:0,0:0:0:0:
104,288,61736,2,0,L|92:195,1,93.5000028533936,8|0,0:0|0:0,0:0:0:0:
304,72,62147,2,0,P|257:64|211:64,1,93.5000028533936,2|0,0:0|0:0,0:0:0:0:
140,116,62456,1,0,0:0:0:0:
140,116,62558,2,0,P|88:100|60:60,1,93.5000028533936,8|0,0:0|0:0,0:0:0:0:
260,180,62969,6,0,L|268:328,1,140.25000428009,2|0,0:0|0:0,0:0:0:0:
244,344,63380,2,0,P|227:296|179:264,1,93.5000028533936,8|0,0:0|0:0,0:0:0:0:
56,184,63791,1,2,0:0:0:0:
144,360,63997,1,0,0:0:0:0:
140,116,64202,1,8,0:0:0:0:
20,255,64408,1,8,0:0:0:0:
20,255,64510,1,8,0:0:0:0:
20,255,64613,6,0,L|24:364,1,93.5000028533936,4|0,0:0|0:0,0:0:0:0:
40,76,65024,1,8,0:0:0:0:
192,208,65230,1,8,0:0:0:0:
192,208,65332,1,8,0:0:0:0:
192,208,65435,2,0,L|184:320,1,93.5000028533936,4|0,0:0|0:0,0:0:0:0:
280,100,65846,1,8,0:0:0:0:
356,328,66051,1,0,0:0:0:0:
464,268,66257,5,8,0:0:0:0:
456,237,66359,1,8,0:0:0:0:
439,211,66462,1,8,0:0:0:0:
414,192,66565,1,8,0:0:0:0:
385,182,66667,1,8,0:0:0:0:
354,181,66770,1,8,0:0:0:0:
324,190,66873,1,8,0:0:0:0:
299,208,66976,1,8,0:0:0:0:
273,224,67079,6,0,L|200:212,1,46.7500014266968,8|8,0:0|0:0,0:0:0:0:
160,148,67284,2,0,L|233:136,1,46.7500014266968,8|8,0:0|0:0,0:0:0:0:
244,64,67490,2,0,L|171:52,1,46.7500014266968,8|8,0:0|0:0,0:0:0:0:
96,100,67695,1,8,0:0:0:0:
92,104,67798,1,8,0:0:0:0:
88,108,67901,6,0,L|48:260,1,140.25000428009,4|0,0:0|0:0,0:0:0:0:
104,313,68312,2,0,P|66:287|52:243,1,93.5000028533936,8|0,0:0|0:0,0:0:0:0:
200,224,68723,1,2,0:0:0:0:
96,96,68928,2,0,L|52:64,2,46.7500014266968,0|0|8,0:0|0:0|0:0,0:0:0:0:
288,172,69339,1,0,0:0:0:0:
104,312,69545,6,0,L|-8:288,1,93.5000028533936,2|0,0:0|0:0,0:0:0:0:
288,172,69956,2,0,L|384:152,1,93.5000028533936,8|0,0:0|0:0,0:0:0:0:
120,172,70367,2,0,P|68:128|56:64,1,93.5000028533936,2|0,0:0|0:0,0:0:0:0:
236,36,70777,1,8,0:0:0:0:
324,256,70983,1,8,0:0:0:0:
324,256,71086,1,8,0:0:0:0:
324,256,71188,6,0,L|344:104,1,140.25000428009,4|0,0:0|0:0,0:0:0:0:
399,64,71599,2,0,P|444:74|477:107,1,93.5000028533936,8|0,0:0|0:0,0:0:0:0:
408,280,72010,2,0,P|338:284|278:319,1,140.25000428009,2|0,0:0|0:0,0:0:0:0:
216,360,72421,2,0,L|120:348,1,93.5000028533936,8|0,0:0|0:0,0:0:0:0:
32,152,72832,5,2,0:0:0:0:
60,260,73038,1,0,0:0:0:0:
176,72,73243,2,0,L|156:176,1,93.5000028533936,4|0,0:0|0:0,0:0:0:0:
0,32,73654,2,0,P|45:21|92:20,1,93.5000028533936,4|0,0:0|0:0,0:0:0:0:
260,216,74065,1,8,0:0:0:0:
264,181,74167,1,8,0:0:0:0:
269,146,74270,1,8,0:0:0:0:
274,111,74373,1,8,0:0:0:0:
280,76,74476,6,0,P|348:62|413:88,1,140.25000428009,4|0,0:0|0:0,0:0:0:0:
432,224,74887,2,0,P|391:201|373:159,1,93.5000028533936,8|0,0:0|0:0,0:0:0:0:
440,16,75298,1,0,0:0:0:0:
496,152,75504,1,0,0:0:0:0:
496,152,75606,1,0,0:0:0:0:
496,152,75709,1,8,0:0:0:0:
280,76,75914,1,0,0:0:0:0:
339,233,76120,6,0,L|432:224,1,93.5000028533936,4|0,0:0|0:0,0:0:0:0:
168,200,76531,2,0,L|175:294,1,93.5000028533936,8|0,0:0|0:0,0:0:0:0:
220,72,76942,1,2,0:0:0:0:
80,148,77147,1,8,0:0:0:0:
80,148,77250,1,8,0:0:0:0:
80,148,77353,1,8,0:0:0:0:
288,304,77558,1,8,0:0:0:0:
288,304,77661,1,8,0:0:0:0:
288,304,77764,6,0,P|284:236|326:182,1,140.25000428009,4|0,0:0|0:0,0:0:0:0:
392,152,78175,1,10,0:0:0:0:
480,232,78380,1,2,0:0:0:0:
452,48,78586,6,0,L|280:68,1,140.25000428009,4|0,0:0|0:0,0:0:0:0:
240,72,78997,1,10,0:0:0:0:
312,204,79202,1,2,0:0:0:0:
216,40,79408,6,0,L|184:136,1,93.5000028533936,4|8,0:0|0:0,0:0:0:0:
172,168,79716,1,8,0:0:0:0:
172,168,79819,1,8,0:0:0:0:
24,104,80024,1,8,0:0:0:0:
24,104,80127,1,8,0:0:0:0:
24,104,80230,1,8,0:0:0:0:
80,24,80435,1,2,0:0:0:0:
8,200,80640,6,0,L|12:276,1,46.7500014266968,8|8,0:0|0:0,0:0:0:0:
88,184,80846,2,0,L|108:256,1,46.7500014266968,8|0,0:0|0:0,0:0:0:0:
172,168,81051,6,0,P|215:166|252:147,1,85,2|2,0:0|0:0,0:0:0:0:
496,196,81546,6,0,P|444:184|408:148,1,85,2|2,0:0|0:0,0:0:0:0:
396,136,81970,1,2,0:0:0:0:
384,103,82112,6,0,L|404:276,1,170,2|2,0:0|0:0,0:0:0:0:
308,348,83067,1,2,0:0:0:0:
216,272,83404,6,0,B|152:224|100:244|72:272|64:324|92:360|172:352|144:292,1,255,2|2,0:0|0:0,0:0:0:0:
