osu file format v13

[General]
AudioFilename: Hanayuki.mp3
AudioLeadIn: 1500
PreviewTime: 54031
Countdown: 0
SampleSet: Soft
StackLeniency: 0.7
Mode: 0
LetterboxInBreaks: 0
WidescreenStoryboard: 0

[Editor]
DistanceSpacing: 1.2
BeatDivisor: 4
GridSize: 4
TimelineZoom: 1.5

[Metadata]
Title:Hanayuki(TVsize)
TitleUnicode:花雪(TVsize)
Artist:smileY inc.
ArtistUnicode:smileY inc.
Creator:No Dap
Version:Hard
Source:ハナヤマタ
Tags:Hanayamata tv size ending 大坪由佳 Ootsubo Yuka ゆうゆ yuuyu
BeatmapID:542525
BeatmapSetID:232575

[Difficulty]
HPDrainRate:5.5
CircleSize:4
OverallDifficulty:6
ApproachRate:7
SliderMultiplier:1.5
SliderTickRate:1

[Events]
//Background and Video events
Video,858,"Hanayuki.avi"
0,0,"BGN.jpg",0,0
//Break Periods
//Storyboard Layer 0 (Background)
//Storyboard Layer 1 (Fail)
//Storyboard Layer 2 (Pass)
//Storyboard Layer 3 (Foreground)
//Storyboard Sound Samples

[TimingPoints]
504,410.958904109589,4,2,1,40,1,0
504,-125,4,2,1,40,0,0
6462,-125,4,2,1,35,0,0
7079,-111.111111111111,4,2,1,50,0,0
10367,-100,4,2,1,60,0,0
13654,-111.111111111111,4,2,1,60,0,0
15298,-100,4,2,1,45,0,0
26805,-100,4,2,1,50,0,0
46325,-100,4,2,1,55,0,0
52284,-90.9090909090909,4,2,1,55,0,0
52695,-83.3333333333333,4,2,1,55,0,0
53106,-100,4,2,1,55,0,0
54750,-100,4,2,1,65,0,1
66257,-100,4,2,1,48,0,1
67901,-100,4,2,1,65,0,1
74065,-100,4,2,1,45,0,1
74476,-100,4,2,1,65,0,1
77147,-100,4,2,1,50,0,1
77764,-100,4,2,1,60,0,1
81051,495.867768595041,4,2,1,50,1,0
81546,566.037735849057,4,2,1,50,1,8
82112,618.556701030928,4,2,1,50,1,8
82730,674.157303370787,4,2,1,50,1,8
83404,674.157303370787,4,2,1,50,1,0

[Colours]
Combo1 : 147,74,74
Combo2 : 59,255,255
Combo3 : 179,179,255
Combo4 : 255,55,255
Combo5 : 255,255,110

[HitObjects]
472,180,504,6,0,L|484:68,2,90,2|0|0,0:0|0:0|0:0,0:0:0:0:
416,252,1325,2,0,P|359:267|306:242,1,120,2|2,0:0|0:0,0:0:0:0:
220,88,2147,6,0,B|264:88|264:64|308:72,2,90,2|0|0,0:0|0:0|0:0,0:0:0:0:
147,25,2969,2,0,P|88:29|44:68,1,120,2|0,0:0|0:0,0:0:0:0:
124,120,3586,5,2,0:0:0:0:
124,120,3688,1,2,0:0:0:0:
124,120,3791,2,0,B|100:159|60:171|60:171|96:200|88:224,1,120,2|0,0:0|0:0,0:0:0:0:
40,332,4613,2,0,B|136:352|120:288|216:300,1,180,2|2,0:0|0:0,0:0:0:0:
288,352,5435,2,0,B|332:296|324:216|324:216|296:239,1,180,2|2,0:0|0:0,0:0:0:0:
116,132,6462,5,2,0:0:0:0:
116,132,6565,1,2,0:0:0:0:
116,132,6668,2,0,L|112:220,1,60,2|2,0:0|0:0,0:0:0:0:
64,292,7079,6,0,P|120:276|192:296,2,134.999995880127,4|0|0,0:0|0:0|0:0,0:0:0:0:
64,292,8312,1,8,0:3:0:0:
24,176,8723,6,0,P|8:112|16:16,2,134.999995880127,4|0|0,0:0|0:0|0:0,0:0:0:0:
128,152,9750,1,4,0:3:0:0:
84,240,9956,1,8,0:0:0:0:
172,288,10161,1,0,0:0:0:0:
172,288,10264,1,8,0:0:0:0:
172,288,10367,6,0,L|272:280,1,75,4|0,0:0|0:0,0:0:0:0:
324,227,10777,2,0,P|361:231|393:249,2,75,2|2|2,0:0|0:0|0:0,0:0:0:0:
340,312,11394,1,0,0:0:0:0:
420,332,11599,2,0,P|460:304|476:252,1,75,2|2,0:0|0:0,0:0:0:0:
336,320,12010,6,0,L|256:328,1,75,8|4,0:0|0:3,0:0:0:0:
188,296,12421,1,8,0:0:0:0:
216,188,12627,1,4,0:3:0:0:
216,188,12730,1,4,0:3:0:0:
216,188,12832,1,8,0:0:0:0:
124,244,13038,2,0,P|64:252|8:168,1,150,4|0,0:0|0:0,0:0:0:0:
40,120,13654,6,0,L|188:96,1,134.999995880127,4|0,0:0|0:0,0:0:0:0:
320,239,14476,2,0,P|329:207|332:174,1,67.4999979400635,2|0,0:0|0:0,0:0:0:0:
416,184,14887,2,0,P|407:151|393:120,1,67.4999979400635,0|0,0:0|0:0,0:0:0:0:
332,64,15298,6,0,L|496:92,2,150,2|0|0,0:0|0:0|0:0,0:0:0:0:
256,99,16325,2,0,P|240:133|242:170,1,75,2|0,0:0|0:0,0:0:0:0:
328,156,16736,1,0,0:0:0:0:
292,240,16942,6,0,B|248:200|184:200|184:200|158:218,1,150,2|2,0:0|0:0,0:0:0:0:
96,280,17558,1,0,0:0:0:0:
36,224,17764,2,0,L|24:140,1,75,2|0,0:0|0:0,0:0:0:0:
48,76,18175,1,0,0:0:0:0:
107,140,18380,6,0,P|173:107|244:128,1,150,2|0,0:0|0:0,0:0:0:0:
264,208,18997,2,0,L|344:188,1,75,2|0,0:0|0:3,0:0:0:0:
324,104,19408,2,0,L|400:108,1,75,2|0,0:0|0:0,0:0:0:0:
468,157,19819,2,0,P|476:121|480:84,1,75,2|2,0:0|0:0,0:0:0:0:
416,216,20230,6,0,P|356:257|347:329,1,150,2|0,0:0|0:0,0:0:0:0:
264,296,20846,2,0,L|116:320,1,150,2|2,0:0|0:0,0:0:0:0:
48,272,21462,1,0,0:0:0:0:
64,188,21668,1,0,0:0:0:0:
48,272,21873,6,0,L|40:372,1,75,2|0,0:0|0:0,0:0:0:0:
132,240,22284,1,0,0:0:0:0:
132,240,22490,2,0,B|168:220|208:236|208:236|228:208|269:204,1,150,2|0,0:0|0:0,0:0:0:0:
364,252,23106,1,0,0:0:0:0:
444,208,23312,1,0,0:0:0:0:
364,252,23517,6,0,L|376:332,1,75,2|2,0:0|0:0,0:0:0:0:
460,296,23928,1,0,0:0:0:0:
444,208,24134,1,2,0:0:0:0:
368,160,24339,2,0,P|360:124|367:85,1,75,2|8,0:0|0:3,0:0:0:0:
444,120,24750,1,4,0:3:0:0:
364,252,24956,6,0,B|312:256|264:228|264:228|236:240|220:239,1,150,4|2,0:0|0:0,0:0:0:0:
144,200,25572,1,0,0:0:0:0:
88,128,25777,1,2,0:0:0:0:
144,200,25983,6,0,P|140:252|140:340,1,112.5,10|0,0:0|0:0,0:0:0:0:
168,347,26394,2,0,P|186:315|211:287,1,75,8|0,0:0|0:0,0:0:0:0:
296,236,26805,6,0,B|308:280|348:308|380:304|380:304|400:277,1,150,4|0,0:0|0:0,0:0:0:0:
444,204,27421,1,0,0:0:0:0:
496,272,27627,2,0,L|496:364,1,75,2|0,0:0|0:0,0:0:0:0:
444,204,28038,2,0,L|436:129,1,75,8|0,0:0|0:0,0:0:0:0:
496,72,28449,6,0,P|425:89|366:46,1,150,2|0,0:0|0:0,0:0:0:0:
312,116,29065,1,2,0:0:0:0:
264,44,29271,2,0,L|176:36,1,75
120,92,29682,2,0,P|105:57|103:20,1,75,8|0,0:0|0:0,0:0:0:0:
200,128,30093,6,0,P|148:176|64:168,2,150,2|0|2,0:0|0:0|0:0,0:0:0:0:
264,72,31120,1,0,0:0:0:0:
340,104,31325,1,8,0:0:0:0:
360,184,31531,6,0,B|436:200|436:168|508:176,1,150,2|0,0:0|0:0,0:0:0:0:
496,256,32147,2,0,L|512:336,1,75,2|0,0:0|0:0,0:0:0:0:
416,344,32558,2,0,L|402:261,1,75,2|0,0:0|0:0,0:0:0:0:
360,184,32969,1,10,0:0:0:0:
324,308,33175,1,0,0:0:0:0:
256,224,33380,6,0,B|216:240|184:237|152:220|152:220|104:240,1,150,4|0,0:0|0:0,0:0:0:0:
60,160,33997,2,0,P|48:120|44:76,1,75,0|2,0:0|0:0,0:0:0:0:
143,30,34408,2,0,P|144:67|136:104,1,75,0|8,0:0|0:0,0:0:0:0:
208,152,34819,6,0,B|240:140|252:120|252:120|296:144|343:121,1,150,2|2,0:0|0:0,0:0:0:0:
408,72,35435,1,2,0:0:0:0:
460,8,35640,1,0,0:0:0:0:
420,88,35846,2,0,L|424:168,1,75,2|0,0:0|0:0,0:0:0:0:
428,264,36257,1,8,0:0:0:0:
492,216,36462,1,0,0:0:0:0:
360,216,36668,6,0,P|307:163|297:90,1,150,4|0,0:0|0:0,0:0:0:0:
260,16,37284,1,0,0:0:0:0:
204,124,37490,2,0,P|196:160|192:212,1,75,8|4,0:3|0:3,0:0:0:0:
140,64,37901,1,4,0:3:0:0:
88,140,38106,6,0,B|64:224|100:216|82:298,2,150,4|4|2,0:0|0:0|0:0,0:0:0:0:
160,196,39134,2,0,P|168:240|168:280,1,75,0|8,0:0|0:0,0:0:0:0:
164,300,39442,1,8,0:0:0:0:
164,300,39545,1,8,0:0:0:0:
84,360,39750,1,8,0:0:0:0:
80,364,39853,1,8,0:0:0:0:
76,368,39956,6,0,P|25:349|1:300,2,112.5,4|4|4,0:0|0:0|0:0,0:0:0:0:
94,209,40777,2,0,L|88:284,1,75,4|0,0:0|0:0,0:0:0:0:
176,256,41188,2,0,L|184:216,3,37.5,8|8|8|8,0:0|0:0|0:0|0:0,0:0:0:0:
196,184,41599,6,0,B|224:156|272:152|272:152|303:168,2,112.5,4|4|4,0:0|0:0|0:0,0:0:0:0:
260,252,42421,1,8,0:0:0:0:
224,328,42627,1,8,0:0:0:0:
312,316,42832,2,0,L|400:304,1,75,8|8,0:0|0:0,0:0:0:0:
404,320,43140,1,8,0:0:0:0:
416,336,43243,6,0,P|412:260|428:204,2,112.5,4|4|4,0:0|0:0|0:0,0:0:0:0:
508,272,44065,2,0,L|500:184,1,75,4|0,0:0|0:0,0:0:0:0:
432,112,44476,2,0,L|440:64,3,37.5,8|8|8|8,0:0|0:0|0:0|0:0,0:0:0:0:
416,44,44887,6,0,B|372:64|308:40|308:40|280:67,1,150,8|8,0:3|0:0,0:0:0:0:
236,212,45709,2,0,B|208:216|188:240|188:240|196:176|160:144,1,150,2|8,0:0|0:0,0:0:0:0:
96,212,46325,6,0,P|92:252|96:304,1,75,4|0,0:0|0:0,0:0:0:0:
156,344,46736,1,2,0:0:0:0:
240,320,46942,1,8,0:0:0:0:
304,256,47147,2,0,P|356:260|392:284,1,75,0|0,0:0|0:0,0:0:0:0:
400,184,47558,2,0,P|443:213|462:252,1,75,2|8,0:0|0:0,0:0:0:0:
472,316,47969,6,0,L|488:152,1,150,2|2,0:0|0:0,0:0:0:0:
484,52,48586,1,8,0:0:0:0:
416,108,48791,1,0,0:0:0:0:
324,48,48997,1,8,0:0:0:0:
324,48,49099,1,8,0:0:0:0:
324,48,49202,1,8,0:0:0:0:
256,180,49408,2,0,L|248:104,1,75,4|0,0:0|0:0,0:0:0:0:
168,200,49819,6,0,L|184:304,1,75,10|10,0:0|0:0,0:0:0:0:
344,200,50230,2,0,L|328:304,1,75,10|10,0:0|0:0,0:0:0:0:
256,356,50640,1,10,0:0:0:0:
256,180,50846,1,10,0:0:0:0:
260,184,51257,6,0,P|188:200|124:163,1,150,4|0,0:0|0:0,0:0:0:0:
36,116,51873,6,0,L|24:216,1,75,4|4,0:3|0:3,0:0:0:0:
26,323,52284,6,0,P|64:307|104:296,1,82.5000025177003,4|4,0:3|0:3,0:0:0:0:
218,262,52695,6,0,L|208:352,1,89.9999972534181,4|4,0:3|0:3,0:0:0:0:
304,220,53106,6,0,P|334:174|339:118,2,112.5,4|4|4,0:3|0:3|0:3,0:0:0:0:
204,144,53928,1,4,0:3:0:0:
224,248,54134,1,8,0:0:0:0:
224,248,54236,1,8,0:0:0:0:
224,248,54339,2,0,L|232:308,3,37.5,8|8|8|8,0:0|0:0|0:0|0:0,0:0:0:0:
244,320,54750,6,0,P|299:318|350:295,1,112.5,4|0,0:0|0:0,0:0:0:0:
360,284,55161,2,0,L|460:288,1,75,8|0,0:0|0:0,0:0:0:0:
488,192,55572,2,0,L|413:189,1,75,2|0,0:0|0:0,0:0:0:0:
352,120,55983,1,8,0:0:0:0:
396,44,56188,1,0,0:0:0:0:
335,128,56394,6,0,P|295:126|256:104,1,75,2|0,0:0|0:0,0:0:0:0:
168,56,56805,2,0,L|178:130,1,75,8|0,0:0|0:0,0:0:0:0:
132,220,57216,2,0,L|124:312,1,75,2|0,0:0|0:0,0:0:0:0:
20,240,57627,1,8,0:0:0:0:
52,328,57832,1,8,0:0:0:0:
52,328,57935,1,8,0:0:0:0:
52,328,58038,6,0,B|89:320|125:328|125:328|153:308|205:296,1,150,4|8,0:0|0:0,0:0:0:0:
276,344,58654,1,0,0:0:0:0:
348,296,58860,2,0,B|376:248|376:192|376:192|336:172,1,150,2|8,0:0|0:0,0:0:0:0:
280,104,59476,1,0,0:0:0:0:
360,80,59682,6,0,L|436:72,1,75,2|0,0:0|0:0,0:0:0:0:
280,104,60093,2,0,P|264:144|260:184,1,75,4|0,0:0|0:0,0:0:0:0:
208,256,60503,2,0,P|144:256|88:336,1,150,4|8,0:0|0:0,0:0:0:0:
180,348,61120,1,0,0:0:0:0:
284,304,61325,6,0,B|312:284|312:284|352:304|388:291,1,112.5,4|0,0:0|0:0,0:0:0:0:
395,280,61736,2,0,P|403:243|408:204,1,75,8|0,0:0|0:0,0:0:0:0:
376,116,62147,1,2,0:0:0:0:
436,48,62353,1,0,0:0:0:0:
376,116,62558,2,0,P|338:114|302:122,1,75,8|0,0:0|0:0,0:0:0:0:
264,196,62969,6,0,L|136:176,1,112.5,2|0,0:0|0:0,0:0:0:0:
140,172,63380,2,0,P|127:136|123:99,1,75,8|0,0:0|0:0,0:0:0:0:
192,32,63791,1,2,0:0:0:0:
244,112,63997,1,0,0:0:0:0:
320,44,64202,2,0,P|344:88|356:132,1,75,8|0,0:0|0:0,0:0:0:0:
444,204,64613,6,0,B|412:204|392:224|392:224|344:204|300:220,1,150,4|8,0:0|0:0,0:0:0:0:
248,284,65230,1,0,0:0:0:0:
340,308,65435,2,0,L|352:136,1,150,4|8,0:0|0:0,0:0:0:0:
336,64,66051,1,0,0:0:0:0:
244,112,66257,6,0,P|207:106|174:89,2,75,8|8|8,0:0|0:0|0:0,0:0:0:0:
248,196,66873,2,0,L|240:280,1,75,8|8,0:0|0:0,0:0:0:0:
320,308,67284,1,8,0:0:0:0:
388,252,67490,2,0,L|432:240,3,37.5,8|8|8|8,0:0|0:0|0:0|0:0,0:0:0:0:
472,272,67901,6,0,P|440:192|456:136,1,112.5,4|0,0:0|0:0,0:0:0:0:
452,156,68312,2,0,L|348:136,1,75,8|0,0:0|0:0,0:0:0:0:
304,80,68723,1,2,0:0:0:0:
220,96,68928,1,0,0:0:0:0:
164,160,69134,2,0,P|172:216|192:244,1,75,8|0,0:0|0:0,0:0:0:0:
256,256,69545,6,0,L|88:296,1,150,2|8,0:0|0:0,0:0:0:0:
48,232,70161,1,0,0:0:0:0:
116,300,70367,2,0,P|116:356|104:388,1,75,2|0,0:0|0:0,0:0:0:0:
48,232,70777,2,0,P|48:176|60:144,1,75,8|0,0:0|0:0,0:0:0:0:
160,64,71188,6,0,B|144:108|160:140|160:140|132:184|135:206,1,150,4|8,0:0|0:0,0:0:0:0:
240,104,71805,1,0,0:0:0:0:
224,208,72010,2,0,P|212:247|184:288,2,75,2|0|8,0:0|0:0|0:0,0:0:0:0:
300,168,72627,1,0,0:0:0:0:
376,128,72832,6,0,P|410:142|433:171,1,75,2|0,0:0|0:0,0:0:0:0:
388,279,73243,2,0,P|373:245|368:208,1,75,4|0,0:0|0:0,0:0:0:0:
456,88,73654,2,0,L|280:112,1,150,4|8,0:0|0:0,0:0:0:0:
200,172,74271,1,8,0:0:0:0:
200,172,74373,1,8,0:0:0:0:
200,172,74476,6,0,P|171:239|199:306,1,150,4|8,0:0|0:0,0:0:0:0:
288,340,75093,2,0,L|448:316,1,150,0|0,0:0|0:0,0:0:0:0:
448,192,75709,1,8,0:0:0:0:
500,264,75914,1,0,0:0:0:0:
368,212,76120,6,0,L|280:188,1,75,4|0,0:0|0:0,0:0:0:0:
388,116,76531,2,0,L|324:48,1,75,8|0,0:0|0:0,0:0:0:0:
476,104,76942,2,0,L|480:0,1,75,2|8,0:0|0:0,0:0:0:0:
448,192,77353,1,8,0:0:0:0:
388,116,77558,1,0,0:0:0:0:
368,212,77764,6,0,P|376:256|376:308,1,75,4|0,0:0|0:0,0:0:0:0:
228,288,78175,1,10,0:0:0:0:
304,360,78380,1,2,0:0:0:0:
228,288,78586,2,0,L|232:204,1,75,4|0,0:0|0:0,0:0:0:0:
71,146,78997,2,0,L|84:220,1,75,10|2,0:0|0:0,0:0:0:0:
172,76,79408,6,0,L|160:160,1,75,4|8,0:0|0:0,0:0:0:0:
104,28,79819,1,8,0:0:0:0:
248,116,80024,2,0,L|240:164,2,37.5,8|8|8,0:0|0:0|0:0,0:0:0:0:
312,36,80435,2,0,L|280:216,1,150,2|0,0:0|0:0,0:0:0:0:
284,300,81051,6,0,P|224:248|132:268,1,150,2|2,0:0|0:0,0:0:0:0:
380,364,82112,6,0,L|416:212,1,150,2|2,0:0|0:0,0:0:0:0:
392,136,83067,1,2,0:0:0:0:
328,80,83404,6,0,B|272:45|216:52|184:69|184:152|256:164|264:100,1,225,2|2,0:0|0:0,0:0:0:0:
