osu file format v13

[General]
AudioFilename: Hanayuki.mp3
AudioLeadIn: 1500
PreviewTime: 54031
Countdown: 0
SampleSet: Soft
StackLeniency: 0.7
Mode: 0
LetterboxInBreaks: 0
WidescreenStoryboard: 0

[Editor]
DistanceSpacing: 1
BeatDivisor: 4
GridSize: 4
TimelineZoom: 1

[Metadata]
Title:Hanayuki(TVsize)
TitleUnicode:花雪(TVsize)
Artist:smileY inc.
ArtistUnicode:smileY inc.
Creator:No Dap
Version:Easy
Source:ハナヤマタ
Tags:Hanayamata tv size ending 大坪由佳 Ootsubo Yuka ゆうゆ yuuyu
BeatmapID:539906
BeatmapSetID:232575

[Difficulty]
HPDrainRate:2
CircleSize:3
OverallDifficulty:2
ApproachRate:3
SliderMultiplier:0.9
SliderTickRate:1

[Events]
//Background and Video events
Video,858,"Hanayuki.avi"
0,0,"BGN.jpg",0,0
//Break Periods
//Storyboard Layer 0 (Background)
//Storyboard Layer 1 (Fail)
//Storyboard Layer 2 (Pass)
//Storyboard Layer 3 (Foreground)
//Storyboard Sound Samples

[TimingPoints]
504,410.958904109589,4,2,1,50,1,0
7079,-100,4,2,1,60,0,0
10367,-100,4,2,1,70,0,0
15298,-100,4,2,1,55,0,0
31325,-100,4,2,2,55,0,0
31531,-100,4,2,1,55,0,0
37901,-100,4,2,2,55,0,0
38106,-100,4,2,1,60,0,0
47764,-100,4,2,2,60,0,0
47969,-100,4,2,1,60,0,0
54750,-100,4,2,1,75,0,1
56805,-100,4,2,2,75,0,1
57010,-100,4,2,1,75,0,1
58449,-100,4,2,2,75,0,1
58654,-100,4,2,1,75,0,1
63380,-100,4,2,2,75,0,1
63586,-100,4,2,1,75,0,1
69956,-100,4,2,2,75,0,1
70161,-100,4,2,1,75,0,1
71599,-100,4,2,2,75,0,1
71805,-100,4,2,1,75,0,1
74887,-100,4,2,2,75,0,1
75093,-100,4,2,1,75,0,1
79408,-100,4,2,1,5,0,1
81051,495.867768595041,4,2,1,50,1,0
81546,566.037735849057,4,2,1,50,1,8
82112,618.556701030928,4,2,1,50,1,8
82730,674.157303370787,4,2,1,50,1,8
83404,674.157303370787,4,2,1,50,1,0

[Colours]
Combo1 : 147,74,74
Combo2 : 59,255,255
Combo3 : 179,179,255
Combo4 : 255,55,255
Combo5 : 255,255,110

[HitObjects]
88,56,504,6,0,B|96:104|123:132|123:132|123:148|123:148|131:168|131:168|120:228|140:272|140:272|156:288|160:308,1,270,2|2,0:0|0:0,0:0:0:0:
240,352,2147,2,0,P|310:300|394:322,1,180,2|2,0:0|0:0,0:0:0:0:
448,152,3791,6,0,P|356:164|240:188,1,180,2|2,0:0|0:0,0:0:0:0:
108,104,5435,2,0,P|132:220|100:256,2,135,2|2|8,0:0|0:0|0:0,0:0:0:0:
20,88,7079,6,0,B|104:96|160:40|160:40|196:52,1,180,4|0,0:0|0:0,0:0:0:0:
252,112,8312,1,8,0:3:0:0:
328,160,8723,2,0,B|348:128|340:92|340:92|372:64|378:41,2,135,4|0|8,0:0|0:0|0:0,0:0:0:0:
268,227,10367,6,0,P|227:247|182:249,1,90,4|2,0:0|0:0,0:0:0:0:
112,196,11188,2,0,L|96:88,1,90,2|2,0:0|0:0,0:0:0:0:
24,60,12010,2,0,P|15:104|22:148,2,90,8|8|8,0:0|0:0|0:0,0:0:0:0:
56,28,13038,1,4,0:0:0:0:
188,64,13654,6,0,L|292:48,1,90,4|0,0:0|0:0,0:0:0:0:
324,128,14476,2,0,L|220:144,1,90,2|0,0:0|0:0,0:0:0:0:
180,212,15298,2,0,P|177:299|229:347,2,135,2|2|0,0:0|0:0|0:0,0:0:0:0:
256,260,16942,5,2,0:0:0:0:
400,152,17764,2,0,L|428:296,2,135,0|2|2,0:0|0:0|0:0,0:0:0:0:
312,132,19408,2,0,L|332:244,1,90,2|2,0:0|0:0,0:0:0:0:
316,312,20230,6,0,P|255:340|152:264,1,180,2|0,0:0|0:0,0:0:0:0:
140,204,21462,1,0,0:0:0:0:
188,128,21873,2,0,B|232:112|232:112|272:132|318:118,2,135,2|2|0,0:0|0:0|0:0,0:0:0:0:
140,204,23517,5,2,0:0:0:0:
276,320,24339,2,0,P|343:329|403:301,2,135,0|4|2,0:0|0:0|0:0,0:0:0:0:
212,256,25983,2,0,P|211:212|199:168,1,90,8|8,0:0|0:0,0:0:0:0:
132,108,26805,6,0,B|216:134|272:84|272:84|300:96,1,180,4|0,0:0|0:0,0:0:0:0:
376,148,28038,1,8,0:0:0:0:
396,236,28449,2,0,B|368:276|372:352|372:352|319:324,1,180,2|0,0:0|0:0,0:0:0:0:
264,252,29682,1,8,0:0:0:0:
180,280,30093,6,0,P|161:320|151:364,1,90,2|0,0:0|0:0,0:0:0:0:
72,320,30914,2,0,B|56:280|56:280|64:232|40:160,1,135,2|0,0:0|0:0,0:0:0:0:
12,104,31942,2,0,P|68:96|136:152,1,135,2|2,0:0|0:0,0:0:0:0:
188,208,32969,1,8,0:0:0:0:
268,172,33380,6,0,L|416:144,2,135,4|0|8,0:0|0:0|0:0,0:0:0:0:
304,256,35024,2,0,L|452:228,2,135,2|0|8,0:0|0:0|0:0,0:0:0:0:
252,331,36668,6,0,P|208:336|168:316,1,90,4|0,0:0|0:0,0:0:0:0:
108,252,37490,2,0,L|93:117,1,135,8|4,0:0|0:0,0:0:0:0:
148,48,38517,2,0,P|211:31|240:40,1,90,4|2,0:0|0:0,0:0:0:0:
264,68,39134,2,0,L|288:160,1,90,8|8,0:0|0:0,0:0:0:0:
364,204,39956,6,0,L|356:292,2,67.5,4|4|4,0:0|0:0|0:0,0:0:0:0:
400,176,40777,2,0,L|408:68,1,90,4|8,0:0|0:0,0:0:0:0:
320,68,41599,6,0,L|324:-4,2,67.5,4|4|4,0:0|0:0|0:0,0:0:0:0:
300,108,42421,2,0,P|257:120|232:163,1,90,4|8,0:0|0:0,0:0:0:0:
208,244,43243,6,0,L|221:310,2,67.5,4|4|4,0:0|0:0|0:0,0:0:0:0:
176,212,44065,2,0,P|136:191|91:188,1,90,4|8,0:0|0:0,0:0:0:0:
24,244,44887,6,0,P|3:283|0:328,1,90,2|8,0:0|0:0,0:0:0:0:
88,356,45709,2,0,L|212:340,1,90,0|8,0:0|0:0,0:0:0:0:
224,352,46325,6,0,P|308:332|332:276,1,135,4|8,0:0|0:0,0:0:0:0:
324,204,47353,2,0,B|464:188,2,135,0|0|8,0:0|0:0|0:0,0:0:0:0:
251,148,48997,2,0,P|207:146|166:127,1,90,10|4,0:0|0:0,0:0:0:0:
116,52,49819,6,0,L|128:212,1,135,4|10,0:0|0:0,0:0:0:0:
132,276,50846,1,10,0:0:0:0:
203,224,51257,2,0,P|265:199|327:222,1,135,4|8,0:0|0:0,0:0:0:0:
388,288,52284,2,0,P|412:248|413:203,1,90,2|8,0:0|0:0,0:0:0:0:
364,128,53106,6,0,L|384:52,2,67.5,8|8|8,0:3|0:3|0:3,0:0:0:0:
331,160,53928,2,0,P|289:175|240:164,1,90,8|10,0:3|0:0,0:0:0:0:
200,92,54750,6,0,P|155:98|120:128,1,90,4|8,0:0|0:0,0:0:0:0:
56,64,55572,2,0,P|21:92|4:135,1,90,2|8,0:0|0:0,0:0:0:0:
64,204,56394,2,0,L|36:352,2,135,2|2|8,0:0|0:0|0:0,0:0:0:0:
136,148,58038,6,0,P|192:164|216:260,2,135,4|2|8,0:0|0:0|0:0,0:0:0:0:
51,111,59682,2,0,P|32:72|34:27,1,90,2|4,0:0|0:0,0:0:0:0:
120,56,60503,2,0,B|144:44|184:56|184:56|236:48,1,90,4|8,0:0|0:0,0:0:0:0:
292,88,61325,6,0,P|336:92|371:127,1,90,4|8,0:0|0:0,0:0:0:0:
420,196,62147,2,0,L|436:292,1,90,2|8,0:0|0:0,0:0:0:0:
356,328,62969,2,0,L|332:172,2,135,2|2|8,0:0|0:0|0:0,0:0:0:0:
268,308,64613,6,0,P|223:304|181:318,1,90,4|8,0:0|0:0,0:0:0:0:
108,264,65435,2,0,L|88:156,1,90,4|8,0:0|0:0,0:0:0:0:
135,96,66257,2,0,B|196:72|248:96|248:96|260:80,2,135,4|2|8,0:0|0:0|0:0,0:0:0:0:
48,88,67901,6,0,P|43:132|55:175,1,90,4|8,0:0|0:0,0:0:0:0:
140,204,68723,2,0,P|152:247|147:291,1,90,2|8,0:0|0:0,0:0:0:0:
96,368,69545,2,0,P|173:324|259:340,1,180,2|2,0:0|0:0,0:0:0:0:
340,384,70777,1,8,0:0:0:0:
392,312,71188,6,0,B|396:284|404:264|404:264|400:248|400:248|408:232|408:232|408:204|416:168,2,135,4|2|8,0:0|0:0|0:0,0:0:0:0:
308,279,72832,2,0,P|267:298|235:330,1,90,2|4,0:0|0:0,0:0:0:0:
176,260,73654,2,0,P|149:296|138:340,1,90,4|8,0:0|0:0,0:0:0:0:
68,284,74476,6,0,P|60:212|44:120,2,135,4|2|8,0:0|0:0|0:0,0:0:0:0:
151,256,76120,2,0,P|148:216|141:166,1,90,2|8,0:0|0:0,0:0:0:0:
204,103,76942,2,0,P|247:111|282:139,1,90,2|10,0:0|0:0,0:0:0:0:
344,208,77764,6,0,P|340:248|338:297,1,90,4|8,0:0|0:0,0:0:0:0:
260,344,78586,2,0,P|252:284|248:252,1,90,4|8,0:0|0:0,0:0:0:0:
256,192,79408,12,2,81051,0:0:0:0:
