osu file format v13

[General]
AudioFilename: moe.mp3
AudioLeadIn: 0
PreviewTime: 53066
Countdown: 0
SampleSet: Normal
StackLeniency: 0.7
Mode: 1
LetterboxInBreaks: 0
WidescreenStoryboard: 0

[Editor]
DistanceSpacing: 2
BeatDivisor: 4
GridSize: 32
TimelineZoom: 1.2

[Metadata]
Title:Hanayuki(TVsize)
TitleUnicode:花雪(TVsize)
Artist:smileY inc.
ArtistUnicode:smileY inc.
Creator:Genocide
Version:Muzukashii
Source:ハナヤマタ
Tags:[i]mmortal[s] Kin ending anime hanayamata hana n. fontainestand
BeatmapID:490799
BeatmapSetID:208425

[Difficulty]
HPDrainRate:5
CircleSize:5
OverallDifficulty:5
ApproachRate:5
SliderMultiplier:1.4
SliderTickRate:1

[Events]
//Background and Video events
0,0,"moe.jpg",0,140
//Break Periods
//Storyboard Layer 0 (Background)
//Storyboard Layer 1 (Fail)
//Storyboard Layer 2 (Pass)
//Storyboard Layer 3 (Foreground)
//Storyboard Sound Samples

[TimingPoints]
-1178,410.958904109589,4,1,0,25,1,0
466,-100,4,1,0,40,0,0
6424,-100,4,1,0,50,0,0
7041,-100,4,1,0,75,0,0
54712,-100,4,1,0,85,0,1
81013,530.973451327434,4,1,0,30,1,0
81809,571.428571428571,4,1,0,30,1,8
82094,618.556701030928,4,1,0,30,1,0
82712,652.173913043478,4,1,0,30,1,8
83038,600,4,1,0,30,1,8
83338,410.958904109589,4,1,0,30,1,0
83747,591.133004926108,4,1,0,30,1,8
84338,410.958904109589,4,1,0,20,1,0

[HitObjects]
256,192,466,5,8,0:0:0:0:
192,192,1082,1,0,0:0:0:0:
256,192,1698,1,8,0:0:0:0:
256,192,2109,1,8,0:0:0:0:
320,192,2931,1,0,0:0:0:0:
256,192,3548,1,8,0:0:0:0:
256,192,3650,1,8,0:0:0:0:
256,192,3753,1,8,0:0:0:0:
256,192,4575,1,0,0:0:0:0:
256,192,5192,1,0,0:0:0:0:
256,128,5397,1,8,0:0:0:0:
256,192,5808,1,0,0:0:0:0:
256,256,6013,1,8,0:0:0:0:
256,192,6424,1,0,0:0:0:0:
256,192,6630,1,0,0:0:0:0:
256,192,6835,1,0,0:0:0:0:
256,192,7041,1,12,0:0:0:0:
256,192,8274,1,0,0:0:0:0:
256,192,8685,1,12,0:0:0:0:
256,192,9712,1,0,0:0:0:0:
256,192,9918,1,8,0:0:0:0:
256,192,10123,1,0,0:0:0:0:
256,192,10329,1,12,0:0:0:0:
256,192,10739,1,0,0:0:0:0:
256,192,10945,1,8,0:0:0:0:
256,192,11150,1,8,0:0:0:0:
256,192,11561,1,0,0:0:0:0:
256,192,11767,1,8,0:0:0:0:
256,192,11972,1,8,0:0:0:0:
256,192,12589,1,0,0:0:0:0:
256,192,12692,1,0,0:0:0:0:
256,192,12794,1,0,0:0:0:0:
256,192,13000,1,8,0:0:0:0:
256,192,13616,1,4,0:0:0:0:
256,192,14027,1,0,0:0:0:0:
256,192,14438,1,8,0:0:0:0:
256,192,14849,1,0,0:0:0:0:
256,192,15055,1,0,0:0:0:0:
256,192,15260,1,8,0:0:0:0:
256,192,16082,1,0,0:0:0:0:
256,192,16287,1,0,0:0:0:0:
256,192,16493,1,8,0:0:0:0:
256,192,16904,1,0,0:0:0:0:
256,192,17315,1,8,0:0:0:0:
256,192,17726,1,0,0:0:0:0:
256,192,17931,1,0,0:0:0:0:
256,192,18137,1,8,0:0:0:0:
256,192,18342,1,0,0:0:0:0:
256,192,18548,1,8,0:0:0:0:
256,192,19370,1,8,0:0:0:0:
256,192,19781,1,8,0:0:0:0:
256,192,19986,1,8,0:0:0:0:
256,192,20192,1,0,0:0:0:0:
256,192,20602,1,8,0:0:0:0:
256,192,21013,1,8,0:0:0:0:
256,192,21424,1,0,0:0:0:0:
256,192,21630,1,0,0:0:0:0:
256,192,21835,1,8,0:0:0:0:
256,192,22246,1,8,0:0:0:0:
256,192,22452,1,8,0:0:0:0:
256,192,23068,1,8,0:0:0:0:
256,192,23274,1,8,0:0:0:0:
256,192,23479,1,0,0:0:0:0:
256,192,23685,1,8,0:0:0:0:
256,192,24096,1,8,0:0:0:0:
256,192,24507,1,0,0:0:0:0:
256,192,24712,1,8,0:0:0:0:
256,192,24918,1,8,0:0:0:0:
256,192,25329,1,8,0:0:0:0:
256,192,25534,1,0,0:0:0:0:
256,192,25945,1,0,0:0:0:0:
256,192,26150,1,8,0:0:0:0:
256,192,26253,1,8,0:0:0:0:
256,192,26356,1,8,0:0:0:0:
256,192,26561,1,0,0:0:0:0:
256,192,26767,1,12,0:0:0:0:
64,64,27178,1,8,0:0:0:0:
256,192,27589,1,0,0:0:0:0:
256,192,27794,1,8,0:0:0:0:
256,192,28000,1,0,0:0:0:0:
256,192,28205,1,8,0:0:0:0:
256,192,28411,1,8,0:0:0:0:
256,192,29233,1,0,0:0:0:0:
256,192,29644,1,0,0:0:0:0:
256,192,30055,1,8,0:0:0:0:
256,192,30465,1,0,0:0:0:0:
256,192,30671,1,0,0:0:0:0:
256,192,30876,1,8,0:0:0:0:
256,192,31287,1,8,0:0:0:0:
64,128,31493,1,8,0:0:0:0:
256,192,31904,1,0,0:0:0:0:
256,192,32109,1,8,0:0:0:0:
256,192,32315,1,0,0:0:0:0:
256,192,32418,1,0,0:0:0:0:
256,192,32520,1,0,0:0:0:0:
256,192,32726,1,0,0:0:0:0:
256,192,32931,1,8,0:0:0:0:
256,192,33342,1,12,0:0:0:0:
64,192,33959,1,8,0:0:0:0:
64,192,34370,1,8,0:0:0:0:
64,192,34781,1,8,0:0:0:0:
64,192,35191,1,0,0:0:0:0:
64,192,35397,1,8,0:0:0:0:
64,192,35602,1,0,0:0:0:0:
64,192,36219,1,0,0:0:0:0:
64,192,36424,1,8,0:0:0:0:
64,192,36630,1,4,0:0:0:0:
64,192,37246,1,0,0:0:0:0:
64,192,37452,1,8,0:0:0:0:
64,192,37657,1,8,0:0:0:0:
64,192,37863,1,0,0:0:0:0:
64,192,38068,1,12,0:0:0:0:
32,192,38479,1,8,0:0:0:0:
64,192,38890,1,0,0:0:0:0:
192,128,39096,1,0,0:0:0:0:
64,192,39301,1,8,0:0:0:0:
64,192,39712,1,8,0:0:0:0:
64,192,39918,1,4,0:0:0:0:
64,192,40226,1,8,0:0:0:0:
64,192,40534,1,8,0:0:0:0:
160,128,40739,1,0,0:0:0:0:
64,192,41356,1,8,0:0:0:0:
64,192,41561,1,8,0:0:0:0:
64,192,41870,1,8,0:0:0:0:
64,192,42178,1,0,0:0:0:0:
64,192,42383,1,8,0:0:0:0:
64,192,42589,1,8,0:0:0:0:
64,192,42692,1,8,0:0:0:0:
64,192,42794,1,8,0:0:0:0:
64,192,43000,1,8,0:0:0:0:
64,192,43205,1,4,0:0:0:0:
64,192,43513,1,8,0:0:0:0:
64,192,43822,1,8,0:0:0:0:
64,192,44027,1,0,0:0:0:0:
64,192,44233,1,8,0:0:0:0:
64,192,44644,1,0,0:0:0:0:
64,192,44849,1,8,0:0:0:0:
64,192,45260,1,8,0:0:0:0:
64,192,45671,1,0,0:0:0:0:
64,192,46287,1,8,0:0:0:0:
64,192,46698,1,8,0:0:0:0:
64,192,47109,1,0,0:0:0:0:
64,192,47315,1,8,0:0:0:0:
64,192,47520,1,8,0:0:0:0:
64,192,47931,1,0,0:0:0:0:
64,192,48342,1,8,0:0:0:0:
64,192,48548,1,8,0:0:0:0:
64,192,48959,1,0,0:0:0:0:
64,192,49061,1,0,0:0:0:0:
64,192,49164,1,0,0:0:0:0:
64,192,49370,1,12,0:0:0:0:
64,192,49781,1,8,0:0:0:0:
64,192,49986,1,0,0:0:0:0:
64,192,50192,1,0,0:0:0:0:
64,192,50397,1,8,0:0:0:0:
64,192,50808,1,0,0:0:0:0:
64,192,51219,1,12,0:0:0:0:
256,192,51630,12,0,53068,0:0:0:0:
256,192,53685,5,4,0:0:0:0:
256,192,53890,1,4,0:0:0:0:
256,192,54096,1,8,0:0:0:0:
256,192,54198,1,8,0:0:0:0:
256,192,54301,1,8,0:0:0:0:
256,192,54507,1,8,0:0:0:0:
256,192,54712,1,4,0:0:0:0:
256,192,55020,1,0,0:0:0:0:
256,192,55123,1,0,0:0:0:0:
256,192,55328,1,0,0:0:0:0:
256,192,55534,1,8,0:0:0:0:
256,192,55945,1,0,0:0:0:0:
256,192,56150,1,8,0:0:0:0:
256,192,56356,1,0,0:0:0:0:
256,192,56767,1,8,0:0:0:0:
256,192,57178,1,8,0:0:0:0:
256,192,57589,1,0,0:0:0:0:
256,192,58000,1,12,0:0:0:0:
256,192,58616,1,0,0:0:0:0:
256,192,58822,1,8,0:0:0:0:
256,192,59439,1,0,0:0:0:0:
256,192,59644,1,0,0:0:0:0:
256,192,59850,1,0,0:0:0:0:
256,192,60055,1,8,0:0:0:0:
256,192,60260,1,0,0:0:0:0:
256,192,60465,1,8,0:0:0:0:
256,192,60876,1,8,0:0:0:0:
256,192,61287,1,0,0:0:0:0:
256,192,61698,1,0,0:0:0:0:
256,192,61904,1,0,0:0:0:0:
256,192,62109,1,8,0:0:0:0:
256,192,62520,1,0,0:0:0:0:
256,192,62726,1,0,0:0:0:0:
256,192,62931,1,8,0:0:0:0:
256,192,63239,1,0,0:0:0:0:
256,192,63548,1,8,0:0:0:0:
256,192,64164,1,8,0:0:0:0:
256,192,64370,1,8,0:0:0:0:
256,192,64575,1,4,0:0:0:0:
256,192,64986,1,8,0:0:0:0:
256,192,65192,1,0,0:0:0:0:
256,192,65397,1,12,0:0:0:0:
256,192,65808,1,8,0:0:0:0:
256,192,66013,1,0,0:0:0:0:
256,192,66219,1,12,0:0:0:0:
256,192,66630,1,8,0:0:0:0:
256,192,66733,1,8,0:0:0:0:
256,192,66835,1,8,0:0:0:0:
256,192,67041,1,0,0:0:0:0:
256,192,67452,1,8,0:0:0:0:
96,128,67657,1,8,0:0:0:0:
256,192,67863,1,4,0:0:0:0:
256,192,68274,1,8,0:0:0:0:
256,192,68479,1,0,0:0:0:0:
256,192,68685,1,0,0:0:0:0:
256,192,69096,1,8,0:0:0:0:
256,192,69301,1,8,0:0:0:0:
256,192,69507,1,0,0:0:0:0:
256,192,69918,1,8,0:0:0:0:
256,192,70329,1,0,0:0:0:0:
256,192,70739,1,8,0:0:0:0:
256,192,71150,1,12,0:0:0:0:
256,192,71767,1,0,0:0:0:0:
256,192,71972,1,8,0:0:0:0:
256,192,72383,1,0,0:0:0:0:
256,192,72794,1,8,0:0:0:0:
256,192,73000,1,8,0:0:0:0:
256,192,73205,1,4,0:0:0:0:
256,192,73411,1,8,0:0:0:0:
256,192,73616,1,4,0:0:0:0:
256,192,74027,1,0,0:0:0:0:
256,192,74438,1,12,0:0:0:0:
256,192,75055,1,0,0:0:0:0:
256,192,75466,1,0,0:0:0:0:
256,192,75671,1,0,0:0:0:0:
256,192,75876,1,8,0:0:0:0:
256,192,76082,1,0,0:0:0:0:
256,192,76493,1,8,0:0:0:0:
256,192,76904,1,8,0:0:0:0:
256,192,77315,1,0,0:0:0:0:
128,160,77418,1,0,0:0:0:0:
256,192,77520,1,0,0:0:0:0:
256,192,77726,1,12,0:0:0:0:
256,192,78137,1,8,0:0:0:0:
128,160,78239,1,8,0:0:0:0:
256,192,78342,1,8,0:0:0:0:
256,192,78548,1,4,0:0:0:0:
256,192,78959,1,0,0:0:0:0:
256,192,79061,1,0,0:0:0:0:
256,192,79164,1,0,0:0:0:0:
256,192,79370,1,12,0:0:0:0:
256,192,79575,12,0,81013,0:0:0:0:
