osu file format v13

[General]
AudioFilename: moe.mp3
AudioLeadIn: 0
PreviewTime: 53066
Countdown: 0
SampleSet: Normal
StackLeniency: 0.7
Mode: 1
LetterboxInBreaks: 0
WidescreenStoryboard: 0

[Editor]
DistanceSpacing: 2
BeatDivisor: 2
GridSize: 32
TimelineZoom: 1.2

[Metadata]
Title:Hanayuki(TVsize)
TitleUnicode:花雪(TVsize)
Artist:smileY inc.
ArtistUnicode:smileY inc.
Creator:Genocide
Version:Kantan
Source:ハナヤマタ
Tags:[i]mmortal[s] Kin ending anime hanayamata hana n. fontainestand
BeatmapID:490798
BeatmapSetID:208425

[Difficulty]
HPDrainRate:3
CircleSize:3
OverallDifficulty:3
ApproachRate:9
SliderMultiplier:1.2
SliderTickRate:1

[Events]
//Background and Video events
0,0,"moe.jpg",0,140
//Break Periods
//Storyboard Layer 0 (Background)
//Storyboard Layer 1 (Fail)
//Storyboard Layer 2 (Pass)
//Storyboard Layer 3 (Foreground)
//Storyboard Sound Samples

[TimingPoints]
-1178,410.958904109589,4,1,0,25,1,0
466,-100,4,1,0,40,0,0
6424,-100,4,1,0,50,0,0
7041,-100,4,1,0,75,0,0
54712,-100,4,1,0,85,0,1
81013,530.973451327434,4,1,0,30,1,0
81809,571.428571428571,4,1,0,30,1,8
82094,618.556701030928,4,1,0,30,1,0
82712,652.173913043478,4,1,0,30,1,8
83038,600,4,1,0,30,1,8
83338,410.958904109589,4,1,0,30,1,0
83747,591.133004926108,4,1,0,30,1,8
84338,410.958904109589,4,1,0,20,1,0

[HitObjects]
256,192,466,5,8,0:0:0:0:
256,192,2109,1,0,0:0:0:0:
256,192,3753,1,8,0:0:0:0:
256,192,5397,1,8,0:0:0:0:
256,192,6630,1,0,0:0:0:0:
256,192,7041,1,12,0:0:0:0:
256,192,8685,1,12,0:0:0:0:
256,192,9918,1,0,0:0:0:0:
256,192,10329,1,12,0:0:0:0:
256,192,11972,1,4,0:0:0:0:
256,192,13000,1,8,0:0:0:0:
256,192,13616,1,4,0:0:0:0:
256,192,14438,1,8,0:0:0:0:
256,192,15260,1,0,0:0:0:0:
256,192,16904,1,0,0:0:0:0:
256,192,17726,1,8,0:0:0:0:
256,192,18548,1,0,0:0:0:0:
256,192,20192,1,0,0:0:0:0:
256,192,21835,1,8,0:0:0:0:
256,192,22657,1,0,0:0:0:0:
256,192,23479,1,8,0:0:0:0:
256,192,24301,1,8,0:0:0:0:
256,192,24918,1,0,0:0:0:0:
256,192,25945,1,8,0:0:0:0:
256,192,26356,1,8,0:0:0:0:
256,192,26767,1,4,0:0:0:0:
256,192,27589,1,0,0:0:0:0:
256,192,28411,1,8,0:0:0:0:
256,192,29644,1,0,0:0:0:0:
256,192,30055,1,8,0:0:0:0:
256,192,30876,1,8,0:0:0:0:
256,192,31698,1,0,0:0:0:0:
256,192,32520,1,0,0:0:0:0:
256,192,32931,1,8,0:0:0:0:
256,192,33342,1,4,0:0:0:0:
256,192,34986,1,0,0:0:0:0:
256,192,35808,1,8,0:0:0:0:
256,192,36630,1,4,0:0:0:0:
256,192,37452,1,0,0:0:0:0:
256,192,38068,1,12,0:0:0:0:
256,192,39918,1,0,0:0:0:0:
256,192,40739,1,8,0:0:0:0:
256,192,41561,1,0,0:0:0:0:
256,192,43205,1,8,0:0:0:0:
256,192,44027,1,0,0:0:0:0:
256,192,44849,1,8,0:0:0:0:
256,192,45671,1,0,0:0:0:0:
256,192,46287,1,4,0:0:0:0:
256,192,47315,1,0,0:0:0:0:
256,192,47726,1,8,0:0:0:0:
256,192,48548,1,8,0:0:0:0:
256,192,48959,1,0,0:0:0:0:
256,192,49781,1,4,0:0:0:0:
256,192,50397,1,0,0:0:0:0:
256,192,51219,1,12,0:0:0:0:
256,192,51835,12,0,53068,0:0:0:0:
256,192,53890,5,0,0:0:0:0:
256,192,54301,1,8,0:0:0:0:
256,192,54712,1,4,0:0:0:0:
256,192,55534,1,8,0:0:0:0:
256,192,56356,1,0,0:0:0:0:
256,192,57178,1,8,0:0:0:0:
256,192,57589,1,8,0:0:0:0:
256,192,58000,1,0,0:0:0:0:
256,192,59644,1,8,0:0:0:0:
256,192,60055,1,12,0:0:0:0:
256,192,60465,1,4,0:0:0:0:
256,192,61287,1,4,0:0:0:0:
256,192,62109,1,8,0:0:0:0:
256,192,62931,1,0,0:0:0:0:
256,192,63548,1,8,0:0:0:0:
256,192,64575,1,12,0:0:0:0:
256,192,65397,1,4,0:0:0:0:
288,192,66219,1,12,0:0:0:0:
256,192,67863,1,12,0:0:0:0:
256,192,68685,1,0,0:0:0:0:
256,192,69507,1,8,0:0:0:0:
256,192,70329,1,0,0:0:0:0:
256,192,70739,1,8,0:0:0:0:
256,192,71150,1,0,0:0:0:0:
256,192,71972,1,8,0:0:0:0:
256,192,72794,1,0,0:0:0:0:
256,192,73616,1,4,0:0:0:0:
256,192,74438,1,4,0:0:0:0:
256,192,75671,1,8,0:0:0:0:
256,192,76082,1,0,0:0:0:0:
256,192,77315,1,0,0:0:0:0:
256,192,77726,1,12,0:0:0:0:
256,192,78548,1,12,0:0:0:0:
256,192,79370,1,12,0:0:0:0:
256,192,79781,12,0,81013,0:0:0:0:
