osu file format v13

[General]
AudioFilename: Hanayuki.mp3
AudioLeadIn: 0
PreviewTime: 54084
Countdown: 0
SampleSet: Soft
StackLeniency: 0.7
Mode: 0
LetterboxInBreaks: 0
WidescreenStoryboard: 1

[Editor]
DistanceSpacing: 1
BeatDivisor: 4
GridSize: 8
TimelineZoom: 1.4

[Metadata]
Title:Hanayuki (TVsize)
TitleUnicode:花雪 (TVsize)
Artist:smileY inc.
ArtistUnicode:smileY inc.
Creator:lgdry15
Version:Normal
Source:ハナヤマタ
Tags:Hanayamata tv size ending 大坪由佳 Otsubo Yuka ゆうゆ Yuuyu -_D_a_s_z_x_- yf_bmp Alex_Li
BeatmapID:465538
BeatmapSetID:196258

[Difficulty]
HPDrainRate:4
CircleSize:3
OverallDifficulty:4
ApproachRate:5
SliderMultiplier:1
SliderTickRate:1

[Events]
//Background and Video events
0,0,"Hanayuki.jpg",0,0
Video,360,"Hanayuki.avi"
//Break Periods
//Storyboard Layer 0 (Background)
//Storyboard Layer 1 (Fail)
//Storyboard Layer 2 (Pass)
//Storyboard Layer 3 (Foreground)
//Storyboard Sound Samples
//Background Colour Transformations
3,100,238,134,163

[TimingPoints]
454,410.958904109589,4,2,1,60,1,0
13604,-100,4,2,1,70,0,0
51001,-100,4,2,1,80,0,0
53056,-100,4,2,1,70,0,0
54700,-100,4,2,1,80,0,1
81021,500,4,2,1,60,1,0
81521,545.454545454546,4,2,1,60,1,0
82066,618.556701030928,4,2,1,60,1,0
82684,674.157303370787,4,2,1,60,1,0

[Colours]
Combo1 : 182,144,193
Combo2 : 235,110,143
Combo3 : 246,170,55
Combo4 : 147,209,198
Combo5 : 140,193,233

[HitObjects]
128,192,454,5,0,0:0:0:0:
424,192,1686,2,0,P|368:200|312:192,1,100
168,72,2919,1,0,0:0:0:0:
312,104,3536,6,0,L|368:120,1,50,0|2,0:0|0:0,0:0:0:0:
336,320,4563,1,0,0:0:0:0:
192,288,5180,2,2,L|128:272,1,50,0|2,0:0|0:0,0:0:0:0:
256,192,7029,5,4,0:0:0:0:
256,192,8673,5,4,0:0:0:0:
376,288,10317,5,4,0:0:0:0:
360,304,11138,1,0,0:0:0:0:
344,320,11960,1,2,0:0:0:0:
408,64,13604,6,0,P|432:112|424:176,1,100,4|2,0:0|0:0,0:0:0:0:
333,133,14426,2,0,P|331:186|359:231,1,100,0|2,0:0|0:0,0:0:0:0:
254,233,15248,6,0,L|357:226,1,100,0|2,0:0|0:0,0:0:0:0:
344,328,16070,2,0,L|237:335,1,100,0|2,0:0|0:0,0:0:0:0:
144,360,16892,5,0,0:0:0:0:
64,304,17303,1,2,0:0:0:0:
152,264,17714,2,0,P|199:237|224:195,1,100,0|2,0:0|0:0,0:0:0:0:
266,106,18536,6,0,P|292:60|339:41,1,100,0|2,0:0|0:0,0:0:0:0:
359,138,19358,2,0,P|369:182|369:250,1,100,0|2,0:0|0:0,0:0:0:0:
365,286,19974,1,0,0:0:0:0:
323,312,20180,6,0,L|212:334,1,100,0|2,0:0|0:0,0:0:0:0:
232,232,21001,2,0,P|192:200|176:152,1,100,0|2,0:0|0:0,0:0:0:0:
256,80,21823,6,0,P|316:53|364:51,1,100,0|2,0:0|0:0,0:0:0:0:
405,135,22645,2,0,L|374:249,1,100,0|2,0:0|0:0,0:0:0:0:
364,280,23262,1,0,0:0:0:0:
315,286,23467,6,0,P|287:241|239:218,1,100,0|2,0:0|0:0,0:0:0:0:
198,204,24084,2,0,P|145:181|114:134,1,100
96,104,24700,1,2,0:0:0:0:
79,56,24906,1,4,0:0:0:0:
206,82,25317,6,0,L|262:64,2,50,0|0|0,0:0|0:0|0:0,0:0:0:0:
210,141,25933,2,0,L|271:151,1,50
214,189,26344,2,0,L|155:206,1,50
118,218,26755,6,0,P|81:257|77:310,1,100,4|2,0:0|0:0,0:0:0:0:
175,301,27577,2,0,P|224:331|281:338,1,100,0|2,0:0|0:0,0:0:0:0:
315,344,28193,1,0,0:0:0:0:
355,314,28399,6,0,L|447:237,1,100,0|2,0:0|0:0,0:0:0:0:
367,173,29221,2,0,L|275:250,1,100,0|2,0:0|0:0,0:0:0:0:
242,250,29837,1,0,0:0:0:0:
195,232,30043,6,0,P|157:185|153:141,1,100,0|2,0:0|0:0,0:0:0:0:
256,152,30864,2,0,L|317:139,2,50,0|0|2,0:0|0:0|0:0,0:0:0:0:
315,232,31686,6,0,P|366:217|410:191,1,100,0|2,0:0|0:0,0:0:0:0:
399,95,32508,2,0,L|347:60,1,50
328,108,32919,2,0,L|276:73,1,50,2|0,0:0|0:0,0:0:0:0:
238,68,33330,6,0,P|184:75|138:103,1,100,4|2,0:0|0:0,0:0:0:0:
117,139,33947,2,0,L|95:243,1,100
179,294,34769,2,0,P|222:260|276:254,1,100
315,250,35385,2,0,L|386:252,1,50,2|0,0:0|0:0,0:0:0:0:
415,253,35796,1,0,0:0:0:0:
501,202,36207,6,0,L|458:160,2,50,2|0|4,0:0|0:0|0:0,0:0:0:0:
352,216,37234,6,0,P|280:240|208:216,1,150
168,192,38056,1,4,0:0:0:0:
221,107,38467,6,0,L|251:57,2,50,0|0|0,0:0|0:0|0:0,0:0:0:0:
256,142,39084,2,0,L|318:106,2,50,0|0|0,0:0|0:0|0:0,0:0:0:0:
168,192,39906,6,0,L|96:233,2,75,4|4|4,0:0|0:0|0:0,0:0:0:0:
212,168,40727,1,0,0:0:0:0:
405,117,41549,6,0,L|405:34,2,75,4|4|4,0:0|0:0|0:0,0:0:0:0:
404,167,42370,1,0,0:0:0:0:
255,301,43193,6,0,L|326:342,2,75,4|4|4,0:0|0:0|0:0,0:0:0:0:
212,275,44014,1,0,0:0:0:0:
134,90,44837,6,0,L|111:188,1,100
211,188,45659,2,0,L|188:286,1,100
225,318,46275,5,4,0:0:0:0:
274,324,46481,2,0,P|321:313|356:266,1,100,0|2,0:0|0:0,0:0:0:0:
396,184,47303,2,0,P|427:146|475:134,1,100,0|2,0:0|0:0,0:0:0:0:
462,86,47919,6,0,P|408:39|327:53,1,150,0|2,0:0|0:0,0:0:0:0:
252,105,48947,1,0,0:0:0:0:
256,304,49769,5,4,0:0:0:0:
256,304,51207,1,4,0:0:0:0:
256,192,51618,12,0,53056,0:0:0:0:
256,197,53878,53,2,0:0:0:0:
415,319,54700,5,4,0:0:0:0:
396,221,55111,2,0,P|376:174|333:135,1,100,2|0,0:0|0:0,0:0:0:0:
248,96,55933,2,0,L|304:56,2,50,2|0|0,0:0|0:0|0:0,0:0:0:0:
168,163,56755,5,2,0:0:0:0:
177,262,57166,1,0,0:0:0:0:
265,309,57577,1,2,0:0:0:0:
360,278,57988,1,0,0:0:0:0:
408,174,58399,6,0,L|472:200,2,50,2|0|0,0:0|0:0|0:0,0:0:0:0:
313,142,59221,2,0,L|312:198,1,50,2|0,0:0|0:0,0:0:0:0:
311,242,59632,6,0,P|272:273|221:284,1,100,0|6,0:0|0:0,0:0:0:0:
124,283,60453,1,4,0:0:0:0:
152,184,60864,2,0,L|176:128,1,50,2|0,0:0|0:0,0:0:0:0:
192,88,61275,6,0,P|247:99|284:136,1,100,4|2,0:0|0:0,0:0:0:0:
296,224,62097,1,0,0:0:0:0:
217,284,62508,2,0,L|271:304,1,50,2|0,0:0|0:0,0:0:0:0:
314,308,62919,6,0,L|411:297,2,75,0|0|0,0:0|0:0|0:0,0:0:0:0:
304,160,64152,2,0,L|301:97,2,50,2|0|4,0:0|0:0|0:0,0:0:0:0:
204,166,64974,2,0,L|151:200,2,50,2|0|4,0:0|0:0|0:0,0:0:0:0:
259,249,65796,2,0,L|315:278,2,50,2|0|4,0:0|0:0|0:0,0:0:0:0:
168,200,66618,5,2,0:0:0:0:
248,144,67029,1,0,0:0:0:0:
344,144,67440,1,2,0:0:0:0:
416,208,67851,5,4,0:0:0:0:
345,279,68262,2,0,P|288:296|240:280,1,100,2|0,0:0|0:0,0:0:0:0:
168,224,69084,2,0,L|128:272,2,50,2|0|0,0:0|0:0|0:0,0:0:0:0:
232,144,69906,1,2,0:0:0:0:
326,112,70317,1,0,0:0:0:0:
404,173,70727,1,2,0:0:0:0:
387,271,71138,1,0,0:0:0:0:
288,288,71549,6,0,L|320:336,2,50,2|0|0,0:0|0:0|0:0,0:0:0:0:
232,208,72371,2,0,L|204:163,1,50,2|0,0:0|0:0,0:0:0:0:
181,124,72782,2,0,P|224:96|276:94,1,100,0|6,0:0|0:0,0:0:0:0:
371,105,73604,1,4,0:0:0:0:
434,182,74015,2,0,L|371:211,1,50,2|0,0:0|0:0,0:0:0:0:
344,225,74426,6,0,P|301:210|238:206,1,100,4|2,0:0|0:0,0:0:0:0:
205,178,75043,2,0,P|193:109|210:84,1,100
165,60,75659,2,0,L|107:92,1,50,2|0,0:0|0:0,0:0:0:0:
79,110,76070,1,0,0:0:0:0:
84,210,76481,5,2,0:0:0:0:
120,302,76892,1,0,0:0:0:0:
183,224,77303,6,0,L|219:177,1,50,2|0,0:0|0:0,0:0:0:0:
244,144,77714,1,4,0:0:0:0:
303,224,78125,6,0,L|339:177,1,50,2|0,0:0|0:0,0:0:0:0:
364,144,78536,1,4,0:0:0:0:
422,224,78947,6,0,L|458:177,1,50,2|0,0:0|0:0,0:0:0:0:
483,144,79358,1,4,0:0:0:0:
466,45,79769,5,0,0:0:0:0:
383,100,80180,2,0,L|333:128,1,50
322,78,80590,2,0,L|271:81,1,50
222,83,81001,1,0,0:0:0:0:
138,233,82066,5,0,0:0:0:0:
299,336,83358,1,0,0:0:0:0:
256,192,84369,1,2,0:0:0:0:
