osu file format v13

[General]
AudioFilename: Hanayuki.mp3
AudioLeadIn: 0
PreviewTime: 54084
Countdown: 0
SampleSet: Soft
StackLeniency: 0.7
Mode: 0
LetterboxInBreaks: 0
WidescreenStoryboard: 0

[Editor]
DistanceSpacing: 1.2
BeatDivisor: 4
GridSize: 8
TimelineZoom: 1.850003

[Metadata]
Title:Hanayuki (TVsize)
TitleUnicode:花雪 (TVsize)
Artist:smileY inc.
ArtistUnicode:smileY inc.
Creator:lgdry15
Version:Hard
Source:ハナヤマタ
Tags:Hanayamata tv size ending 大坪由佳 Otsubo Yuka ゆうゆ Yuuyu -_D_a_s_z_x_- yf_bmp Alex_Li
BeatmapID:465537
BeatmapSetID:196258

[Difficulty]
HPDrainRate:6
CircleSize:4
OverallDifficulty:6
ApproachRate:7
SliderMultiplier:1.4
SliderTickRate:1

[Events]
//Background and Video events
0,0,"Hanayuki.jpg",0,0
Video,360,"Hanayuki.avi"
//Break Periods
//Storyboard Layer 0 (Background)
//Storyboard Layer 1 (Fail)
//Storyboard Layer 2 (Pass)
//Storyboard Layer 3 (Foreground)
//Storyboard Sound Samples
//Background Colour Transformations
3,100,238,134,163

[TimingPoints]
454,410.958904109589,4,2,1,60,1,0
6412,-100,4,2,1,75,0,0
6823,-100,4,3,0,50,0,0
6926,-100,4,2,1,75,0,0
9700,-100,4,3,0,50,0,0
10317,-100,4,2,1,80,0,0
11960,-100,4,2,1,80,0,0
13604,-100,4,2,1,70,0,0
44426,-100,4,2,1,70,0,0
44940,-100,4,2,1,70,0,0
49769,-83.3333333333333,4,2,1,70,0,0
49974,-83.3333333333333,4,2,1,75,0,0
50180,-83.3333333333333,4,2,1,80,0,0
50385,-83.3333333333333,4,2,1,85,0,0
50590,-83.3333333333333,4,2,1,90,0,0
50796,-83.3333333333333,4,2,1,95,0,0
51001,-83.3333333333333,4,2,1,80,0,0
51618,-100,4,2,1,60,0,0
51823,-100,4,2,1,65,0,0
52029,-100,4,2,1,70,0,0
52234,-100,4,2,1,75,0,0
52440,-100,4,2,1,80,0,0
52645,-100,4,2,1,85,0,0
52851,-100,4,2,1,50,0,0
53056,-83.3333333333333,4,2,1,70,0,0
54700,-83.3333333333333,4,2,1,80,0,1
81001,-100,4,2,1,80,0,0
81021,500,4,2,1,60,1,0
81521,545.454545454546,4,2,1,60,1,0
82066,618.556701030928,4,2,1,60,1,0
82684,674.157303370787,4,2,1,60,1,0
82684,-125,4,2,1,60,0,0

[Colours]
Combo1 : 182,144,193
Combo2 : 235,110,143
Combo3 : 246,170,55
Combo4 : 147,209,198
Combo5 : 140,193,233

[HitObjects]
122,191,454,6,0,P|144:138|199:118,1,105
222,216,1070,1,0,0:0:0:0:
222,216,1481,2,0,P|243:248|275:262,1,70
340,274,1892,1,0,0:0:0:0:
414,200,2097,6,0,P|400:146|362:105,1,105
273,65,2714,1,0,0:0:0:0:
200,58,2919,1,0,0:0:0:0:
129,79,3125,2,0,P|102:97|86:135,1,70
168,155,3536,1,0,0:0:0:0:
168,155,3638,1,0,0:0:0:0:
168,155,3741,6,0,P|186:196|227:216,1,70,2|0,0:0|0:0,0:0:0:0:
267,244,4152,1,0,0:0:0:0:
336,264,4358,1,0,0:0:0:0:
408,264,4563,1,0,0:0:0:0:
475,243,4769,2,0,P|488:276|514:300,2,70,0|0|0,0:0|0:0|0:0,0:0:0:0:
454,139,5385,6,0,P|421:110|379:107,1,70,2|0,0:0|0:0,0:0:0:0:
326,97,5796,1,0,0:0:0:0:
257,102,6001,1,0,0:0:0:0:
190,123,6207,1,0,0:0:0:0:
356,250,6823,5,4,0:0:0:0:
356,250,7029,1,4,0:0:0:0:
89,318,8673,5,4,0:0:0:0:
438,298,9700,5,4,0:0:0:0:
378,261,9906,2,0,L|282:205,1,105,4|4,0:0|0:0,0:0:0:0:
256,192,10317,1,4,0:0:0:0:
256,192,11138,1,0,0:0:0:0:
256,192,11960,1,2,0:0:0:0:
191,221,12166,6,0,L|138:153,1,70
212,135,12577,2,0,L|200:51,1,70
271,70,12988,1,4,0:0:0:0:
455,176,13604,5,4,0:0:0:0:
388,155,13810,1,0,0:0:0:0:
403,223,14015,1,2,0:0:0:0:
333,233,14221,1,0,0:0:0:0:
263,233,14426,2,0,P|225:231|190:218,1,70
132,188,14837,1,2,0:0:0:0:
168,126,15043,1,0,0:0:0:0:
232,94,15248,6,0,P|281:82|326:89,1,70
296,153,15659,2,0,P|348:148|379:129,1,70,2|0,0:0|0:0,0:0:0:0:
427,111,16070,1,0,0:0:0:0:
460,178,16275,5,0,0:0:0:0:
460,178,16378,1,0,0:0:0:0:
460,178,16481,2,0,P|417:196|390:229,1,70,2|0,0:0|0:0,0:0:0:0:
454,260,16892,2,0,P|427:283|395:294,1,70,0|0,0:0|0:0,0:0:0:0:
325,302,17303,1,2,0:0:0:0:
258,283,17508,1,0,0:0:0:0:
196,250,17714,1,0,0:0:0:0:
151,196,17919,1,0,0:0:0:0:
158,126,18125,2,0,P|176:92|218:73,1,70,2|0,0:0|0:0,0:0:0:0:
309,75,18536,6,0,P|338:94|353:126,1,70,0|0,0:0|0:0,0:0:0:0:
361,196,18947,1,2,0:0:0:0:
316,250,19152,1,0,0:0:0:0:
385,262,19358,2,0,P|421:262|454:253,1,70
464,250,19666,1,0,0:0:0:0:
475,247,19769,1,2,0:0:0:0:
471,177,19974,1,0,0:0:0:0:
434,117,20180,6,0,P|403:90|372:78,1,70
308,65,20590,1,2,0:0:0:0:
238,73,20796,1,0,0:0:0:0:
173,100,21001,2,0,P|143:127|137:168,1,70
205,161,21412,2,0,P|239:171|264:203,1,70,2|0,0:0|0:0,0:0:0:0:
298,255,21823,1,0,0:0:0:0:
344,307,22029,1,0,0:0:0:0:
405,340,22234,2,0,P|437:352|472:352,1,70,2|0,0:0|0:0,0:0:0:0:
451,285,22645,2,0,P|478:263|495:233,1,70
500,225,22953,1,0,0:0:0:0:
504,217,23056,5,2,0:0:0:0:
504,146,23262,1,0,0:0:0:0:
482,79,23467,2,0,P|459:44|417:36,1,70
363,31,23878,1,2,0:0:0:0:
293,39,24084,1,0,0:0:0:0:
335,94,24289,1,0,0:0:0:0:
283,141,24495,1,0,0:0:0:0:
260,207,24700,2,0,L|234:278,1,70,2|4,0:0|0:0,0:0:0:0:
54,221,25317,5,0,0:0:0:0:
158,226,25522,1,0,0:0:0:0:
260,207,25727,1,0,0:0:0:0:
354,160,25933,2,0,P|386:134|408:98,1,70
376,86,26241,1,0,0:0:0:0:
349,62,26344,2,0,L|323:39,2,35,0|0|0,0:0|0:0|0:0,0:0:0:0:
229,43,26755,6,0,P|217:79|225:117,1,70,4|0,0:0|0:0,0:0:0:0:
291,113,27166,2,0,P|297:153|287:192,1,70,2|0,0:0|0:0,0:0:0:0:
268,247,27577,1,0,0:0:0:0:
296,310,27782,2,0,L|321:361,2,35,0|0|2,0:0|0:0|0:0,0:0:0:0:
359,280,28193,2,0,L|417:303,2,35,0|0|0,0:0|0:0|0:0,0:0:0:0:
398,221,28604,1,0,0:0:0:0:
421,154,28810,2,0,L|481:154,2,35,2|0|0,0:0|0:0|0:0,0:0:0:0:
385,154,29118,2,0,L|339:154,1,35
279,155,29426,5,0,0:0:0:0:
214,181,29632,1,2,0:0:0:0:
186,245,29837,2,0,L|167:285,2,35,0|0|0,0:0|0:0|0:0,0:0:0:0:
125,209,30248,2,0,L|65:230,2,35,0|0|2,0:0|0:0|0:0,0:0:0:0:
127,138,30659,1,0,0:0:0:0:
187,103,30864,1,0,0:0:0:0:
218,165,31070,2,0,L|245:215,2,35,0|0|2,0:0|0:0|0:0,0:0:0:0:
285,144,31481,2,0,L|339:171,2,35,0|0|0,0:0|0:0|0:0,0:0:0:0:
329,90,31892,2,0,L|383:86,2,35,0|0|2,0:0|0:0|0:0,0:0:0:0:
341,20,32303,2,0,L|373:3,2,35,0|0|0,0:0|0:0|0:0,0:0:0:0:
274,43,32714,6,0,P|240:35|205:44,1,70,0|2,0:0|0:0,0:0:0:0:
240,104,33125,2,0,P|206:112|171:103,1,70,0|4,0:0|0:0,0:0:0:0:
106,78,33536,1,0,0:0:0:0:
74,140,33741,2,0,P|62:171|63:210,1,70,2|0,0:0|0:0,0:0:0:0:
86,273,34152,1,0,0:0:0:0:
124,331,34358,2,0,L|148:369,2,35,0|0|2,0:0|0:0|0:0,0:0:0:0:
188,302,34769,2,0,L|236:317,2,35,0|0|0,0:0|0:0|0:0,0:0:0:0:
224,242,35180,2,0,L|285:233,2,35,0|0|2,0:0|0:0|0:0,0:0:0:0:
193,223,35488,2,0,L|151:194,1,35
109,158,35796,5,0,0:0:0:0:
155,105,36001,1,0,0:0:0:0:
220,80,36207,1,2,0:0:0:0:
260,136,36412,2,0,L|292:178,2,35,0|0|4,0:0|0:0|0:0,0:0:0:0:
322,104,36823,2,0,L|372:116,2,35,0|0|2,0:0|0:0|0:0,0:0:0:0:
330,182,37234,5,0,0:0:0:0:
225,268,37440,1,0,0:0:0:0:
260,136,37645,1,0,0:0:0:0:
309,263,37851,1,0,0:0:0:0:
195,189,38056,1,4,0:0:0:0:
117,72,38467,6,0,P|103:103|101:141,2,70,0|0|0,0:0|0:0|0:0,0:0:0:0:
117,213,39084,1,0,0:0:0:0:
242,274,39289,1,0,0:0:0:0:
242,274,39392,1,0,0:0:0:0:
242,274,39495,1,0,0:0:0:0:
367,210,39700,1,0,0:0:0:0:
381,71,39906,6,4,L|275:103,2,105,4|4|4,0:0|0:0|0:0,0:0:0:0:
438,131,40727,1,0,0:0:0:0:
202,348,41138,1,0,0:0:0:0:
185,339,41241,1,0,0:0:0:0:
167,330,41344,1,0,0:0:0:0:
149,321,41447,1,0,0:0:0:0:
131,313,41549,6,4,L|242:282,2,105,4|4|4,0:0|0:0|0:0,0:0:0:0:
127,228,42371,2,0,L|156:195,2,35,0|0|0,0:0|0:0|0:0,0:0:0:0:
85,154,42782,2,0,L|89:105,2,35,0|0|0,0:0|0:0|0:0,0:0:0:0:
164,127,43193,5,4,0:0:0:0:
246,222,43501,1,4,0:0:0:0:
242,96,43810,1,4,0:0:0:0:
325,87,44015,1,0,0:0:0:0:
324,255,44426,2,0,L|381:255,1,35
394,250,44632,2,0,L|451:230,1,35
460,228,44837,5,0,0:0:0:0:
299,176,45248,1,0,0:0:0:0:
301,343,45659,1,0,0:0:0:0:
142,287,46070,2,0,P|103:258|90:226,1,70,0|4,0:0|0:0,0:0:0:0:
214,169,46686,2,0,B|199:199|161:218,1,70,0|2,0:0|0:0,0:0:0:0:
111,170,47097,6,0,P|89:139|83:100,2,70,0|0|0,0:0|0:0|0:0,0:0:0:0:
164,217,47714,1,2,0:0:0:0:
230,236,47919,1,0,0:0:0:0:
230,236,48330,2,0,P|287:238|323:213,1,70,0|2,0:0|0:0,0:0:0:0:
363,207,48741,1,0,0:0:0:0:
412,156,48947,2,0,L|449:120,2,35,0|0|0,0:0|0:0|0:0,0:0:0:0:
372,98,49358,1,6,0:0:0:0:
303,82,49563,1,0,0:0:0:0:
216,43,49769,54,0,L|115:71,1,83.9999974365235,4|0,0:0|0:0,0:0:0:0:
190,140,50180,2,0,L|118:213,1,83.9999974365235
215,238,50590,2,0,L|188:338,1,83.9999974365235
386,331,51207,1,4,0:0:0:0:
256,192,51618,12,0,52851,0:0:0:0:
160,192,53056,21,0,0:0:0:0:
352,192,53364,1,0,0:0:0:0:
200,192,53673,2,0,L|288:192,1,83.9999974365235,0|2,0:0|0:0,0:0:0:0:
478,57,54700,5,4,0:0:0:0:
478,57,55008,2,0,L|445:89,1,41.9999987182618,0|2,0:0|0:0,0:0:0:0:
373,161,55317,1,0,0:0:0:0:
301,89,55522,1,0,0:0:0:0:
301,89,55830,2,0,L|268:121,1,41.9999987182618,0|2,0:0|0:0,0:0:0:0:
197,193,56138,1,0,0:0:0:0:
125,121,56344,5,0,0:0:0:0:
125,121,56652,2,0,L|92:153,1,41.9999987182618,0|2,0:0|0:0,0:0:0:0:
27,226,56960,1,0,0:0:0:0:
80,312,57166,1,0,0:0:0:0:
176,352,57371,1,0,0:0:0:0:
136,264,57577,1,2,0:0:0:0:
240,256,57782,1,0,0:0:0:0:
184,168,57988,1,0,0:0:0:0:
184,168,58296,6,0,L|216:136,1,41.9999987182618,0|2,0:0|0:0,0:0:0:0:
280,56,58604,1,0,0:0:0:0:
344,136,58810,1,0,0:0:0:0:
344,136,59118,2,0,L|376:104,1,41.9999987182618,0|2,0:0|0:0,0:0:0:0:
448,32,59426,2,0,P|480:64|488:104,1,83.9999974365235
408,168,59837,1,0,0:0:0:0:
512,160,60043,1,6,0:0:0:0:
424,104,60248,1,0,0:0:0:0:
464,200,60453,1,4,0:0:0:0:
80,73,60864,5,2,0:0:0:0:
72,89,60967,1,0,0:0:0:0:
64,105,61070,1,0,0:0:0:0:
56,121,61173,1,0,0:0:0:0:
48,137,61275,6,0,B|112:168|112:168|184:168,1,125.999996154785,4|0,0:0|0:0,0:0:0:0:
208,168,61686,1,2,0:0:0:0:
256,256,61892,1,0,0:0:0:0:
304,168,62097,1,0,0:0:0:0:
304,168,62406,2,0,L|328:123,1,41.9999987182618,0|2,0:0|0:0,0:0:0:0:
369,40,62714,1,0,0:0:0:0:
467,20,62919,1,0,0:0:0:0:
488,208,63227,1,0,0:0:0:0:
352,344,63536,1,0,0:0:0:0:
380,247,63741,6,0,P|332:263|292:255,1,83.9999974365235
208,216,64152,2,0,P|149:210|97:238,1,83.9999974365235,2|0,0:0|0:0,0:0:0:0:
168,312,64563,1,4,0:0:0:0:
168,312,64974,6,0,P|210:323|251:309,1,83.9999974365235,2|0,0:0|0:0,0:0:0:0:
208,216,65385,1,4,0:0:0:0:
208,216,65796,6,0,P|247:202|286:215,1,83.9999974365235,2|0,0:0|0:0,0:0:0:0:
248,312,66207,1,4,0:0:0:0:
324,276,66412,1,0,0:0:0:0:
360,257,66515,1,0,0:0:0:0:
397,239,66618,6,0,L|450:211,3,41.9999987182618,2|0|0|0,0:0|0:0|0:0|0:0,0:0:0:0:
443,179,67029,2,0,L|450:129,3,41.9999987182618,0|0|0|0,0:0|0:0|0:0|0:0,0:0:0:0:
410,120,67440,2,0,L|367:101,3,41.9999987182618,2|0|0|0,0:0|0:0|0:0|0:0,0:0:0:0:
332,87,67851,6,0,P|293:140|290:208,1,125.999996154785,4|0,0:0|0:0,0:0:0:0:
291,240,68262,1,2,0:0:0:0:
214,305,68467,1,0,0:0:0:0:
138,239,68673,1,0,0:0:0:0:
138,239,68981,2,0,L|186:191,1,41.9999987182618,0|2,0:0|0:0,0:0:0:0:
242,135,69289,1,0,0:0:0:0:
310,208,69495,5,0,0:0:0:0:
310,208,69803,2,0,L|358:160,1,41.9999987182618,0|2,0:0|0:0,0:0:0:0:
414,104,70111,1,0,0:0:0:0:
335,40,70317,1,0,0:0:0:0:
231,32,70522,1,0,0:0:0:0:
293,110,70727,1,2,0:0:0:0:
215,174,70933,1,0,0:0:0:0:
310,208,71138,1,0,0:0:0:0:
310,208,71447,6,0,L|262:208,1,41.9999987182618,0|2,0:0|0:0,0:0:0:0:
166,208,71755,1,0,0:0:0:0:
166,107,71960,1,0,0:0:0:0:
166,107,72269,2,0,L|118:107,1,41.9999987182618,0|2,0:0|0:0,0:0:0:0:
225,106,72577,2,0,L|313:106,1,83.9999974365235
409,106,72988,1,0,0:0:0:0:
329,162,73193,1,6,0:0:0:0:
361,66,73399,1,0,0:0:0:0:
393,162,73604,1,4,0:0:0:0:
393,162,73912,6,0,L|409:210,1,41.9999987182618,0|2,0:0|0:0,0:0:0:0:
361,290,74221,1,0,0:0:0:0:
353,306,74323,1,0,0:0:0:0:
345,322,74426,6,0,B|289:290|289:290|225:290,1,125.999996154785,4|0,0:0|0:0,0:0:0:0:
185,290,74837,1,2,0:0:0:0:
257,218,75043,1,0,0:0:0:0:
177,154,75248,1,0,0:0:0:0:
273,114,75454,1,0,0:0:0:0:
273,114,75556,1,0,0:0:0:0:
273,114,75659,2,0,P|322:103|368:124,1,83.9999974365235,2|0,0:0|0:0,0:0:0:0:
441,170,76070,1,0,0:0:0:0:
441,170,76378,6,0,L|425:226,1,41.9999987182618,0|2,0:0|0:0,0:0:0:0:
401,306,76686,1,0,0:0:0:0:
300,310,76892,1,0,0:0:0:0:
204,279,77097,1,0,0:0:0:0:
256,192,77303,6,0,L|304:112,1,83.9999974365235,2|0,0:0|0:0,0:0:0:0:
352,32,77714,1,4,0:0:0:0:
256,192,78125,6,0,L|301:273,1,83.9999974365235,2|0,0:0|0:0,0:0:0:0:
346,355,78536,1,4,0:0:0:0:
256,192,78947,6,0,L|162:190,1,83.9999974365235,2|0,0:0|0:0,0:0:0:0:
69,188,79358,1,4,0:0:0:0:
136,264,79563,6,0,L|184:264,2,41.9999987182618,0|0|0,0:0|0:0|0:0,0:0:0:0:
80,344,79974,2,0,L|24:344,2,41.9999987182618,0|0|0,0:0|0:0|0:0,0:0:0:0:
184,344,80385,2,0,L|232:344,6,41.9999987182618,0|0|0|0|0|0|0,0:0|0:0|0:0|0:0|0:0|0:0|0:0,0:0:0:0:
144,280,81271,6,0,P|128:240|136:200,1,70
142,145,81793,1,0,0:0:0:0:
174,82,82066,1,0,0:0:0:0:
328,80,82684,6,0,P|348:109|348:145,1,56
356,183,83358,1,0,0:0:0:0:
256,320,84369,5,2,0:0:0:0:
