osu file format v12

[General]
AudioFilename: Cryogenic.mp3
AudioLeadIn: 0
PreviewTime: 10184
Countdown: 0
SampleSet: Soft
StackLeniency: 0.6
Mode: 0
LetterboxInBreaks: 0
WidescreenStoryboard: 0

[Editor]
DistanceSpacing: 1
BeatDivisor: 4
GridSize: 4

[Metadata]
Title:Cryogenic
TitleUnicode:Cryogenic
Artist:sleepless
ArtistUnicode:sleepless
Creator:Sweet Vanilla
Version:Easy
Source:
Tags:VOCALOID Hatsune Miku kigurumi nico nico douga
BeatmapID:359177
BeatmapSetID:111865

[Difficulty]
HPDrainRate:2
CircleSize:3
OverallDifficulty:2
ApproachRate:3
SliderMultiplier:0.999999999999999
SliderTickRate:1

[Events]
//Background and Video events
0,0,"Background.jpg",0,0
//Break Periods
2,48998,66368
2,129590,137655
2,241274,258843
//Storyboard Layer 0 (Background)
//Storyboard Layer 1 (Fail)
//Storyboard Layer 2 (Pass)
//Storyboard Layer 3 (Foreground)
//Storyboard Sound Samples
//Background Colour Transformations
3,100,163,162,255

[TimingPoints]
1274,594.059405940594,4,2,0,100,1,0
8402,-100,4,2,4,20,0,0
17610,-100,4,2,1,15,0,0
19689,-100,4,2,4,5,0,0
19838,-100,4,2,4,20,0,0
27115,-100,4,2,1,15,0,0
29194,-100,4,2,4,5,0,0
29343,-100,4,2,1,20,0,0
36620,-100,4,2,1,15,0,0
38699,-100,4,2,4,5,0,0
39145,-100,4,2,1,20,0,0
47907,-100,4,2,1,30,0,0
48056,-100,4,2,1,35,0,0
48204,-100,4,2,1,40,0,0
48353,-100,4,2,1,45,0,0
48501,-100,4,2,1,50,0,0
48650,-100,4,2,1,55,0,0
48798,-100,4,2,1,60,0,0
67511,-100,4,2,5,35,0,0
67882,-100,4,2,4,20,0,0
74640,-100,4,2,1,15,0,0
76719,-100,4,2,5,20,0,0
77016,-100,4,2,4,20,0,0
84145,-100,4,2,1,15,0,0
86818,-100,4,2,5,70,0,0
86892,-100,4,2,1,70,0,0
104937,-100,4,2,1,35,0,0
105828,-100,4,2,5,70,0,1
105902,-100,4,2,3,70,0,1
109838,-100,4,2,4,90,0,1
110135,-100,4,2,3,70,0,1
119343,-100,4,2,4,90,0,1
119640,-100,4,2,3,70,0,1
124764,-100,4,2,3,40,0,1
125135,-100,4,2,3,70,0,1
128254,-100,4,2,3,35,0,0
139021,-100,4,2,5,50,0,0
139689,-100,4,2,2,50,0,0
167536,-100,4,2,5,50,0,0
167684,-100,4,2,2,50,0,0
177041,-100,4,2,5,50,0,0
177709,-100,4,2,3,70,0,0
178749,-100,4,2,4,70,0,0
179046,-100,4,2,3,70,0,0
181793,-100,4,2,5,70,0,0
181942,-100,4,2,3,70,0,0
186546,-100,4,2,5,70,0,0
186694,-100,4,2,3,70,0,0
188254,-100,4,2,4,70,0,0
188551,-100,4,2,3,70,0,0
191298,-100,4,2,5,70,0,0
191447,-100,4,2,3,70,0,0
196125,-100,4,2,3,60,0,0
198501,-100,4,2,5,70,0,1
198575,-100,4,2,3,80,0,1
202511,-100,4,2,4,90,0,1
202808,-100,4,2,3,80,0,1
207932,-100,4,2,5,80,0,1
208080,-100,4,2,3,80,0,1
212016,-100,4,2,4,90,0,1
212313,-100,4,2,3,80,0,1
221521,-100,4,2,4,90,0,1
221818,-100,4,2,3,80,0,1
231026,-100,4,2,4,100,0,1
231323,-100,4,2,3,80,0,1
236521,-100,4,2,3,60,0,1
238897,-100,4,2,5,20,0,0
260283,-100,4,2,1,20,0,0

[Colours]
Combo1 : 192,192,192
Combo2 : 112,184,184
Combo3 : 106,181,255
SliderBorder : 255,255,255

[HitObjects]
88,240,10778,2,0,P|112:200|172:176,1,99.9999999999999,2|0,0:0|0:0,0:0:0:0:
180,80,11967,2,0,P|226:101|253:153,1,99.9999999999999,2|0,0:0|0:0,0:0:0:0:
260,240,13155,2,0,P|286:281|331:301,1,99.9999999999999,2|0,0:0|0:0,0:0:0:0:
352,204,14343,6,0,P|392:168|400:112,1,99.9999999999999,2|0,0:0|0:0,0:0:0:0:
384,76,15234,2,0,P|341:43|284:46,1,99.9999999999999,2|0,0:0|0:0,0:0:0:0:
252,68,16125,2,0,L|112:144,1,150,2|0,0:0|0:0,0:0:0:0:
256,192,17610,12,0,19689,0:0:0:0:
420,224,20283,6,0,P|392:288|344:304,1,99.9999999999999,2|0,0:0|0:0,0:0:0:0:
320,212,21472,2,0,P|280:241|267:288,1,99.9999999999999,2|0,0:0|0:0,0:0:0:0:
176,332,22660,2,0,P|124:348|80:324,1,99.9999999999999,2|0,0:0|0:0,0:0:0:0:
36,240,23848,6,0,P|40:180|104:136,1,99.9999999999999,2|0,0:0|0:0,0:0:0:0:
104,120,24739,2,0,P|164:104|220:156,1,99.9999999999999,2|0,0:0|0:0,0:0:0:0:
244,128,25630,2,0,P|300:144|404:120,1,150,2|0,0:0|0:0,0:0:0:0:
256,192,27115,12,0,29194,0:0:0:0:
180,316,29788,6,0,L|135:226,1,99.9999999999999,2|0,0:0|0:0,0:0:0:0:
232,200,30976,2,0,L|187:110,1,99.9999999999999,2|0,0:0|0:0,0:0:0:0:
288,100,32165,2,0,L|243:10,1,99.9999999999999,2|0,0:0|0:0,0:0:0:0:
148,36,33353,6,0,P|92:52|60:88,1,99.9999999999999,2|0,0:0|0:0,0:0:0:0:
44,127,34244,2,0,P|46:178|87:215,1,99.9999999999999,2|0,0:0|0:0,0:0:0:0:
125,229,35135,2,0,P|203:234|260:288,1,150,2|0,0:0|0:0,0:0:0:0:
256,192,36620,12,0,38699,0:0:0:0:
240,116,39293,6,0,L|124:52,1,99.9999999999999,2|0,0:0|0:0,0:0:0:0:
108,156,40481,2,0,L|195:204,1,99.9999999999999,2|0,0:0|0:0,0:0:0:0:
152,296,41670,2,0,L|239:344,1,99.9999999999999,2|0,0:0|0:0,0:0:0:0:
340,332,42858,6,0,P|408:292|420:232,1,99.9999999999999,2|0,0:0|0:0,0:0:0:0:
420,224,43749,2,0,P|392:176|340:156,1,99.9999999999999,2|0,0:0|0:0,0:0:0:0:
304,168,44640,2,0,P|228:192|148:156,1,150,2|0,0:0|0:0,0:0:0:0:
256,192,46125,12,4,48798,0:0:0:0:
224,344,67808,6,0,L|312:284,1,99.9999999999999,4|0,0:0|0:0,0:0:0:0:
232,220,68996,2,0,L|320:160,1,99.9999999999999,2|0,0:0|0:0,0:0:0:0:
240,96,70184,2,0,L|328:36,1,99.9999999999999,2|0,0:0|0:0,0:0:0:0:
424,48,71373,6,0,P|472:80|476:136,1,99.9999999999999,2|2,0:0|0:0,0:0:0:0:
464,168,72264,2,0,P|396:212|348:208,1,99.9999999999999,2|0,0:0|0:0,0:0:0:0:
328,216,73155,2,0,P|256:204|216:124,1,150,2|0,0:0|0:0,0:0:0:0:
256,192,74640,12,8,76719,0:0:0:0:
264,48,77313,6,0,L|176:108,1,99.9999999999999,2|0,0:0|0:0,0:0:0:0:
256,172,78501,2,0,L|168:232,1,99.9999999999999,2|0,0:0|0:0,0:0:0:0:
248,296,79689,2,0,L|160:356,1,99.9999999999999,2|0,0:0|0:0,0:0:0:0:
64,344,80877,6,0,P|16:312|12:256,1,99.9999999999999,2|2,0:0|0:0,0:0:0:0:
8,224,81769,2,0,P|44:188|124:188,1,99.9999999999999,2|0,0:0|0:0,0:0:0:0:
140,176,82660,2,0,P|230:226|250:273,1,150,2|0,0:0|0:0,0:0:0:0:
256,192,84145,12,0,86224,0:0:0:0:
160,176,86818,6,0,P|84:216|64:256,1,99.9999999999999,4|8,0:0|0:0,0:0:0:0:
164,272,88006,2,0,P|240:232|260:192,1,99.9999999999999,0|8,0:0|0:0,0:0:0:0:
244,124,89194,2,0,P|320:148|344:204,1,99.9999999999999,2|8,0:0|0:0,0:0:0:0:
352,260,90382,2,0,P|386:293|435:302,1,99.9999999999999,0|8,0:0|0:0,0:0:0:0:
432,204,91571,6,0,L|480:104,1,99.9999999999999,4|8,0:0|0:0,0:0:0:0:
380,72,92759,1,0,0:0:0:0:
284,48,93353,1,8,0:0:0:0:
184,64,93947,6,0,P|96:96|80:136,1,99.9999999999999,2|8,0:0|0:0,0:0:0:0:
84,196,95135,2,0,P|172:164|188:124,1,99.9999999999999,0|8,0:0|0:0,0:0:0:0:
256,108,96323,6,0,P|324:140|336:176,1,99.9999999999999,4|8,0:0|0:0,0:0:0:0:
364,252,97511,2,0,L|284:340,1,99.9999999999999,0|8,0:0|0:0,0:0:0:0:
200,344,98699,1,2,0:0:0:0:
108,300,99293,1,8,0:0:0:0:
64,212,99887,6,0,P|60:140|92:96,1,99.9999999999999,0|8,0:0|0:0,0:0:0:0:
148,52,101075,2,0,P|200:40|272:76,1,99.9999999999999,2|8,0:0|0:0,0:0:0:0:
328,104,102264,1,0,0:0:0:0:
420,60,102858,1,8,0:0:0:0:
448,156,103452,6,0,P|460:224|432:260,1,99.9999999999999,4|0,0:0|0:0,0:0:0:0:
412,284,104343,2,0,P|340:320|276:292,1,150
196,240,105828,6,0,L|128:144,1,99.9999999999999,4|8,0:0|0:0,0:0:0:0:
236,132,107016,2,0,L|293:213,1,99.9999999999999,0|8,0:0|0:0,0:0:0:0:
380,260,108204,2,0,P|452:252|484:196,1,99.9999999999999,2|8,0:0|0:0,0:0:0:0:
464,136,109392,1,0,0:0:0:0:
392,68,109986,1,8,0:0:0:0:
292,72,110580,6,0,P|228:112|172:96,1,99.9999999999999,2|8,0:0|0:0,0:0:0:0:
116,64,111769,2,0,P|103:106|121:165,1,99.9999999999999,0|8,0:0|0:0,0:0:0:0:
164,248,112957,2,0,P|216:232|260:252,1,99.9999999999999,2|8,0:0|0:0,0:0:0:0:
320,328,114145,1,0,0:0:0:0:
384,248,114739,1,8,0:0:0:0:
480,216,115333,6,0,P|448:164|400:148,1,99.9999999999999,4|8,0:0|0:0,0:0:0:0:
312,152,116521,1,0,0:0:0:0:
232,212,117115,1,8,0:0:0:0:
132,220,117709,6,0,P|92:172|96:116,2,99.9999999999999,2|8|0,0:0|0:0|0:0,0:0:0:0:
184,136,119491,1,8,0:0:0:0:
138,43,120085,2,0,P|62:34|28:55,1,99.9999999999999,2|8,0:0|0:0,0:0:0:0:
43,143,121274,2,0,P|90:157|137:143,1,99.9999999999999,0|8,0:0|0:0,0:0:0:0:
227,98,122462,6,0,L|319:34,2,99.9999999999999,2|8|0,0:0|0:0|0:0,0:0:0:0:
187,189,124244,2,0,P|179:249|223:289,1,99.9999999999999,8|4,0:0|0:0,0:0:0:0:
256,192,125135,12,2,128254,0:0:0:0:
48,320,139095,6,0,P|88:264|144:256,1,99.9999999999999,4|8,0:0|0:0,0:0:0:0:
216,260,140283,2,0,P|260:238|283:194,1,99.9999999999999,0|8,0:0|0:0,0:0:0:0:
376,228,141472,2,0,P|385:179|364:135,1,99.9999999999999,0|8,0:0|0:0,0:0:0:0:
296,64,142660,6,0,P|220:76|176:52,1,99.9999999999999,0|10,0:0|0:0,0:0:0:0:
100,68,143848,2,0,P|36:92|20:136,1,99.9999999999999,2|8,0:0|0:0,0:0:0:0:
28,216,145036,2,0,P|57:255|105:265,1,99.9999999999999,0|8,0:0|0:0,0:0:0:0:
204,264,146224,5,0,0:0:0:0:
288,208,146818,1,8,0:0:0:0:
308,112,147412,2,0,P|371:148|383:177,1,99.9999999999999,0|8,0:0|0:0,0:0:0:0:
392,268,148600,6,0,L|308:332,1,99.9999999999999,2|8,0:0|0:0,0:0:0:0:
248,252,149788,2,0,L|164:316,1,99.9999999999999,0|8,0:0|0:0,0:0:0:0:
92,248,150976,2,0,L|8:312,1,99.9999999999999,0|8,0:0|0:0,0:0:0:0:
8,208,152165,6,0,P|52:160|112:160,1,99.9999999999999,0|8,0:0|0:0,0:0:0:0:
184,148,153353,1,2,0:0:0:0:
284,148,153947,2,0,L|392:148,1,99.9999999999999,8|0,0:0|0:0,0:0:0:0:
412,52,155135,2,0,L|284:52,1,99.9999999999999,8|0,0:0|0:0,0:0:0:0:
212,56,156323,1,8,0:0:0:0:
144,128,156917,2,0,P|112:84|120:48,2,74.9999999999999,10|10|10,0:0|0:0|0:0,0:0:0:0:
172,168,158105,6,0,P|216:244|208:288,1,99.9999999999999,6|8,0:0|0:0,0:0:0:0:
160,336,159293,2,0,P|220:356|268:332,1,99.9999999999999,0|8,0:0|0:0,0:0:0:0:
324,276,160481,2,0,P|371:264|416:284,1,99.9999999999999,2|8,0:0|0:0,0:0:0:0:
424,184,161670,2,0,L|368:80,1,99.9999999999999,0|8,0:0|0:0,0:0:0:0:
280,64,162858,6,0,P|316:12|356:0,1,99.9999999999999,2|8,0:0|0:0,0:0:0:0:
376,96,164046,2,0,P|351:138|304:160,1,99.9999999999999,0|8,0:0|0:0,0:0:0:0:
216,208,165234,2,0,P|171:228|147:271,1,99.9999999999999,2|8,0:0|0:0,0:0:0:0:
244,300,166422,1,0,0:0:0:0:
340,276,167016,1,8,0:0:0:0:
404,200,167610,6,0,P|424:136|464:112,1,99.9999999999999,4|8,0:0|0:0,0:0:0:0:
380,44,168798,2,0,P|345:79|297:88,1,99.9999999999999,0|8,0:0|0:0,0:0:0:0:
196,84,169986,2,0,P|147:75|113:39,1,99.9999999999999,2|8,0:0|0:0,0:0:0:0:
44,112,171174,1,0,0:0:0:0:
92,200,171769,1,8,0:0:0:0:
188,232,172363,5,2,0:0:0:0:
288,212,172957,2,0,P|332:184|384:184,1,99.9999999999999,8|0,0:0|0:0,0:0:0:0:
356,280,174145,2,0,P|312:308|260:308,1,99.9999999999999,8|2,0:0|0:0,0:0:0:0:
164,308,175333,2,0,P|88:244|112:144,1,200,8|8,0:0|0:0,0:0:0:0:
180,92,177115,6,0,P|224:108|284:92,1,99.9999999999999,4|8,0:0|0:0,0:0:0:0:
372,68,178303,2,0,P|416:112|416:152,1,99.9999999999999,0|8,0:0|0:0,0:0:0:0:
368,232,179491,2,0,L|296:304,1,99.9999999999999,2|8,0:0|0:0,0:0:0:0:
196,304,180679,5,0,0:0:0:0:
112,252,181274,2,0,P|76:192|92:148,1,99.9999999999999,8|4,0:0|0:0,0:0:0:0:
33,77,182462,2,0,P|77:64|135:85,1,99.9999999999999,8|0,0:0|0:0,0:0:0:0:
218,120,183650,1,8,0:0:0:0:
309,79,184244,6,0,P|365:59|409:71,1,99.9999999999999,2|8,0:0|0:0,0:0:0:0:
463,147,185432,2,0,P|407:167|363:155,1,99.9999999999999,0|8,0:0|0:0,0:0:0:0:
270,137,186620,5,4,0:0:0:0:
172,159,187214,1,8,0:0:0:0:
93,220,187808,2,0,P|69:268|85:316,1,99.9999999999999,0|8,0:0|0:0,0:0:0:0:
174,273,188996,6,0,P|222:257|278:277,1,99.9999999999999,2|8,0:0|0:0,0:0:0:0:
359,311,190184,2,0,P|406:323|453:307,1,99.9999999999999,0|8,0:0|0:0,0:0:0:0:
400,220,191373,1,4,0:0:0:0:
468,148,191967,2,0,P|404:120|300:196,1,200,8|8,0:0|0:0,0:0:0:0:
228,252,193749,6,0,P|180:280|132:268,1,99.9999999999999,0|8,0:0|0:0,0:0:0:0:
72,200,194937,2,0,P|112:173|161:179,1,99.9999999999999,0|8,0:0|0:0,0:0:0:0:
256,192,196125,12,0,197907,0:0:0:0:
324,228,198501,6,0,P|338:180|323:134,1,99.9999999999999,4|8,0:0|0:0,0:0:0:0:
248,68,199689,2,0,P|196:56|148:80,1,99.9999999999999,0|8,0:0|0:0,0:0:0:0:
208,160,200877,2,0,P|148:184|88:152,1,99.9999999999999,2|8,0:0|0:0,0:0:0:0:
72,84,202066,2,0,P|24:120|12:176,1,99.9999999999999,0|8,0:0|0:0,0:0:0:0:
36,252,203254,5,2,0:0:0:0:
116,312,203848,2,0,P|164:328|220:308,1,99.9999999999999,8|0,0:0|0:0,0:0:0:0:
288,252,205036,1,8,0:0:0:0:
360,184,205630,2,0,P|408:177|454:201,1,99.9999999999999,2|8,0:0|0:0,0:0:0:0:
388,280,206818,5,0,0:0:0:0:
288,252,207412,1,8,0:0:0:0:
268,156,208006,2,0,P|276:96|336:64,2,99.9999999999999,4|8|0,0:0|0:0|0:0,0:0:0:0:
196,228,209788,6,0,P|186:286|141:318,1,99.9999999999999,8|2,0:0|0:0,0:0:0:0:
100,232,210976,1,8,0:0:0:0:
12,184,211571,2,0,P|68:140|128:144,1,99.9999999999999,0|8,0:0|0:0,0:0:0:0:
194,133,212759,5,2,0:0:0:0:
292,147,213353,1,8,0:0:0:0:
372,208,213947,1,0,0:0:0:0:
383,306,214541,1,8,0:0:0:0:
372,208,215135,6,0,P|424:128|450:117,1,99.9999999999999,2|8,0:0|0:0,0:0:0:0:
364,48,216323,2,0,P|296:76|248:60,1,99.9999999999999,0|8,0:0|0:0,0:0:0:0:
176,52,217511,6,0,L|88:120,1,99.9999999999999,4|8,0:0|0:0,0:0:0:0:
20,180,218699,1,0,0:0:0:0:
96,244,219293,1,8,0:0:0:0:
176,184,219887,6,0,L|255:122,1,99.9999999999999,2|8,0:0|0:0,0:0:0:0:
336,64,221075,1,0,0:0:0:0:
408,132,221670,1,8,0:0:0:0:
500,168,222264,6,0,P|460:220|420:232,1,99.9999999999999,2|8,0:0|0:0,0:0:0:0:
332,256,223452,2,0,P|287:277|261:319,1,99.9999999999999,0|8,0:0|0:0,0:0:0:0:
356,352,224640,1,2,0:0:0:0:
448,316,225234,1,8,0:0:0:0:
440,216,225828,6,0,P|412:160|360:148,1,99.9999999999999,0|8,0:0|0:0,0:0:0:0:
280,168,227016,2,0,P|308:224|360:236,2,99.9999999999999,4|8|0,0:0|0:0|0:0,0:0:0:0:
248,72,228798,1,8,0:0:0:0:
148,68,229392,6,0,P|96:72|52:120,1,99.9999999999999,2|8,0:0|0:0,0:0:0:0:
60,204,230580,2,0,P|98:235|147:237,1,99.9999999999999,0|8,0:0|0:0,0:0:0:0:
232,188,231769,5,2,0:0:0:0:
292,108,232363,1,8,0:0:0:0:
392,88,232957,1,0,0:0:0:0:
468,152,233551,1,8,0:0:0:0:
428,244,234145,6,0,P|376:256|328:228,1,99.9999999999999,2|8,0:0|0:0,0:0:0:0:
248,184,235333,2,0,P|203:164|155:176,1,99.9999999999999,0|8,0:0|0:0,0:0:0:0:
256,192,236521,12,6,238897,0:0:0:0:
116,64,260283,6,0,P|116:104|140:136,1,74.9999999999999
396,320,262660,6,0,P|396:280|372:248,1,74.9999999999999
72,264,265036,6,0,P|120:272|152:248,1,74.9999999999999
440,120,267412,6,0,P|392:112|360:136,1,74.9999999999999
