osu file format v14

[General]
AudioFilename: skydelta - kreuz.mp3
AudioLeadIn: 0
PreviewTime: 55532
Countdown: 0
SampleSet: Soft
StackLeniency: 0.5
Mode: 0
LetterboxInBreaks: 0
WidescreenStoryboard: 0

[Editor]
Bookmarks: 3400,24384
DistanceSpacing: 1
BeatDivisor: 4
GridSize: 4
TimelineZoom: 1.8

[Metadata]
Title:Kreuz
TitleUnicode:Kreuz
Artist:sky_delta
ArtistUnicode:sky_delta
Creator:Side
Version:Normal
Source:BMS
Tags:Project XideChain IDM Frenz inukoro 2014 G2R20104 Atsuro BrosephStalin Irreversible
BeatmapID:769744
BeatmapSetID:347551

[Difficulty]
HPDrainRate:4
CircleSize:3.4
OverallDifficulty:4
ApproachRate:5
SliderMultiplier:1
SliderTickRate:1

[Events]
//Background and Video events
0,0,"bgthing.jpg",0,0
Video,-705,"vid.avi"
//Break Periods
2,66387,75643
//Storyboard Layer 0 (Background)
//Storyboard Layer 1 (Fail)
//Storyboard Layer 2 (Pass)
//Storyboard Layer 3 (Foreground)
//Storyboard Sound Samples

[TimingPoints]
778,327.868852459016,4,2,0,30,1,0
6023,-100,4,2,1,35,0,0
8318,-100,4,2,1,40,0,0
9630,-100,4,2,1,45,0,0
10941,-100,4,2,1,50,0,0
11925,-100,4,2,1,55,0,0
13892,-100,4,2,1,45,0,0
24384,-100,4,2,1,50,0,0
34876,-100,4,2,1,55,0,0
45368,-100,4,2,1,60,0,1
55859,-100,4,2,1,60,0,0
82417,-100,4,2,1,45,0,0
89302,-100,4,2,1,60,0,0
89630,327.868852459016,3,2,1,75,1,1
105367,327.868852459016,4,2,1,75,1,0
113235,-100,4,2,1,50,0,0
121268,-100,4,2,1,15,0,0

[Colours]
Combo1 : 131,185,194
Combo2 : 188,188,188
Combo3 : 64,193,217
Combo4 : 133,214,147

[HitObjects]
69,96,3400,6,0,P|125:90|173:112,1,100,2|0,0:0|0:0,0:0:0:0:
199,143,3892,1,2,0:0:0:0:
214,296,4384,2,0,P|158:302|110:280,1,100,2|0,0:0|0:0,0:0:0:0:
87,244,4876,1,2,0:0:0:0:
443,96,6023,6,0,P|387:89|339:111,1,100,2|0,0:0|0:0,0:0:0:0:
313,142,6515,1,2,0:0:0:0:
298,295,7007,2,0,P|353:301|401:279,1,100,2|0,0:0|0:0,0:0:0:0:
425,243,7499,1,2,0:0:0:0:
211,109,8318,6,2,L|157:141,1,50
126,162,8646,2,0,P|159:252|260:265,1,200,2|0,0:0|0:0,0:0:0:0:
340,216,9630,1,2,0:0:0:0:
340,216,9958,2,2,P|364:157|391:128,1,100,2|0,0:0|0:0,0:0:0:0:
430,103,10450,1,2,0:0:0:0:
284,76,10941,6,2,P|256:116|208:144,1,100
224,344,11925,2,2,P|242:324|264:312,1,50
310,300,12253,2,2,P|331:287|348:269,1,50
375,226,12581,1,2,0:0:0:0:
351,77,13073,1,2,0:0:0:0:
322,36,13237,2,0,P|278:16|225:16,1,100,2|8,0:0|0:0,0:0:0:0:
132,48,13892,6,0,P|125:104|154:157,1,100,6|8,0:0|0:0,0:0:0:0:
178,179,14384,1,2,0:0:0:0:
323,142,14876,2,0,P|333:193|317:241,1,100,10|2,0:0|0:0,0:0:0:0:
289,278,15368,1,0,0:0:0:0:
148,334,15859,2,0,L|91:309,1,50,2|0,0:0|0:0,0:0:0:0:
57,290,16187,1,10,0:0:0:0:
24,195,16515,6,0,P|50:143|89:120,1,100,2|8,2:0|2:0,2:0:0:0:
133,110,17007,1,2,0:0:0:0:
282,95,17499,2,0,P|286:145|264:189,1,100,10|0,2:0|2:0,2:0:0:0:
226,221,17991,1,2,0:0:0:0:
227,370,18482,2,2,L|282:343,1,50,2|0,0:0|0:0,0:0:0:0:
320,332,18810,2,2,L|376:304,1,50,10|2,0:0|0:0,0:0:0:0:
408,284,19138,6,0,P|448:276|372:128,1,300,6|0,0:0|0:0,0:0:0:0:
280,140,20450,1,0,3:2:0:0:
184,172,20777,1,0,3:2:0:0:
216,264,21105,1,0,3:2:0:0:
312,232,21433,1,0,3:2:0:0:
408,264,21761,6,0,B|416:216|416:216|392:168,1,100,6|8,3:2|3:2,0:0:0:0:
296,184,22417,2,0,B|273:138|273:138|281:90,1,100,2|8,3:2|3:2,0:0:0:0:
316,54,22909,1,2,0:0:0:0:
365,48,23073,2,0,B|397:48|429:32|429:32|481:80|487:159,1,200,2|0,3:2|3:2,0:0:0:0:
336,280,24384,5,4,0:0:0:0:
240,312,24712,1,2,0:0:0:0:
144,280,25040,2,0,P|108:244|88:200,1,100,0|2,0:0|0:0,0:0:0:0:
80,104,25696,1,0,0:0:0:0:
176,80,26023,1,2,0:0:0:0:
272,112,26351,2,0,P|292:152|344:184,1,100,0|2,0:0|0:0,0:0:0:0:
423,232,27007,6,0,P|436:183|424:134,1,100,2|2,0:0|0:0,0:0:0:0:
383,107,27499,2,0,P|344:76|330:19,1,100,2|2,0:0|0:0,0:0:0:0:
272,112,28155,2,0,P|270:161|242:202,1,100,2|2,0:0|0:0,0:0:0:0:
143,221,28810,2,0,L|152:277,1,50,2|2,0:0|0:0,0:0:0:0:
152,320,29138,2,0,L|112:360,2,50,2|2|0,0:0|0:0|0:0,0:0:0:0:
200,336,29630,6,0,P|237:363|293:368,1,100,2|2,0:0|0:0,0:0:0:0:
272,272,30286,2,0,P|318:264|360:228,1,100,2|2,0:0|0:0,0:0:0:0:
280,176,30941,2,0,P|307:138|312:82,1,100,2|2,0:0|0:0,0:0:0:0:
216,104,31597,2,0,P|208:57|172:15,1,100,2|2,0:0|0:0,0:0:0:0:
119,100,32253,6,0,P|81:72|25:67,1,100,2|2,0:0|0:0,0:0:0:0:
0,106,32745,2,0,P|23:156|67:183,1,100,2|2,2:0|0:0,0:0:0:0:
157,196,33400,1,2,0:0:0:0:
205,209,33564,2,0,B|234:235|282:239|282:239|258:326|327:372|327:372|360:359|379:328,1,300,6|0,0:0|0:0,0:0:0:0:
397,234,34876,6,0,P|389:186|357:146,1,100,6|10,0:0|0:0,0:0:0:0:
261,116,35532,2,0,L|157:132,1,100,2|10,0:0|0:0,0:0:0:0:
79,187,36187,2,0,L|168:241,1,100,2|10,0:0|0:0,0:0:0:0:
252,288,36843,1,2,0:0:0:0:
335,228,37171,1,10,0:0:0:0:
276,148,37499,6,0,B|300:132|300:132|332:148|372:148,1,100,2|10,0:0|0:0,0:0:0:0:
428,228,38155,2,0,B|404:244|404:244|372:228|332:228,1,100,2|10,0:0|0:0,0:0:0:0:
252,288,38810,1,2,0:0:0:0:
156,264,39138,1,10,0:0:0:0:
148,164,39466,1,2,0:0:0:0:
244,188,39794,2,0,L|276:140,1,50,8|0,0:0|0:0,0:0:0:0:
312,116,40122,6,0,L|336:220,1,100,2|10,0:0|0:0,0:0:0:0:
420,160,40777,2,0,L|396:56,1,100,2|10,0:0|0:0,0:0:0:0:
304,24,41433,2,0,P|252:40|212:72,1,100,2|10,0:0|0:0,0:0:0:0:
132,120,42089,2,0,P|168:156|224:164,1,100,2|10,0:0|0:0,0:0:0:0:
316,152,42745,5,2,0:0:0:0:
276,244,43073,1,10,0:0:0:0:
214,165,43400,1,2,0:0:0:0:
176,256,43728,1,10,0:0:0:0:
116,176,44056,2,2,B|92:128|92:128|44:104,1,100,2|10,0:0|0:0,0:0:0:0:
32,204,44712,2,0,L|56:252,1,50,2|0,0:0|0:0,0:0:0:0:
88,284,45040,2,0,L|152:284,1,50,10|0,0:0|0:0,0:0:0:0:
188,280,45368,5,6,0:0:0:0:
272,224,45696,2,0,L|289:275,1,50,10|0,0:0|0:0,0:0:0:0:
304,320,46023,2,0,P|352:296|384:256,1,100,2|10,0:0|0:0,0:0:0:0:
416,168,46679,1,2,0:0:0:0:
384,72,47007,1,10,0:0:0:0:
320,152,47335,2,0,L|280:120,1,50,2|0,0:0|0:0,0:0:0:0:
232,112,47663,2,0,L|192:80,1,50,10|0,0:0|0:0,0:0:0:0:
144,72,47991,6,0,B|104:40|104:40|64:72,1,100,2|10,0:0|0:0,0:0:0:0:
48,117,48482,1,0,0:0:0:0:
56,166,48646,2,0,B|69:214|69:214|115:232,1,100,2|10,0:0|0:0,0:0:0:0:
212,200,49302,2,0,P|254:176|303:175,1,100,2|10,2:0|0:0,0:0:0:0:
351,194,49794,1,0,0:0:0:0:
401,191,49958,2,0,L|417:135,1,50,2|2,0:0|0:0,0:0:0:0:
396,96,50286,2,0,L|380:40,1,50,10|2,0:0|0:0,0:0:0:0:
340,16,50614,6,0,P|300:40|268:88,1,100,2|10,0:0|0:0,0:0:0:0:
271,133,51105,1,0,0:0:0:0:
289,179,51269,1,2,0:0:0:0:
216,248,51597,1,10,0:0:0:0:
120,256,51925,2,0,P|137:302|175:333,1,100,2|10,0:0|0:0,0:0:0:0:
225,342,52417,1,0,0:0:0:0:
273,328,52581,2,0,P|297:312|329:304,1,50,2|0,0:0|0:0,0:0:0:0:
367,302,52909,2,0,P|390:293|410:279,1,50,10|0,0:0|0:0,0:0:0:0:
441,238,53237,6,0,P|461:190|457:142,1,100,2|10,0:0|0:0,0:0:0:0:
361,174,53892,1,2,0:0:0:0:
381,74,54220,1,10,0:0:0:0:
286,108,54548,2,0,L|227:113,1,50,2|2,0:0|0:0,0:0:0:0:
197,144,54876,2,0,L|206:196,1,50,10|2,0:0|0:0,0:0:0:0:
204,294,55368,2,0,L|147:272,2,50,2|8|2,0:0|0:0|0:0,0:0:0:0:
252,308,55859,6,0,P|340:260|388:172,1,200,6|10,0:0|0:0,0:0:0:0:
436,32,57007,2,0,B|384:4|328:36|328:36|268:72|192:32,1,250,2|8,0:0|0:0,0:0:0:0:
96,20,58155,1,8,0:0:0:0:
40,104,58482,6,0,P|40:200|88:296,1,200,2|10,0:0|0:0,0:0:0:0:
228,336,59630,2,0,B|292:344|332:304|332:304|308:268,1,150,2|0,0:0|0:0,0:0:0:0:
280,232,60286,1,0,0:0:0:0:
256,188,60450,2,0,P|248:137|272:91,1,100,8|8,0:0|0:0,0:0:0:0:
311,68,60941,6,0,P|383:73|441:130,1,150,4|10,0:0|0:0,0:0:0:0:
452,223,61761,2,0,L|496:255,2,50,2|2|10,0:0|0:0|0:0,0:0:0:0:
400,228,62253,2,0,P|352:244|304:236,1,100,2|2,0:0|0:0,0:0:0:0:
248,151,62909,2,0,P|295:135|344:144,2,100,0|2|2,0:0|0:0|0:0,0:0:0:0:
140,256,64056,6,0,L|116:152,1,100,10|10,0:0|0:0,0:0:0:0:
103,110,64548,2,0,P|111:59|98:10,2,100,6|6|0,0:0|0:0|0:0,0:0:0:0:
69,147,65368,2,0,P|32:178|15:228,1,100,10|10,0:0|0:0,0:0:0:0:
20,275,65859,1,6,0:0:0:0:
111,234,66187,1,6,0:0:0:0:
256,192,76843,6,0,P|308:188|352:208,1,100,6|8,0:0|0:0,0:0:0:0:
288,288,77499,2,0,B|256:288|256:288|240:320|208:336,1,100,2|10,0:0|0:0,0:0:0:0:
160,323,77991,1,8,0:0:0:0:
119,292,78155,2,0,P|99:246|100:196,1,100,2|8,0:0|0:0,0:0:0:0:
146,108,78810,2,0,L|196:83,1,50,2|0,0:0|0:0,0:0:0:0:
238,101,79138,2,0,L|292:95,1,50,10|8,0:0|0:0,0:0:0:0:
335,112,79466,6,0,P|381:128|413:165,1,100,2|8,0:0|0:0,0:0:0:0:
432,264,80122,2,0,P|384:264|336:280,1,100,2|8,0:0|0:0,0:0:0:0:
304,320,80614,1,8,0:0:0:0:
256,312,80777,2,0,P|239:289|236:216,1,100,2|8,0:0|0:0,0:0:0:0:
176,140,81433,2,0,P|160:156|144:188,1,50,8|0,0:0|0:0,0:0:0:0:
140,228,81761,2,0,P|128:249|110:267,1,50,8|8,0:0|0:0,0:0:0:0:
68,296,82089,6,0,P|96:336|152:352,1,100,6|0,0:0|0:0,0:0:0:0:
224,292,82745,2,0,P|252:252|308:236,1,100,2|0,0:0|0:0,0:0:0:0:
349,239,83237,1,0,0:0:0:0:
398,232,83400,2,0,P|430:194|434:145,1,100,2|0,0:0|0:0,0:0:0:0:
372,68,84056,2,0,P|324:60|268:68,1,100,2|2,0:0|0:0,0:0:0:0:
228,88,84548,1,2,0:0:0:0:
188,120,84712,6,0,B|164:152|132:168|132:168|164:224|236:232,1,200,2|2,0:0|0:0,0:0:0:0:
356,324,85859,2,0,P|292:348|212:332,2,150,2|2|2,0:0|0:0|0:0,0:0:0:0:
394,292,87007,1,2,0:0:0:0:
414,246,87171,1,2,0:0:0:0:
256,192,87335,12,2,88646,0:0:0:0:
104,112,89302,5,0,0:0:0:0:
104,112,89630,2,0,B|64:192|104:272|104:272|152:216|224:216,1,300,6|0,0:0|0:0,0:0:0:0:
320,224,90941,1,2,0:0:0:0:
360,312,91269,1,2,0:0:0:0:
272,360,91597,6,0,P|241:316|198:305,1,100,2|0,0:0|0:0,0:0:0:0:
99,290,92252,1,2,0:0:0:0:
47,205,92580,2,0,P|74:157|120:128,1,100,2|0,0:0|0:0,0:0:0:0:
208,113,93236,1,2,0:0:0:0:
256,128,93400,1,2,0:0:0:0:
304,128,93564,6,0,B|358:109|358:109|410:170|383:244,1,200,2|0,0:0|0:0,0:0:0:0:
330,327,94548,2,0,P|304:285|261:256,1,100,2|0,0:0|0:0,0:0:0:0:
168,232,95203,1,0,0:0:0:0:
118,145,95531,6,0,P|174:73|278:41,1,200,2|0,0:0|0:0,0:0:0:0:
376,56,96515,2,0,P|376:104|352:152,1,100,2|0,0:0|0:0,0:0:0:0:
264,192,97170,1,2,0:0:0:0:
216,208,97334,1,2,0:0:0:0:
168,224,97498,6,0,P|152:272|160:320,1,100,6|0,0:0|0:0,0:0:0:0:
256,352,98154,1,2,0:0:0:0:
352,344,98482,2,0,P|396:324|420:280,2,100,2|0|2,0:0|0:0|0:0,0:0:0:0:
328,248,99466,6,0,P|328:200|352:152,1,100,2|0,0:0|0:0,0:0:0:0:
424,80,100121,1,2,0:0:0:0:
488,152,100449,2,0,P|488:200|464:248,1,100,2|0,0:0|0:0,0:0:0:0:
400,320,101105,1,2,0:0:0:0:
352,336,101269,1,2,0:0:0:0:
304,320,101433,6,0,P|256:304|208:304,1,100,2|0,0:0|0:0,0:0:0:0:
112,328,102089,1,2,0:0:0:0:
48,256,102416,2,0,P|56:200|40:144,2,100,2|0|2,0:0|0:0|0:0,0:0:0:0:
144,240,103400,6,0,P|192:224|232:192,1,100,2|0,0:0|0:0,0:0:0:0:
276,104,104056,1,2,0:0:0:0:
211,27,104384,2,0,P|256:4|307:10,1,100,2|0,0:0|0:0,0:0:0:0:
388,62,105039,1,2,0:0:0:0:
400,110,105203,1,2,0:0:0:0:
408,160,105367,6,0,P|384:232|328:288,1,150,6|6,0:0|0:0,0:0:0:0:
196,223,106350,2,0,P|197:148|231:82,1,150,6|0,0:0|0:0,0:0:0:0:
271,51,107006,1,10,0:0:0:0:
175,21,107334,1,2,0:0:0:0:
84,62,107662,2,0,L|113:120,1,50,10|0,0:0|0:0,0:0:0:0:
101,156,107989,6,0,P|96:243|164:337,1,200,2|2,0:0|0:0,0:0:0:0:
257,341,108973,1,8,0:0:0:0:
356,327,109301,2,0,P|386:298|400:231,1,100,0|10,3:2|3:1,0:0:0:0:
392,193,109793,1,0,3:0:0:0:
361,153,109957,2,0,L|307:118,1,50,0|0,3:2|3:2,0:0:0:0:
268,122,110285,2,0,L|226:149,1,50,10|0,3:1|3:2,0:0:0:0:
187,180,110612,5,6,3:2:0:0:
256,192,110776,12,0,112580,0:0:0:0:
115,220,113235,6,0,L|98:172,2,50,2|0|2,0:0|0:0|0:0,0:0:0:0:
158,310,113891,2,0,P|213:309|262:291,1,100,2|0,0:0|0:0,0:0:0:0:
294,264,114383,2,0,P|341:248|391:249,1,100,2|0,0:0|0:0,0:0:0:0:
440,261,114875,1,2,0:0:0:0:
379,341,115203,2,0,P|349:350|323:350,2,50,2|0|2,0:0|0:0|0:0,0:0:0:0:
341,248,115858,6,0,P|344:216|357:193,2,50,2|0|0,0:0|0:0|0:0,0:0:0:0:
251,293,116514,2,0,P|200:297|154:273,1,100,2|0,0:0|0:0,0:0:0:0:
119,243,117006,2,0,P|117:196|91:142,1,100,2|0,2:0|2:0,2:0:0:0:
69,105,117498,2,0,P|62:86|62:55,1,50,2|0,0:0|0:0,0:0:0:0:
101,25,117826,2,0,P|135:20|167:27,1,50,2|0,0:0|0:0,0:0:0:0:
199,34,118153,1,2,0:0:0:0:
286,82,118481,6,0,P|303:132|304:188,1,100,2|0,0:0|0:0,0:0:0:0:
284,224,118973,2,0,P|286:273|303:320,1,100,2|0,0:0|0:0,0:0:0:0:
347,343,119465,2,0,P|381:332|402:315,1,50,2|0,0:0|0:0,0:0:0:0:
406,275,119793,2,0,P|393:231|400:170,1,100,2|0,0:0|0:0,0:0:0:0:
448,91,120448,2,0,L|400:61,1,50,2|0,0:0|0:0,0:0:0:0:
356,51,120776,2,0,L|308:81,1,50,2|0,0:0|0:0,0:0:0:0:
270,104,121104,1,6,0:0:0:0:
256,192,121268,12,2,123563,0:0:0:0:
