osu file format v14

[General]
AudioFilename: skydelta - kreuz.mp3
AudioLeadIn: 0
PreviewTime: 55532
Countdown: 0
SampleSet: Soft
StackLeniency: 0.3
Mode: 0
LetterboxInBreaks: 0
WidescreenStoryboard: 1

[Editor]
DistanceSpacing: 1.2
BeatDivisor: 8
GridSize: 4
TimelineZoom: 1.999998

[Metadata]
Title:Kreuz
TitleUnicode:Kreuz
Artist:sky_delta
ArtistUnicode:sky_delta
Creator:Side
Version:Irre's Extra
Source:BMS
Tags:Project XideChain IDM Frenz inukoro 2014 G2R20104 Atsuro BrosephStalin Irreversible
BeatmapID:832346
BeatmapSetID:347551

[Difficulty]
HPDrainRate:6.5
CircleSize:6.5
OverallDifficulty:9.5
ApproachRate:9.3
SliderMultiplier:1.4
SliderTickRate:1

[Events]
//Background and Video events
0,0,"bgthing.jpg",0,0
Video,-705,"vid.avi"
//Break Periods
//Storyboard Layer 0 (Background)
//Storyboard Layer 1 (Fail)
//Storyboard Layer 2 (Pass)
//Storyboard Layer 3 (Foreground)
//Storyboard Sound Samples

[TimingPoints]
778,327.868852459016,4,1,0,15,1,0
3400,-133.333333333333,4,2,0,75,0,0
9957,-153.846153846153,4,2,0,75,0,0
12580,-153.846153846154,4,2,0,75,0,0
12744,-147.058823529412,4,2,0,75,0,0
12908,-140.845070422535,4,2,0,75,0,0
13072,-135.135135135135,4,2,0,75,0,0
13236,-129.87012987013,4,2,0,75,0,0
13399,-123.456790123457,4,2,0,75,0,0
13563,-119.047619047619,4,2,0,75,0,0
13727,-114.942528735632,4,2,0,75,0,0
13891,-111.111111111111,4,2,0,75,0,0
18809,-90.9090909090909,4,2,0,75,0,0
19137,-111.111111111111,4,2,0,75,0,0
19465,-117.647058823529,4,2,0,75,0,0
19793,-125,4,2,0,75,0,0
20121,-133.333333333333,4,2,0,75,0,0
20777,-117.647058823529,4,2,0,75,0,0
21104,-105.263157894737,4,2,0,75,0,0
21432,-95.2380952380952,4,2,0,75,0,0
23727,-133.333333333333,4,2,0,75,0,0
24383,-100,4,2,0,75,0,0
27006,-95.2380952380952,4,2,0,75,0,0
29547,-100,4,2,0,75,0,0
32252,-95.2380952380952,4,2,0,75,0,0
34547,-133.333333333333,4,2,0,75,0,0
34875,-95.2380952380952,4,2,0,65,0,0
45367,-90.9090909090909,4,2,0,75,0,0
49957,-76.9230769230769,4,2,0,75,0,0
51269,-90.9090909090909,4,2,0,75,0,0
55859,-200,4,2,0,75,0,0
57006,-166.666666666667,4,2,0,75,0,0
58154,-133.333333333333,4,2,0,75,0,0
58809,-166.666666666667,4,2,0,75,0,0
60940,-125,4,2,0,75,0,0
61432,-125,4,2,0,76,0,0
61924,-114.942528735632,4,2,0,76,0,0
62416,-106.382978723404,4,2,0,76,0,0
62908,-98.0392156862745,4,2,0,76,0,0
66186,-600,4,2,0,76,0,0
66350,-200,4,2,0,35,0,0
73563,-200,4,2,0,5,0,0
73727,-200,4,2,0,35,0,0
76842,-100,4,2,0,50,0,0
82088,-133.333333333333,3,2,0,40,0,0
86022,-800,3,2,0,30,0,0
87169,-200,4,2,0,40,0,0
88481,-200,4,2,0,5,0,0
88645,-100,4,2,0,75,0,0
89301,-74.0740740740741,4,2,0,75,0,0
89630,327.868852459016,3,2,0,75,1,1
89630,-83.3333333333333,3,2,0,75,0,1
90285,-83.3333333333333,3,2,0,55,0,1
91269,-83.3333333333333,3,2,0,75,0,1
95449,-83.3333333333333,3,2,0,75,0,0
95531,-83.3333333333333,3,2,0,75,0,1
97662,-83.3333333333333,3,2,0,55,0,1
99138,-83.3333333333333,3,2,0,75,0,1
105367,327.868852459016,4,2,0,80,1,0
105367,-83.3333333333333,4,2,0,80,0,0
107989,-100,4,2,0,80,0,0
109957,-83.3333333333333,4,2,0,60,0,0
110285,-83.3333333333333,4,2,0,70,0,0
110610,-133.333333333333,4,2,0,75,0,0
111227,-200,4,2,0,5,0,0
111268,-200,4,2,0,90,0,0
113071,-133.333333333333,4,2,0,5,0,0
113235,-133.333333333333,4,2,0,45,0,0
121102,-133.333333333333,4,2,0,30,0,0

[Colours]
Combo1 : 236,89,152
Combo2 : 181,120,254
Combo3 : 64,193,217
Combo4 : 226,232,115

[HitObjects]
104,188,3400,6,0,P|96:162|104:134,1,52.5000020027161,4|2,1:0|0:0,0:0:0:0:
48,264,3728,1,0,0:0:0:0:
192,320,3892,2,0,L|320:312,1,105.000004005432,2|2,0:0|0:0,0:0:0:0:
436,192,4384,1,2,0:0:0:0:
416,108,4548,1,0,0:0:0:0:
332,132,4712,1,0,0:0:0:0:
352,216,4876,2,0,L|224:224,1,105.000004005432,2|0,0:0|0:0,0:0:0:0:
64,128,5368,6,0,P|52:100|52:76,1,52.5000020027161,2|0,0:0|0:0,0:0:0:0:
124,32,5696,2,0,P|136:60|136:84,1,52.5000020027161,2|0,0:0|0:0,0:0:0:0:
28,240,6023,6,0,P|76:236|136:256,1,105.000004005432,2|0,0:0|0:0,0:0:0:0:
52,256,6515,2,0,P|99:260|155:290,1,105.000004005432,2|0,0:0|0:0,0:0:0:0:
208,344,7007,2,0,P|254:319|306:314,1,105.000004005432,2|0,0:0|0:0,0:0:0:0:
228,310,7499,2,0,P|277:294|329:297,1,105.000004005432,2|0,0:0|0:0,0:0:0:0:
424,344,7991,5,0,0:0:0:0:
424,344,8155,1,0,0:0:0:0:
424,344,8318,1,2,0:0:0:0:
344,192,8482,1,0,0:0:0:0:
372,108,8646,5,2,0:0:0:0:
372,108,8974,1,0,0:0:0:0:
372,108,9302,1,0,0:0:0:0:
372,108,9630,5,2,0:0:0:0:
284,128,9958,2,0,B|140:116|140:116|180:104,2,181.999991668702,2|0|2,0:0|0:0|0:0,0:0:0:0:
379,285,11925,5,0,0:0:0:0:
466,165,12089,1,2,0:0:0:0:
326,211,12253,1,2,0:0:0:0:
466,256,12417,1,2,0:0:0:0:
369,129,12581,6,0,L|365:103,1,22.7499989585877,2|0,0:0|0:0,0:0:0:0:
356,126,12745,6,0,L|352:101,1,23.8000001452637,0|2,0:0|0:0,0:0:0:0:
342,123,12909,6,0,L|338:98,1,24.8499987487031,2|0,0:0|0:0,0:0:0:0:
328,121,13073,6,0,L|324:95,1,25.9000006323242,2|2,0:0|0:0,0:0:0:0:
312,120,13237,5,2,0:0:0:0:
301,147,13318,1,2,0:0:0:0:
276,162,13400,1,2,0:0:0:0:
247,161,13482,1,0,0:0:0:0:
224,144,13564,1,0,1:0:0:0:
215,116,13646,1,0,0:0:0:0:
224,88,13728,2,0,P|184:108|180:108,1,30.4500002555466,2|2,0:0|0:0,0:0:0:0:
60,40,13892,6,0,L|80:168,1,125.999996154785,4|0,1:0|0:0,0:0:0:0:
82,243,14384,2,0,B|103:148|103:148|70:171,1,125.999996154785,2|0,0:0|1:0,0:0:0:0:
48,296,14876,6,0,P|96:340|152:328,1,125.999996154785,2|0,0:0|0:0,0:0:0:0:
256,351,15368,2,2,P|192:365|149:326,1,125.999996154785,2|0,0:0|0:0,0:0:0:0:
260,236,15859,1,0,0:0:0:0:
260,236,15941,1,0,1:0:0:0:
260,236,16023,1,0,0:0:0:0:
362,327,16187,2,0,L|428:337,1,62.9999980773926,0|0,1:0|0:0,0:0:0:0:
256,64,16515,6,0,P|192:40|136:68,1,125.999996154785,2|0,0:0|1:0,0:0:0:0:
84,124,17007,2,0,P|148:148|204:120,1,125.999996154785,2|0,0:0|1:0,0:0:0:0:
256,64,17499,2,0,P|320:40|376:68,1,125.999996154785,2|0,0:0|0:0,0:0:0:0:
428,124,17991,2,0,P|364:148|308:120,1,125.999996154785,2|0,0:0|0:0,0:0:0:0:
144,64,18482,1,0,0:0:0:0:
144,64,18564,1,0,1:0:0:0:
144,64,18646,1,0,0:0:0:0:
314,126,18810,2,0,P|340:160|336:216,1,77.0000023498536,0|2,1:0|0:0,0:0:0:0:
256,312,19138,6,0,L|176:304,1,62.9999980773926,4|0,1:0|0:0,0:0:0:0:
244,324,19466,6,0,L|164:316,1,59.5000011348725,2|0,0:0|0:0,0:0:0:0:
228,336,19794,6,0,L|148:328,1,56,2|2,0:0|0:0,0:0:0:0:
216,348,20122,6,0,L|152:341,1,52.5000020027161,2|0,0:0|0:0,0:0:0:0:
64,244,20450,6,0,B|52:221|52:221|50:183,1,52.5000020027161,2|0,0:0|0:0,0:0:0:0:
118,155,20777,6,0,B|119:129|119:129|136:95,1,59.5000011348725,2|0,0:0|0:0,0:0:0:0:
208,104,21105,6,0,B|222:81|222:81|256:58,1,66.4999982242585,2|0,0:0|0:0,0:0:0:0:
320,100,21433,6,0,B|345:86|345:86|389:84,1,73.4999977569581,2|0,0:0|0:0,0:0:0:0:
464,160,21761,5,2,1:2:0:0:
452,272,21925,1,0,1:0:0:0:
352,196,22089,1,0,1:0:0:0:
340,308,22253,1,0,1:0:0:0:
208,104,22417,5,2,1:2:0:0:
196,216,22581,1,0,1:0:0:0:
96,140,22745,1,0,1:0:0:0:
84,252,22909,1,0,1:0:0:0:
80,268,22991,1,0,1:0:0:0:
77,281,23073,5,0,1:0:0:0:
87,315,23155,1,0,1:0:0:0:
113,340,23237,1,0,1:0:0:0:
148,350,23318,1,0,1:0:0:0:
183,343,23400,2,0,L|206:301,1,36.749998878479,0|0,1:0|1:0,0:0:0:0:
284,300,23564,2,0,L|292:264,1,36.749998878479,0|0,1:0|1:0,0:0:0:0:
428,356,23728,6,0,P|456:360|480:352,1,52.5000020027161,4|0,3:0|0:0,0:0:0:0:
400,164,24056,5,2,0:0:0:0:
376,152,24138,1,0,0:0:0:0:
350,151,24220,1,2,0:0:0:0:
326,160,24302,1,0,0:0:0:0:
308,180,24384,6,0,L|296:92,1,70,4|2,1:0|0:0,0:0:0:0:
216,64,24712,1,0,1:0:0:0:
139,134,24876,2,0,P|92:148|32:88,1,140,2|2,0:0|0:0,0:0:0:0:
216,64,25368,2,0,L|225:133,1,70,0|2,1:0|0:0,0:0:0:0:
104,224,25696,5,0,1:0:0:0:
104,224,25859,1,2,0:0:0:0:
184,272,26023,5,0,1:0:0:0:
56,320,26187,1,2,0:0:0:0:
200,272,26351,5,0,1:0:0:0:
82,341,26515,1,2,0:0:0:0:
216,268,26679,5,0,1:0:0:0:
111,356,26843,1,2,0:0:0:0:
312,312,27007,5,2,1:2:0:0:
312,312,27171,2,0,L|388:320,1,73.4999977569581,2|0,0:0|1:0,0:0:0:0:
460,240,27499,2,0,B|440:192|440:192|476:100,1,146.999995513916,2|2,0:0|0:0,0:0:0:0:
496,103,28155,2,0,B|461:191|461:191|481:239,1,146.999995513916,2|2,0:0|0:0,0:0:0:0:
364,192,28646,6,0,P|328:180|272:188,1,73.4999977569581,0|2,1:2|0:0,0:0:0:0:
180,88,28974,2,0,P|187:125|222:169,1,73.4999977569581,0|2,1:0|0:0,0:0:0:0:
184,296,29302,2,0,P|212:270|233:218,1,73.4999977569581,0|2,1:0|0:0,0:0:0:0:
256,100,29630,5,2,1:2:0:0:
96,156,29794,1,2,0:0:0:0:
184,296,29958,1,0,1:0:0:0:
344,240,30122,1,2,0:0:0:0:
212,142,30286,6,0,P|192:110|196:70,1,70,0|2,1:0|0:0,0:0:0:0:
406,226,30614,2,0,P|405:260|385:288,1,70,0|2,1:0|0:0,0:0:0:0:
256,356,30941,5,0,1:0:0:0:
140,328,31105,1,2,0:0:0:0:
256,356,31269,1,0,1:0:0:0:
100,224,31433,1,2,0:0:0:0:
256,96,31597,5,0,1:0:0:0:
344,104,31761,1,2,0:0:0:0:
238,94,31925,1,0,1:0:0:0:
361,105,32089,1,2,0:0:0:0:
208,44,32253,5,0,1:0:0:0:
256,296,32417,2,0,L|284:208,1,73.4999977569581,2|0,0:0|1:0,0:0:0:0:
344,280,32745,2,0,B|372:184|372:184|420:180,1,146.999995513916,2|2,0:0|0:0,0:0:0:0:
256,364,33400,5,2,0:0:0:0:
144,312,33564,1,4,1:0:0:0:
252,192,33728,1,2,1:3:0:0:
144,312,33892,1,2,1:3:0:0:
252,192,34056,6,0,L|240:148,1,36.749998878479,0|2,1:0|1:3,0:0:0:0:
164,128,34220,2,0,L|175:83,1,36.749998878479,2|2,1:3|1:3,0:0:0:0:
96,188,34384,1,0,1:0:0:0:
256,68,34548,6,0,L|268:8,1,52.5000020027161,2|2,0:0|0:0,0:0:0:0:
456,192,34876,6,0,P|472:244|456:280,1,73.4999977569581,4|0,1:0|0:0,0:0:0:0:
396,332,35204,1,0,1:0:0:0:
304,324,35368,1,2,0:0:0:0:
176,356,35532,1,2,1:0:0:0:
72,272,35696,1,2,0:1:0:0:
84,364,35859,1,2,1:0:0:0:
164,264,36023,2,0,B|183:219|183:219|155:115,1,146.999995513916,2|2,0:1|0:1,0:1:0:0:
132,40,36515,1,0,1:0:0:0:
308,136,36679,5,2,0:0:0:0:
416,120,36843,1,2,1:2:0:0:
376,220,37007,1,2,0:0:0:0:
484,236,37171,1,2,1:2:0:0:
376,220,37335,5,2,0:0:0:0:
60,328,37663,1,2,0:0:0:0:
152,274,37827,6,0,P|167:307|168:343,1,73.4999977569581,2|2,1:2|0:0,0:0:0:0:
136,204,38155,2,0,P|151:237|152:273,1,73.4999977569581,2|2,1:0|0:1,0:0:0:0:
52,148,38482,5,2,1:0:0:0:
256,72,38646,1,2,0:1:0:0:
347,126,38810,6,0,P|362:92|363:56,1,73.4999977569581,2|2,1:2|0:0,0:0:0:0:
428,192,39138,1,0,1:0:0:0:
348,258,39302,6,0,P|362:291|363:327,1,73.4999977569581,2|0,0:2|1:0,0:0:0:0:
256,368,39630,1,2,0:0:0:0:
164,258,39794,1,0,1:0:0:0:
148,327,39958,6,0,P|149:291|164:258,1,73.4999977569581,2|0,0:0|1:0,0:0:0:0:
120,84,40286,2,2,P|156:85|190:100,1,73.4999977569581,2|0,0:0|1:0,0:0:0:0:
363,56,40614,2,0,P|362:92|348:126,1,73.4999977569581,2|2,0:1|1:0,0:0:0:0:
391,299,40941,2,0,P|355:298|322:284,1,73.4999977569581,2|2,0:1|1:0,0:0:0:0:
83,212,41269,6,0,P|110:186|144:173,1,73.4999977569581,2|0,0:1|1:0,0:0:0:0:
235,19,41597,2,0,P|261:46|274:80,1,73.4999977569581,2|0,0:0|1:0,0:0:0:0:
428,171,41925,2,0,P|414:185|396:191,2,36.749998878479,2|0|0,0:1|0:0|1:0,0:0:0:0:
276,364,42253,2,0,P|262:350|256:332,2,36.749998878479,2|0|0,0:1|0:0|1:0,0:0:0:0:
120,84,42581,2,0,P|139:84|156:92,1,36.749998878479,2|0,0:1|0:0,0:0:0:0:
256,192,42745,6,0,L|180:228,1,73.4999977569581,2|2,1:2|0:0,0:0:0:0:
352,200,42991,1,0,0:0:0:0:
360,200,43073,2,0,L|436:164,1,73.4999977569581,2|2,1:2|0:0,0:0:0:0:
308,152,43318,1,2,0:0:0:0:
309,144,43400,2,0,L|273:68,1,73.4999977569581,2|2,1:2|0:0,0:0:0:0:
302,244,43646,1,2,0:0:0:0:
302,252,43728,2,0,L|338:328,1,73.4999977569581,2|2,1:2|0:0,0:0:0:0:
256,368,43974,1,2,0:0:0:0:
256,368,44056,5,0,1:0:0:0:
308,192,44384,5,0,1:0:0:0:
256,16,44712,5,2,1:2:0:0:
40,240,45040,6,0,P|4:220|0:212,1,36.749998878479,8|2,1:3|0:0,0:0:0:0:
40,132,45204,2,0,P|4:152|0:160,1,36.749998878479,2|2,0:0|0:0,0:0:0:0:
48,184,45368,5,4,1:0:0:0:
80,196,45450,1,2,0:0:0:0:
116,192,45532,2,0,L|132:148,1,38.5000011749268,2|2,0:0|0:0,0:0:0:0:
184,248,45696,2,0,L|196:324,1,77.0000023498536,0|2,1:0|0:0,0:0:0:0:
260,364,45941,1,2,0:0:0:0:
292,348,46023,1,0,1:0:0:0:
332,348,46105,1,2,0:0:0:0:
364,364,46187,2,0,L|356:320,1,38.5000011749268,2|2,0:0|0:0,0:0:0:0:
424,288,46351,2,0,L|417:249,1,38.5000011749268,0|2,1:0|0:0,0:0:0:0:
344,240,46515,2,0,L|336:196,1,38.5000011749268,2|2,0:0|0:0,0:0:0:0:
414,162,46679,6,0,L|408:124,1,38.5000011749268,4|2,1:0|0:0,0:0:0:0:
302,85,46843,1,2,0:0:0:0:
302,85,46925,1,2,0:0:0:0:
302,85,47007,2,0,L|296:48,1,38.5000011749268,0|2,1:0|0:0,0:0:0:0:
236,156,47171,2,0,L|242:193,1,38.5000011749268,2|2,0:0|0:0,0:0:0:0:
148,104,47335,5,0,1:0:0:0:
111,91,47417,1,2,0:0:0:0:
74,96,47499,1,2,0:0:0:0:
43,119,47581,1,2,0:0:0:0:
26,153,47663,2,0,P|52:204|52:216,1,38.5000011749268,0|2,1:0|0:0,0:0:0:0:
64,324,47827,2,0,P|76:309|85:292,1,38.5000011749268,2|2,0:0|0:0,0:0:0:0:
200,260,47991,6,0,L|296:268,1,77.0000023498536,4|2,1:0|0:0,0:0:0:0:
352,304,48237,1,2,0:0:0:0:
352,304,48318,2,0,L|446:286,1,77.0000023498536,0|2,1:0|0:0,0:0:0:0:
484,232,48564,1,2,0:0:0:0:
484,232,48646,2,0,P|496:192|492:176,1,38.5000011749268,0|2,1:0|0:0,0:0:0:0:
464,120,48810,1,2,0:0:0:0:
441,115,48892,1,2,0:0:0:0:
418,111,48974,1,0,1:0:0:0:
395,107,49056,1,2,0:0:0:0:
372,104,49138,2,0,L|364:52,1,38.5000011749268,2|2,0:0|0:0,0:0:0:0:
252,172,49302,6,0,L|200:180,1,38.5000011749268,4|2,1:0|0:0,0:0:0:0:
134,146,49466,2,0,L|96:152,1,38.5000011749268,2|2,0:0|0:0,0:0:0:0:
264,188,49630,2,0,L|212:196,1,38.5000011749268,0|2,1:0|0:0,0:0:0:0:
146,162,49794,2,0,L|108:168,1,38.5000011749268,2|2,0:0|0:0,0:0:0:0:
52,264,49958,1,0,1:0:0:0:
66,315,50039,1,2,0:0:0:0:
106,351,50122,1,2,0:0:0:0:
159,360,50203,1,2,0:0:0:0:
209,338,50286,6,0,P|272:332|288:344,1,45.4999979171754,2|2,1:2|0:0,0:0:0:0:
344,288,50450,2,0,P|393:327|396:347,1,45.4999979171754,2|2,0:0|0:0,0:0:0:0:
464,224,50614,5,4,1:0:0:0:
439,204,50696,1,2,0:0:0:0:
429,175,50777,1,2,0:0:0:0:
439,145,50859,1,2,0:0:0:0:
464,126,50941,2,0,L|400:116,1,45.4999979171754,0|2,1:0|0:0,0:0:0:0:
352,60,51105,2,0,L|307:67,1,45.4999979171754,2|2,0:0|0:0,0:0:0:0:
248,124,51269,5,0,1:0:0:0:
212,153,51351,1,2,0:0:0:0:
167,158,51433,1,2,0:0:0:0:
126,139,51515,1,2,0:0:0:0:
102,100,51597,1,0,1:0:0:0:
58,114,51679,1,2,0:0:0:0:
29,149,51761,1,0,0:0:0:0:
24,194,51843,1,2,0:0:0:0:
44,236,51925,6,0,L|40:284,3,38.5000011749268,4|2|2|2,1:0|0:0|0:0|0:0,0:0:0:0:
124,288,52253,2,0,L|127:326,3,38.5000011749268,0|2|2|2,1:0|0:0|0:0|0:0,0:0:0:0:
200,224,52581,5,0,1:0:0:0:
208,170,52663,1,2,0:0:0:0:
212,116,52745,2,0,L|195:57,1,38.5000011749268,2|2,0:0|0:0,0:0:0:0:
296,132,52909,2,0,L|306:168,1,38.5000011749268,0|2,1:0|0:0,0:0:0:0:
360,68,53073,2,0,L|343:9,1,38.5000011749268,2|2,0:0|0:0,0:0:0:0:
488,192,53237,5,4,1:0:0:0:
495,229,53318,1,2,0:0:0:0:
490,267,53400,1,2,0:0:0:0:
472,301,53482,1,2,1:2:0:0:
444,327,53564,1,0,1:0:0:0:
409,343,53646,1,2,1:2:0:0:
371,345,53728,1,2,1:2:0:0:
334,335,53810,1,2,1:2:0:0:
303,313,53892,6,0,L|252:324,1,38.5000011749268,2|2,1:2|1:2,0:0:0:0:
168,304,54056,1,2,1:2:0:0:
168,304,54138,1,2,1:2:0:0:
168,304,54220,6,0,L|132:311,3,19.2500005874634,0|0|0|0,1:0|1:0|1:0|1:0,0:0:0:0:
220,240,54384,2,0,L|240:235,3,19.2500005874634,0|0|0|0,1:0|1:0|1:0|1:0,0:0:0:0:
148,192,54548,5,2,1:0:0:0:
125,156,54630,1,2,1:0:0:0:
123,114,54712,1,2,1:0:0:0:
141,77,54794,1,2,1:0:0:0:
176,53,54876,1,2,1:0:0:0:
217,49,54958,1,2,1:0:0:0:
256,65,55040,1,2,1:0:0:0:
16,144,55368,5,2,1:0:0:0:
46,140,55450,1,2,1:0:0:0:
77,137,55532,1,2,1:2:0:0:
107,133,55614,1,2,1:2:0:0:
138,130,55696,1,2,1:2:0:0:
169,127,55777,1,2,1:2:0:0:
199,123,55859,6,0,B|220:80|220:80|256:168,1,140,4|2,1:0|1:2,0:0:0:0:
104,316,57007,1,2,1:2:0:0:
104,316,57171,2,0,L|44:312,1,41.9999987182618,0|0,0:0|1:0,0:0:0:0:
256,360,57499,2,0,B|316:341|316:341|288:340,1,83.9999974365235,0|0,0:0|1:0,0:0:0:0:
88,144,58073,1,0,1:0:0:0:
88,144,58155,6,0,P|76:112|76:84,1,52.5000020027161,2|2,1:2|0:0,0:0:0:0:
154,173,58482,1,2,1:2:0:0:
154,173,58810,6,0,P|138:197|70:213,1,83.9999974365235,2|2,0:0|1:2,0:0:0:0:
290,289,59302,2,0,P|319:291|367:342,1,83.9999974365235,2|2,0:0|1:2,0:0:0:0:
323,113,59794,2,0,P|310:87|330:20,1,83.9999974365235
88,141,60286,6,0,L|68:115,1,20.9999993591309,0|0,1:0|1:0,0:0:0:0:
88,141,60450,2,0,P|104:117|172:101,1,83.9999974365235,2|0,1:2|1:0,0:0:0:0:
140,284,60941,6,0,P|103:304|28:284,1,112,4|2,1:0|0:0,0:0:0:0:
31,286,61351,1,0,1:0:0:0:
29,280,61433,6,0,L|50:152,1,112,0|0,1:0|0:0,0:0:0:0:
45,269,61925,6,0,L|66:141,1,121.800001022186,2|2,1:2|1:2,0:0:0:0:
61,257,62417,6,0,L|83:123,1,131.599997991943,2|0,0:0|1:0,0:0:0:0:
77,245,62909,6,0,L|101:105,1,142.800000871582,2|2,0:0|0:0,0:0:0:0:
156,336,63400,1,0,1:0:0:0:
256,168,63564,1,2,1:2:0:0:
480,304,64056,6,0,P|424:272|344:272,1,142.800000871582,0|0,1:0|0:0,0:0:0:0:
309,139,64548,6,0,P|309:203|349:272,1,142.800000871582,2|2,0:0|1:2,0:0:0:0:
252,368,65040,6,0,P|307:335|347:266,1,142.800000871582,2|0,0:0|1:0,0:0:0:0:
196,88,65532,5,0,1:0:0:0:
196,88,65696,1,0,1:0:0:0:
132,180,65859,1,0,1:0:0:0:
300,96,66023,1,0,1:0:0:0:
256,368,66187,6,0,L|283:204,1,163.333333333333,4|2,1:0|0:0,0:0:0:0:
299,95,68646,1,2,0:0:0:0:
175,122,68810,6,0,P|213:90|309:102,1,140,2|2,0:0|0:0,0:0:0:0:
184,320,70122,6,0,P|131:328|87:299,1,105,2|2,0:0|0:0,0:0:0:0:
148,260,70941,1,0,0:0:0:0:
120,100,71105,1,2,0:0:0:0:
320,244,71597,2,0,L|400:240,1,70,2|0,0:0|0:0,0:0:0:0:
328,325,72089,6,0,B|275:333|228:285|237:228|237:228|207:238|207:238|196:164|119:153,1,315,2|0,0:0|0:0,0:0:0:0:
324,248,73728,5,2,0:0:0:0:
324,248,73892,1,0,0:0:0:0:
324,248,74056,1,2,0:0:0:0:
76,120,75040,5,2,0:0:0:0:
176,72,75204,1,2,0:0:0:0:
168,183,75368,1,2,0:0:0:0:
364,304,75696,1,2,0:0:0:0:
371,74,76023,1,2,0:0:0:0:
204,248,76351,6,0,P|156:256|112:232,1,87.5,2|0,0:0|0:0,0:0:0:0:
168,188,76843,6,0,P|220:156|272:172,1,105,4|0,1:0|0:0,0:0:0:0:
312,221,77171,2,0,L|300:305,1,70,0|0,1:0|0:0,0:0:0:0:
260,164,77417,2,0,L|269:94,1,70,0|0,1:0|0:0,0:0:0:0:
220,33,77663,1,0,1:0:0:0:
63,137,77827,6,0,L|30:138,7,17.5,0|0|0|0|0|0|0|0,1:0|1:0|1:0|1:0|1:0|1:0|1:0|1:0,0:0:0:0:
81,136,78155,6,2,L|68:200,1,35,2|0,0:0|0:0,0:0:0:0:
256,345,78482,1,2,0:0:0:0:
256,345,78564,1,0,0:0:0:0:
421,259,78728,1,2,1:2:0:0:
262,161,78892,1,0,1:0:0:0:
262,161,78974,6,0,L|267:121,5,35,2|0|2|0|2|0,0:0|0:0|0:0|0:0|0:0|0:0,0:0:0:0:
204,208,79466,6,0,P|166:195|117:208,1,70,2|0,1:2|0:0,0:0:0:0:
40,149,79794,1,0,1:0:0:0:
166,289,79958,2,0,L|164:265,3,17.5,0|0|0|0,1:0|1:0|1:0|0:0,0:0:0:0:
168,308,80122,6,0,P|199:334|215:338,1,35,2|0,0:0|0:0,0:0:0:0:
266,359,80286,2,0,P|306:355|320:346,1,35,2|0,0:0|0:0,0:0:0:0:
377,347,80450,5,0,1:0:0:0:
407,330,80532,1,2,0:0:0:0:
432,305,80614,1,0,0:0:0:0:
448,274,80696,1,2,0:0:0:0:
455,240,80777,1,2,1:2:0:0:
451,205,80859,1,2,0:0:0:0:
438,173,80941,1,0,0:0:0:0:
416,146,81023,1,2,0:0:0:0:
387,126,81105,1,0,0:0:0:0:
354,115,81187,1,2,0:0:0:0:
319,115,81269,1,2,0:0:0:0:
286,124,81351,1,2,0:0:0:0:
256,143,81433,6,0,L|238:89,1,35,2|0,0:0|0:0,0:0:0:0:
162,105,81597,2,0,L|152:77,3,17.5,0|0|0|0,1:0|1:0|1:0|1:0,0:0:0:0:
148,128,81761,5,2,0:0:0:0:
347,213,81925,1,2,0:0:0:0:
100,340,82089,6,0,L|39:336,1,52.5000020027161,4|0,1:0|0:0,0:0:0:0:
152,336,82417,6,0,L|91:340,1,52.5000020027161
204,339,82745,6,0,L|143:335,1,52.5000020027161
256,335,83073,6,0,L|195:339,1,52.5000020027161,0|0,1:0|0:0,0:0:0:0:
308,338,83400,6,0,L|247:334,1,52.5000020027161,2|0,0:0|0:0,0:0:0:0:
360,334,83728,6,0,L|299:338,1,52.5000020027161,2|0,0:0|0:0,0:0:0:0:
412,337,84056,6,0,L|351:333,1,52.5000020027161,2|0,0:0|0:0,0:0:0:0:
464,333,84384,6,0,L|403:337,1,52.5000020027161,2|2,0:0|0:0,0:0:0:0:
139,246,84712,6,0,P|116:144|124:80,1,157.500006008148,2|0,0:0|0:0,0:0:0:0:
390,92,85368,2,0,P|394:170|373:246,1,157.500006008148,2|0,0:0|0:0,0:0:0:0:
217,100,86023,6,0,L|205:49,1,52.5,2|2,0:0|0:0,0:0:0:0:
140,116,87171,6,0,P|170:163|195:49,1,280,2|0,0:0|0:0,0:0:0:0:
24,244,88646,5,0,1:2:0:0:
46,275,88728,1,0,1:2:0:0:
74,301,88810,1,0,1:2:0:0:
106,321,88892,1,0,1:2:0:0:
143,334,88974,1,0,1:2:0:0:
181,340,89056,1,0,1:2:0:0:
219,337,89138,1,0,1:2:0:0:
256,327,89220,1,0,1:2:0:0:
290,309,89302,6,2,B|285:289|285:289|383:315|383:315|377:293,1,141.750000540733,0|0,0:0|0:0,1:0:0:0:
359,164,89630,6,0,L|402:63,1,83.9999974365235,4|0,1:0|0:0,0:0:0:0:
254,176,89957,2,0,L|286:98,1,83.9999974365235,0|0,1:0|0:0,0:0:0:0:
209,36,90285,5,2,1:0:0:0:
189,19,90367,1,2,1:0:0:0:
166,9,90449,1,2,1:0:0:0:
142,6,90531,1,2,1:0:0:0:
117,9,90613,1,2,1:0:0:0:
94,19,90695,1,2,1:0:0:0:
75,36,90777,1,2,1:0:0:0:
61,57,90859,1,2,1:0:0:0:
54,82,90941,6,0,L|68:131,1,41.9999987182618,2|2,1:0|1:0,0:0:0:0:
37,200,91105,2,0,L|51:249,1,41.9999987182618,2|0,1:0|1:0,0:0:0:0:
88,343,91269,6,0,P|138:367|187:355,1,83.9999974365235,2|0,1:0|0:0,0:0:0:0:
320,229,91597,6,0,P|359:192|378:308,1,251.999992309571,4|0,1:0|0:0,0:0:0:0:
192,229,92252,2,0,P|178:164|186:145,1,83.9999974365235,2|0,1:0|0:0,0:0:0:0:
192,229,92580,6,0,P|153:192|134:308,1,251.999992309571,4|0,1:0|0:0,0:0:0:0:
320,229,93236,2,0,P|334:164|326:145,1,83.9999974365235,2|2,1:0|1:0,0:0:0:0:
185,55,93564,6,0,L|89:63,1,83.9999974365235,4|0,1:0|0:0,0:0:0:0:
177,70,93810,1,2,0:0:0:0:
177,70,93892,6,0,L|81:78,1,83.9999974365235,2|2,1:0|0:0,0:0:0:0:
166,86,94138,1,2,0:0:0:0:
166,86,94220,6,0,L|70:94,1,83.9999974365235,2|2,1:0|0:0,0:0:0:0:
40,162,94466,1,2,0:0:0:0:
40,162,94548,6,0,L|51:209,1,41.9999987182618,2|2,1:0|0:0,0:0:0:0:
137,315,94711,2,0,L|126:268,1,41.9999987182618,2|2,0:1|0:0,0:0:0:0:
206,185,94875,2,0,L|217:232,1,41.9999987182618,2|2,1:0|0:0,0:0:0:0:
303,338,95039,2,0,L|292:291,1,41.9999987182618,2|2,0:1|0:0,0:0:0:0:
350,180,95203,5,2,1:0:0:0:
376,168,95285,1,2,0:0:0:0:
405,166,95367,1,2,0:0:0:0:
433,176,95449,1,2,0:0:0:0:
455,195,95531,6,0,P|459:142|450:120,1,41.9999987182618,6|0,1:0|0:0,0:0:0:0:
406,72,95695,6,0,P|370:31|348:22,1,41.9999987182618,2|2,0:0|0:0,0:0:0:0:
275,38,95859,6,0,P|221:34|199:43,1,41.9999987182618,2|2,0:0|0:0,0:0:0:0:
151,87,96023,6,0,P|110:122|101:144,1,41.9999987182618
89,203,96187,6,0,P|85:256|94:278,1,41.9999987182618,2|2,1:2|0:0,0:0:0:0:
138,327,96351,6,0,P|173:367|195:376,1,41.9999987182618,2|2,1:2|0:0,0:0:0:0:
349,360,96515,6,0,P|363:345|374:327,1,41.9999987182618,6|2,1:0|0:0,0:0:0:0:
428,244,96679,6,0,P|428:223|423:203,1,41.9999987182618,2|2,0:0|0:0,0:0:0:0:
394,111,96843,6,0,P|379:97|361:87,1,41.9999987182618,2|2,1:2|0:0,0:0:0:0:
278,32,97007,6,0,P|257:32|237:38,1,41.9999987182618
130,38,97170,6,0,P|116:53|106:72,1,41.9999987182618,2|2,1:0|0:0,0:0:0:0:
50,154,97334,6,0,P|51:175|56:195,1,41.9999987182618,2|2,1:0|0:0,0:0:0:0:
8,335,97498,5,6,1:0:0:0:
214,252,97662,5,2,1:0:0:0:
238,245,97744,1,2,1:2:0:0:
263,241,97826,1,2,1:0:0:0:
288,239,97908,1,2,1:2:0:0:
313,239,97990,1,2,1:0:0:0:
338,241,98072,1,2,1:2:0:0:
363,246,98154,1,2,1:0:0:0:
387,252,98236,1,2,1:2:0:0:
411,261,98318,1,2,1:0:0:0:
434,272,98400,1,2,1:2:0:0:
456,284,98482,5,2,1:0:0:0:
424,317,98564,1,2,1:2:0:0:
386,343,98646,1,2,1:0:0:0:
344,362,98728,1,2,1:2:0:0:
299,372,98810,1,2,1:0:0:0:
253,373,98892,1,2,1:2:0:0:
207,365,98974,1,2,1:0:0:0:
164,348,99056,1,2,1:2:0:0:
125,323,99138,5,2,1:0:0:0:
162,93,99302,1,2,0:0:0:0:
125,323,99466,6,0,P|113:217|168:270,1,251.999992309571,4|0,1:0|0:0,0:0:0:0:
256,183,100121,2,0,L|255:80,1,83.9999974365235,2|0,1:0|0:0,0:0:0:0:
387,323,100449,6,0,P|398:217|343:270,1,251.999992309571,4|0,1:0|0:0,0:0:0:0:
256,183,101105,2,0,L|255:80,1,83.9999974365235,2|2,1:0|1:0,0:0:0:0:
152,47,101433,5,4,1:0:0:0:
360,47,101597,1,2,0:0:0:0:
360,47,101679,1,2,0:0:0:0:
360,47,101761,1,2,1:2:0:0:
152,47,101925,1,2,0:0:0:0:
152,47,102007,1,2,0:0:0:0:
152,47,102089,1,0,1:0:0:0:
256,183,102252,1,2,0:0:0:0:
256,183,102334,1,2,0:0:0:0:
256,183,102416,5,2,1:2:0:0:
360,337,102580,1,2,0:0:0:0:
360,337,102662,1,2,0:0:0:0:
360,337,102744,1,0,1:0:0:0:
152,337,102908,1,2,0:0:0:0:
152,337,102990,1,2,0:0:0:0:
152,337,103072,1,0,1:0:0:0:
256,183,103236,1,2,0:0:0:0:
256,183,103318,1,2,0:0:0:0:
255,183,103400,6,0,P|292:163|333:154,1,83.9999974365235,6|0,1:0|0:0,0:0:0:0:
194,93,103728,2,0,P|193:51|180:11,1,83.9999974365235,0|0,1:0|0:0,0:0:0:0:
105,157,104056,2,0,P|68:137|28:129,1,83.9999974365235,2|0,1:2|0:0,0:0:0:0:
106,340,104384,5,6,1:0:0:0:
114,339,104466,1,2,0:0:0:0:
122,338,104548,1,2,0:0:0:0:
130,336,104629,1,2,0:0:0:0:
139,334,104711,1,2,0:0:0:0:
146,331,104793,1,2,0:0:0:0:
154,328,104875,1,2,0:0:0:0:
162,324,104957,1,2,0:0:0:0:
169,320,105039,5,2,1:0:0:0:
105,155,105203,1,2,1:0:0:0:
345,335,105367,6,0,P|346:282|414:188,1,167.999994873047,6|2,1:0|1:0,0:0:0:0:
337,42,105858,2,0,P|290:68|175:56,1,167.999994873047,6|2,1:0|0:0,0:0:0:0:
85,196,106350,2,0,P|131:223|178:329,1,167.999994873047,6|0,1:0|0:0,0:0:0:0:
68,306,106842,1,2,1:2:0:0:
256,192,107006,1,0,1:0:0:0:
428,343,107170,1,2,0:0:0:0:
407,340,107252,1,2,0:0:0:0:
386,337,107334,1,0,1:0:0:0:
365,334,107416,1,0,0:0:0:0:
344,332,107498,1,0,0:0:0:0:
437,193,107662,5,2,1:0:0:0:
257,58,107826,1,2,1:0:0:0:
130,191,107989,6,0,B|77:186|77:186|96:180,1,70,4|0,1:0|0:0,0:0:0:0:
146,254,108235,1,0,0:0:0:0:
146,254,108317,6,0,B|97:276|97:276|111:261,1,70,0|0,1:0|0:0,0:0:0:0:
192,300,108563,1,0,0:0:0:0:
192,300,108645,6,0,B|161:344|161:344|165:324,1,70,0|0,1:0|0:0,0:0:0:0:
255,318,108891,1,0,0:0:0:0:
255,318,108973,6,0,B|249:371|249:371|243:351,1,70,0|0,1:0|0:0,0:0:0:0:
318,301,109219,1,0,0:0:0:0:
318,301,109301,5,0,1:0:0:0:
151,72,109465,1,0,1:0:0:0:
417,159,109629,1,0,1:0:0:0:
151,245,109793,1,0,1:0:0:0:
289,175,109957,5,0,1:0:0:0:
304,160,110039,1,0,1:0:0:0:
317,144,110121,1,0,1:0:0:0:
326,125,110203,1,0,1:0:0:0:
333,105,110285,1,0,1:0:0:0:
335,84,110367,1,0,1:0:0:0:
334,63,110448,1,0,1:0:0:0:
329,43,110530,1,0,1:0:0:0:
319,26,110612,6,0,P|279:88|296:204,1,196.875007510186,4|2,1:0|0:0,0:0:0:0:
313,212,111268,6,0,P|256:73|199:212,1,385,2|0,0:0|0:0,0:0:0:0:
96,331,113235,5,2,0:0:0:0:
171,324,113399,1,0,0:0:0:0:
84,332,113563,1,2,0:0:0:0:
182,323,113727,1,0,0:0:0:0:
344,360,113891,5,2,0:0:0:0:
360,272,114055,1,0,0:0:0:0:
452,288,114219,1,2,0:0:0:0:
436,376,114383,1,0,0:0:0:0:
304,244,114547,6,0,P|336:216|356:212,1,52.5000020027161,2|0,0:0|0:0,0:0:0:0:
208,244,114875,2,0,P|176:216|156:212,1,52.5000020027161,2|0,0:0|0:0,0:0:0:0:
152,272,115203,5,2,0:0:0:0:
256,152,115366,1,2,0:0:0:0:
360,272,115530,5,2,0:0:0:0:
256,152,115694,1,0,0:0:0:0:
256,332,115858,5,2,0:0:0:0:
320,352,116022,1,0,0:0:0:0:
384,332,116186,1,2,0:0:0:0:
448,352,116350,1,2,0:0:0:0:
256,332,116514,5,2,0:0:0:0:
192,352,116678,1,0,0:0:0:0:
128,332,116842,1,2,0:0:0:0:
64,352,117006,1,0,0:0:0:0:
12,256,117170,6,0,P|4:212|12:184,1,52.5000020027161,2|0,0:0|0:0,0:0:0:0:
84,140,117498,2,0,P|92:184|84:212,1,52.5000020027161,2|0,0:0|0:0,0:0:0:0:
48,84,117826,6,0,P|92:76|120:84,1,52.5000020027161,2|0,0:0|0:0,0:0:0:0:
256,156,118153,2,0,P|212:164|184:156,1,52.5000020027161,2|0,0:0|0:0,0:0:0:0:
304,92,118481,5,2,0:0:0:0:
356,240,118645,1,0,0:0:0:0:
208,292,118809,1,2,0:0:0:0:
156,144,118973,1,0,0:0:0:0:
378,148,119137,5,2,0:0:0:0:
299,314,119301,1,0,0:0:0:0:
133,235,119465,1,2,0:0:0:0:
212,69,119629,1,2,0:0:0:0:
341,287,119793,6,0,P|313:311|289:315,1,52.5000020027161,2|0,0:0|0:0,0:0:0:0:
171,97,120121,2,0,P|199:73|223:69,1,52.5000020027161,2|0,0:0|0:0,0:0:0:0:
132,232,120448,5,2,0:0:0:0:
122,216,120530,1,0,0:0:0:0:
105,208,120612,1,2,0:0:0:0:
87,209,120694,1,0,0:0:0:0:
72,219,120776,1,2,0:0:0:0:
64,235,120858,1,0,0:0:0:0:
66,253,120940,1,2,0:0:0:0:
76,268,121022,1,0,0:0:0:0:
92,276,121104,5,4,1:0:0:0:
344,192,121432,6,0,L|396:184,1,52.5000020027161,2|0,0:0|0:0,0:0:0:0:
372,248,121760,2,0,L|320:256,2,52.5000020027161,2|0|0,0:0|0:0|0:0,0:0:0:0:
292,199,122252,2,0,L|344:191,1,52.5000020027161,2|0,0:0|0:0,0:0:0:0:
320,255,122580,2,0,L|268:263,2,52.5000020027161,2|0|0,0:0|0:0|0:0,0:0:0:0:
240,206,123071,2,0,L|292:198,1,52.5000020027161,2|0,0:0|0:0,0:0:0:0:
152,336,123399,6,0,L|100:328,1,52.5000020027161,2|2,0:0|0:0,0:0:0:0:
