osu file format v14

[General]
AudioFilename: skydelta - kreuz.mp3
AudioLeadIn: 0
PreviewTime: 55532
Countdown: 0
SampleSet: Soft
StackLeniency: 0.3
Mode: 0
LetterboxInBreaks: 0
WidescreenStoryboard: 0

[Editor]
DistanceSpacing: 1.5
BeatDivisor: 8
GridSize: 4
TimelineZoom: 2.599999

[Metadata]
Title:Kreuz
TitleUnicode:Kreuz
Artist:sky_delta
ArtistUnicode:sky_delta
Creator:Side
Version:Another
Source:BMS
Tags:Project XideChain IDM Frenz inukoro 2014 G2R20104 Atsuro BrosephStalin Irreversible
BeatmapID:785113
BeatmapSetID:347551

[Difficulty]
HPDrainRate:7
CircleSize:4.2
OverallDifficulty:8
ApproachRate:9
SliderMultiplier:1.4
SliderTickRate:1

[Events]
//Background and Video events
0,0,"bgthing.jpg",0,0
Video,-705,"vid.avi"
//Break Periods
2,66387,76243
//Storyboard Layer 0 (Background)
//Storyboard Layer 1 (Fail)
//Storyboard Layer 2 (Pass)
//Storyboard Layer 3 (Foreground)
//Storyboard Sound Samples

[TimingPoints]
778,327.868852459016,4,2,0,15,1,0
1269,-100,4,2,0,5,0,0
1433,-100,4,2,0,10,0,0
1597,-100,4,2,0,15,0,0
1761,-100,4,2,0,20,0,0
1925,-100,4,2,0,25,0,0
2089,-100,4,2,0,30,0,0
2253,-100,4,2,0,35,0,0
2417,-100,4,2,0,40,0,0
2581,-100,4,2,0,45,0,0
2745,-100,4,2,0,50,0,0
2909,-100,4,2,0,55,0,0
3073,-100,4,2,0,60,0,0
3237,-100,4,2,0,15,0,0
3401,-133.333333333333,4,2,0,60,0,0
13073,-80,4,2,0,70,0,0
13318,-80,4,2,0,35,0,0
13400,-100,4,2,0,70,0,0
13564,-100,4,2,0,70,0,0
13728,-100,4,2,0,70,0,0
13892,-100,4,2,0,65,0,0
19138,-125,4,2,0,65,0,0
21761,-100,4,2,0,60,0,0
22909,-80,4,2,0,60,0,0
24384,-125,4,2,0,55,0,0
27499,-100,4,2,0,55,0,0
29630,-125,4,2,0,55,0,0
33564,-100,4,2,0,60,0,0
34548,-133.333333333333,4,2,0,60,0,0
34876,-125,4,2,0,60,0,0
43073,-105.263157894737,4,2,0,60,0,0
43400,-90.9090909090909,4,2,0,60,0,0
43728,-80,4,2,0,60,0,0
44056,-100,4,2,0,60,0,0
44548,-80,4,2,0,60,0,0
44712,-125,4,2,0,65,0,0
45368,-76.9230769230769,4,2,0,70,0,1
55859,-100,4,2,0,70,0,0
56187,-100,4,2,0,70,0,0
56351,-80,4,2,0,70,0,0
57007,-125,4,2,0,70,0,0
57991,-100,4,2,0,70,0,0
58482,-125,4,2,0,70,0,0
76843,-83.3333333333333,4,2,0,70,0,0
82253,-100,4,2,0,55,0,0
88318,-100,4,2,0,5,0,0
88646,-100,4,2,0,70,0,0
89630,327.868852459016,3,2,0,75,1,1
97498,-100,3,2,0,80,0,1
105367,327.868852459016,4,2,0,80,1,0
112907,-100,4,2,0,5,0,0
113235,-100,4,2,0,55,0,0
121104,-100,4,2,0,50,0,0
121268,-100,4,2,0,47,0,0
121432,-100,4,2,0,44,0,0
121596,-100,4,2,0,41,0,0
121760,-100,4,2,0,38,0,0
121924,-100,4,2,0,35,0,0
122088,-100,4,2,0,32,0,0
122252,-100,4,2,0,29,0,0
122416,-100,4,2,0,26,0,0
122580,-100,4,2,0,23,0,0
122744,-100,4,2,0,20,0,0
122907,-100,4,2,0,17,0,0
123071,-100,4,2,0,14,0,0
123235,-100,4,2,0,11,0,0
123399,-100,4,2,0,8,0,0
123563,-100,4,2,0,5,0,0

[Colours]
Combo1 : 131,185,194
Combo2 : 188,188,188
Combo3 : 64,193,217
Combo4 : 133,214,147

[HitObjects]
256,192,1269,12,0,3237,0:0:0:0:
352,236,3400,5,2,0:0:0:0:
232,32,3728,1,0,0:0:0:0:
232,32,3892,1,2,0:0:0:0:
208,268,4220,1,0,0:0:0:0:
208,268,4384,1,2,0:0:0:0:
368,92,4712,1,0,0:0:0:0:
368,92,4876,1,2,0:0:0:0:
136,144,5204,1,0,0:0:0:0:
136,144,5368,5,2,0:0:0:0:
208,144,5532,1,0,0:0:0:0:
252,204,5696,1,2,0:0:0:0:
228,272,5859,1,0,0:0:0:0:
228,272,6023,5,2,0:0:0:0:
355,71,6351,1,0,0:0:0:0:
355,71,6515,1,2,0:0:0:0:
135,163,6843,1,0,0:0:0:0:
135,163,7007,1,2,0:0:0:0:
364,216,7335,1,0,0:0:0:0:
364,216,7499,1,2,0:0:0:0:
211,36,7827,1,0,0:0:0:0:
211,36,7991,2,0,L|196:96,1,52.5000020027161,2|0,0:0|0:0,0:0:0:0:
140,180,8318,5,2,0:0:0:0:
89,131,8482,1,2,0:0:0:0:
128,72,8646,1,2,0:0:0:0:
128,72,9630,5,2,0:0:0:0:
68,144,9958,2,0,P|60:192|76:248,1,105.000004005432,2|0,0:0|0:0,0:0:0:0:
48,312,10450,2,0,P|92:288|148:284,1,105.000004005432,2|0,0:0|0:0,0:0:0:0:
224,228,10941,1,2,0:0:0:0:
188,144,11105,1,0,0:0:0:0:
188,144,11187,1,0,0:0:0:0:
188,144,11269,1,2,0:0:0:0:
304,288,11925,5,2,0:0:0:0:
464,253,12089,1,0,0:0:0:0:
315,186,12253,1,2,0:0:0:0:
397,329,12417,1,2,0:0:0:0:
413,165,12581,1,2,0:0:0:0:
124,248,13073,1,2,0:0:0:0:
124,248,13155,1,2,0:0:0:0:
124,248,13237,2,0,L|136:188,1,43.75,2|0,0:0|0:0,0:0:0:0:
156,108,13400,5,0,0:0:0:0:
188,120,13482,1,0,0:0:0:0:
220,108,13564,1,8,0:0:0:0:
244,84,13646,1,0,0:0:0:0:
276,72,13728,1,0,0:0:0:0:
312,76,13810,1,0,0:0:0:0:
344,96,13892,6,0,P|290:143|277:218,1,140,6|8,3:2|0:0,0:0:0:0:
432,304,14384,2,0,P|417:233|358:184,1,140,2|0,0:0|3:0,0:0:0:0:
196,176,14876,2,0,L|148:232,1,70,10|0,0:0|0:0,0:0:0:0:
88,368,15204,1,0,3:0:0:0:
88,368,15368,2,0,L|136:312,2,70,2|8|0,0:0|0:0|0:0,0:0:0:0:
306,300,15859,1,0,0:0:0:0:
306,300,15941,1,0,0:0:0:0:
306,300,16023,1,0,3:0:0:0:
351,136,16187,1,8,0:0:0:0:
257,110,16351,1,0,0:0:0:0:
187,180,16515,6,0,P|136:213|59:199,1,140,2|8,3:2|0:0,0:0:0:0:
114,130,17007,2,0,L|145:268,1,140,2|0,0:0|3:0,0:0:0:0:
152,356,17499,2,0,P|184:336|224:328,1,70,10|0,0:0|0:0,0:0:0:0:
308,332,17827,1,0,3:0:0:0:
400,336,17991,2,0,P|380:304|372:263,1,70,2|8,0:0|0:0,0:0:0:0:
340,196,18318,1,0,0:0:0:0:
248,140,18482,1,0,3:0:0:0:
248,140,18564,1,8,0:0:0:0:
248,140,18646,1,0,3:0:0:0:
136,292,18810,1,10,0:0:0:0:
236,248,18974,1,2,0:0:0:0:
84,200,19138,6,0,B|84:143|114:88|114:88|169:78|207:47|207:47|268:52|316:88,1,336,6|0,0:0|0:0,0:0:0:0:
314,86,20450,5,0,3:0:0:0:
306,126,20777,1,0,3:2:0:0:
298,166,21105,1,0,3:2:0:0:
290,206,21433,1,2,3:2:0:0:
282,246,21761,5,2,3:2:0:0:
218,329,21925,1,0,3:2:0:0:
154,165,22089,1,0,3:2:0:0:
90,329,22253,1,0,3:2:0:0:
54,161,22417,5,2,3:2:0:0:
118,244,22581,1,0,3:2:0:0:
182,80,22745,1,0,3:2:0:0:
246,244,22909,2,0,L|248:188,1,43.75,2|2,3:2|3:2,3:2:0:0:
308,68,23073,5,2,3:2:0:0:
342,88,23155,1,0,3:2:0:0:
359,127,23237,1,0,3:2:0:0:
350,167,23318,1,0,3:2:0:0:
316,191,23400,1,0,3:2:0:0:
282,170,23482,1,0,3:2:0:0:
240,164,23564,1,0,3:2:0:0:
200,176,23646,1,0,3:2:0:0:
172,207,23728,5,0,0:2:0:0:
168,212,24056,1,0,0:0:0:0:
164,215,24384,6,0,P|147:243|138:280,1,56,4|0,3:1|0:0,0:0:0:0:
237,288,24712,2,0,P|235:320|246:357,1,56,2|2,3:2|0:0,0:0:0:0:
339,316,25040,2,0,P|353:344|382:370,1,56,0|2,3:0|0:0,0:0:0:0:
446,294,25368,2,0,P|473:311|510:318,1,56,0|2,3:2|0:0,0:0:0:0:
512,216,25696,5,2,3:2:0:0:
500,116,25859,1,2,0:0:0:0:
404,148,26023,1,0,3:0:0:0:
366,54,26187,1,2,0:0:0:0:
292,124,26351,1,0,3:2:0:0:
230,43,26515,1,2,0:0:0:0:
180,128,26679,1,2,3:2:0:0:
99,65,26843,1,2,0:0:0:0:
124,281,27007,5,0,3:2:0:0:
260,190,27171,1,2,0:0:0:0:
97,185,27335,1,2,3:2:0:0:
226,286,27499,6,0,P|256:258|272:222,1,70,2|0,0:0|3:2,0:0:0:0:
359,38,27827,2,0,P|348:74|352:110,1,70,2|0,0:0|3:2,0:0:0:0:
384,317,28155,2,0,P|375:280|354:251,1,70,2|0,0:0|3:2,0:0:0:0:
201,105,28482,2,0,P|226:132|259:147,1,70,2|0,0:0|3:2,0:0:0:0:
473,168,28810,5,2,0:0:0:0:
248,191,28974,1,2,3:2:0:0:
391,126,29138,1,2,0:0:0:0:
311,262,29302,1,2,3:2:0:0:
293,107,29466,1,2,0:0:0:0:
400,222,29630,6,0,P|374:208|349:190,1,56,0|2,3:2|0:0,0:0:0:0:
256,226,29958,2,0,P|245:198|236:168,1,56,2|2,3:2|0:0,0:0:0:0:
136,167,30286,2,0,P|139:138|148:107,1,56,0|2,3:2|0:0,0:0:0:0:
66,52,30614,2,0,P|84:29|106:7,1,56,0|2,3:2|0:0,0:0:0:0:
204,16,30941,5,2,3:2:0:0:
300,48,31105,1,2,0:0:0:0:
220,108,31269,1,0,3:2:0:0:
304,163,31433,1,2,0:0:0:0:
212,200,31597,1,0,3:2:0:0:
278,274,31761,1,2,0:0:0:0:
176,280,31925,1,2,3:2:0:0:
220,368,32089,1,2,0:0:0:0:
116,359,32253,5,0,3:2:0:0:
251,269,32417,1,2,0:0:0:0:
88,260,32581,1,2,3:2:0:0:
220,368,32745,5,2,0:0:0:0:
172,207,33073,1,2,0:0:0:0:
116,359,33400,1,2,0:0:0:0:
251,269,33564,6,0,L|276:296,2,35,4|0|0,3:2|0:0|0:0,0:0:0:0:
336,156,33892,1,8,0:0:0:0:
420,268,34056,5,0,3:0:0:0:
427,261,34138,1,8,0:0:0:0:
336,156,34302,1,8,0:0:0:0:
329,163,34384,1,0,3:0:0:0:
325,319,34548,2,0,P|286:314|247:322,1,78.7500030040742,2|0,3:0|0:0,0:0:0:0:
176,352,34876,6,0,P|170:323|177:291,1,56,4|0,3:1|0:0,0:0:0:0:
80,260,35204,2,0,P|89:232|111:208,1,56,8|0,3:2|0:0,0:0:0:0:
36,136,35532,2,0,P|57:116|88:107,1,56,0|0,3:2|0:0,0:0:0:0:
52,12,35859,2,0,P|80:6|112:13,1,56,8|0,3:2|0:0,0:0:0:0:
204,36,36187,5,0,3:2:0:0:
180,132,36351,1,0,0:0:0:0:
276,108,36515,1,8,3:2:0:0:
277,206,36679,1,2,0:0:0:0:
364,152,36843,1,2,3:2:0:0:
390,246,37007,1,0,0:0:0:0:
452,168,37171,1,10,3:2:0:0:
501,252,37335,1,2,0:0:0:0:
507,170,37499,6,0,P|479:167|452:168,1,56,0|2,3:2|0:0,0:0:0:0:
356,232,37827,2,0,P|328:225|302:215,1,56,10|0,3:2|0:0,0:0:0:0:
208,164,38155,2,0,P|178:176|145:200,1,56,0|0,3:2|0:0,0:0:0:0:
60,228,38482,2,0,P|36:208|21:186,1,56,8|2,3:2|0:0,0:0:0:0:
112,280,38810,5,2,3:2:0:0:
168,200,38974,1,0,0:0:0:0:
156,316,39138,1,10,3:2:0:0:
126,164,39302,1,2,0:0:0:0:
210,240,39466,1,0,3:2:0:0:
72,244,39630,1,2,0:0:0:0:
250,276,39794,1,10,3:2:0:0:
32,204,39958,1,2,0:0:0:0:
210,240,40122,6,0,P|210:212|221:179,1,56,0|2,3:2|0:0,0:0:0:0:
274,100,40450,1,8,3:2:0:0:
330,184,40614,1,2,0:0:0:0:
406,52,40777,6,0,P|435:73|451:92,1,56,0|0,3:2|0:0,0:0:0:0:
495,177,41105,1,8,3:2:0:0:
394,183,41269,1,2,0:0:0:0:
474,312,41433,6,0,P|440:326|399:327,1,56,2|0,3:2|0:0,0:0:0:0:
320,326,41761,1,10,3:2:0:0:
365,236,41925,1,2,0:0:0:0:
242,184,42089,6,0,P|246:148|266:112,1,56,0|2,3:2|0:0,0:0:0:0:
306,44,42417,1,8,3:2:0:0:
396,88,42581,1,2,0:0:0:0:
436,248,42745,6,0,L|456:184,1,56,0|2,3:2|0:0,0:0:0:0:
360,172,43073,2,0,L|344:100,1,66.4999982242585,10|0,3:2|0:0,0:0:0:0:
260,144,43400,2,0,L|208:84,1,77.0000023498536,0|0,3:2|0:0,0:0:0:0:
156,168,43728,2,0,L|62:138,1,87.5,8|0,3:2|0:0,0:0:0:0:
148,268,44056,5,0,3:2:0:0:
72,141,44220,1,0,0:0:0:0:
16,324,44384,1,8,3:2:0:0:
159,124,44548,2,0,L|155:176,1,43.75
148,268,44712,5,0,3:2:0:0:
180,300,44794,1,0,0:0:0:0:
224,308,44876,1,0,0:0:0:0:
268,296,44958,1,0,3:2:0:0:
296,260,45040,5,10,3:2:0:0:
272,220,45122,1,0,0:0:0:0:
272,176,45204,1,0,0:0:0:0:
292,136,45286,1,0,0:0:0:0:
336,116,45368,5,6,3:2:0:0:
336,116,45450,1,0,0:0:0:0:
336,116,45532,2,0,P|355:122|384:128,1,45.4999979171754
464,184,45696,1,10,3:2:0:0:
464,184,45777,2,0,L|464:236,1,45.4999979171754,2|0,0:0|0:0,0:0:0:0:
444,328,45941,1,2,0:0:0:0:
444,328,46023,6,0,L|392:300,3,45.4999979171754,2|0|0|0,3:2|0:0|0:0|0:0,0:0:0:0:
320,272,46351,2,0,L|272:304,3,45.4999979171754,10|0|2|0,3:2|0:0|0:0|0:0,0:0:0:0:
204,348,46679,1,2,3:2:0:0:
204,348,46761,2,0,L|179:309,1,45.4999979171754
169,222,46925,1,0,0:0:0:0:
169,222,47007,6,0,L|207:197,1,45.4999979171754,10|2,3:2|0:0,0:0:0:0:
348,156,47171,2,0,L|296:192,1,45.4999979171754,0|2,0:0|0:0,0:0:0:0:
207,197,47335,5,2,3:2:0:0:
164,180,47417,1,2,0:0:0:0:
140,140,47499,1,0,0:0:0:0:
140,92,47581,1,2,0:0:0:0:
168,56,47663,5,10,3:2:0:0:
148,24,47745,1,2,0:0:0:0:
112,12,47827,1,2,0:0:0:0:
76,16,47909,1,2,0:0:0:0:
56,44,47991,5,0,3:2:0:0:
56,44,48073,1,0,0:0:0:0:
55,43,48155,2,0,L|63:88,1,45.4999979171754
112,176,48318,1,10,3:2:0:0:
112,176,48400,2,0,P|140:184|164:184,1,45.4999979171754,2|0,0:0|0:0,0:0:0:0:
232,120,48564,1,2,0:0:0:0:
232,120,48646,6,0,L|280:140,3,45.4999979171754,2|0|0|0,3:2|0:0|0:0|0:0,0:0:0:0:
348,192,48974,2,0,L|340:248,3,45.4999979171754,10|0|2|0,3:2|0:0|0:0|0:0,0:0:0:0:
444,268,49302,1,2,3:2:0:0:
444,268,49384,2,0,L|480:228,1,45.4999979171754
512,144,49548,1,0,0:0:0:0:
512,144,49630,6,0,L|484:100,1,45.4999979171754,10|2,3:2|0:0,0:0:0:0:
356,32,49794,2,0,L|383:68,1,45.4999979171754,0|2,0:0|0:0,0:0:0:0:
420,144,49958,5,2,3:2:0:0:
408,188,50040,1,2,0:0:0:0:
376,220,50122,1,0,0:0:0:0:
332,232,50204,1,2,0:0:0:0:
288,220,50286,5,10,3:2:0:0:
300,168,50368,1,2,0:0:0:0:
292,112,50450,1,2,0:0:0:0:
260,68,50532,1,2,0:0:0:0:
218,49,50614,5,2,3:2:0:0:
218,49,50696,1,0,0:0:0:0:
218,49,50777,2,0,L|174:77,1,45.4999979171754
112,144,50941,1,10,3:2:0:0:
111,142,51023,2,0,P|118:163|119:186,1,45.4999979171754,2|0,0:0|0:0,0:0:0:0:
92,280,51187,1,2,0:0:0:0:
92,280,51269,6,0,L|152:268,3,45.4999979171754,2|0|0|0,3:2|0:0|0:0|0:0,0:0:0:0:
224,248,51597,2,0,L|208:192,3,45.4999979171754,10|0|2|0,3:2|0:0|0:0|0:0,0:0:0:0:
240,116,51925,5,2,3:2:0:0:
240,116,52007,2,0,L|304:99,1,45.4999979171754
368,64,52171,1,0,0:0:0:0:
368,64,52253,6,0,L|410:80,1,45.4999979171754,10|2,3:2|0:0,0:0:0:0:
484,200,52417,2,0,L|440:187,1,45.4999979171754,0|2,0:0|0:0,0:0:0:0:
351,164,52581,5,2,3:2:0:0:
308,176,52663,1,0,0:0:0:0:
280,212,52745,1,0,0:0:0:0:
281,257,52827,1,2,0:0:0:0:
311,290,52909,5,10,3:2:0:0:
346,283,52991,1,2,0:0:0:0:
375,261,53073,1,2,0:0:0:0:
394,230,53155,1,2,0:0:0:0:
400,194,53237,6,0,L|396:142,3,45.4999979171754,2|0|0|0,3:2|0:0|0:0|0:0,0:0:0:0:
488,92,53564,1,10,3:2:0:0:
488,92,53646,2,0,L|491:137,1,45.4999979171754,2|0,0:0|0:0,0:0:0:0:
484,240,53810,1,2,0:0:0:0:
484,240,53892,6,0,L|432:268,3,45.4999979171754,2|0|0|0,3:2|0:0|0:0|0:0,0:0:0:0:
356,300,54220,2,0,L|304:296,3,45.4999979171754,10|0|2|0,3:2|0:0|0:0|0:0,0:0:0:0:
208,312,54548,5,6,3:2:0:0:
168,276,54630,1,2,0:0:0:0:
160,228,54712,1,2,0:0:0:0:
184,184,54794,1,2,0:0:0:0:
224,164,54876,5,10,3:2:0:0:
228,128,54958,1,2,0:0:0:0:
208,100,55040,1,6,3:2:0:0:
21,183,55368,5,2,3:2:0:0:
21,183,55450,1,0,3:2:0:0:
21,183,55532,5,2,3:2:0:0:
11,232,55614,1,0,3:2:0:0:
28,279,55696,1,2,3:2:0:0:
72,302,55777,1,2,3:2:0:0:
124,308,55859,6,0,P|188:288|264:308,1,140,6|0,3:2|0:0,0:0:0:0:
340,368,56351,2,0,L|352:324,1,43.75,0|0,3:0|3:0,0:0:0:0:
388,200,56515,5,10,0:0:0:0:
257,304,56679,1,0,3:0:0:0:
420,304,56843,1,0,0:0:0:0:
280,204,57007,6,0,P|232:188|168:208,1,112,2|8,3:2|0:0,0:0:0:0:
180,348,57499,2,0,P|204:332|224:304,1,56,0|0,3:0|0:0,0:0:0:0:
227,292,57745,1,0,3:0:0:0:
228,272,57827,5,8,0:0:0:0:
122,257,57991,2,0,L|152:275,1,35,0|0,3:2|3:0,0:0:0:0:
280,356,58155,1,10,0:0:0:0:
78,349,58318,1,2,0:2:0:0:
164,164,58482,6,0,P|160:112|120:64,1,112,2|0,3:2|0:0,0:0:0:0:
236,208,58974,1,0,3:0:0:0:
356,104,59138,2,0,P|376:84|404:76,1,56,10|0,0:0|0:0,0:0:0:0:
308,168,59466,1,0,0:0:0:0:
164,164,59630,2,0,P|160:120|200:60,1,112,2|8,3:2|0:0,0:0:0:0:
280,20,60122,5,0,3:0:0:0:
308,168,60286,1,0,3:2:0:0:
308,168,60368,1,0,3:2:0:0:
308,168,60450,1,10,0:0:0:0:
194,63,60614,1,0,0:0:0:0:
367,55,60777,1,10,0:0:0:0:
236,208,60941,6,0,L|284:308,1,112,6|0,3:2|0:0,0:0:0:0:
240,376,61351,1,0,3:2:0:0:
240,376,61433,2,0,B|212:320,1,56,8|0,0:0|3:2,0:0:0:0:
142,201,61761,2,0,B|168:252,2,56,2|2|10,0:0|3:2|0:0,0:0:0:0:
32,300,62253,6,0,L|72:244,1,56,2|0,0:0|0:0,0:0:0:0:
172,80,62581,2,0,L|172:148,1,56,2|8,3:2|0:0,0:0:0:0:
185,340,62909,2,0,L|136:280,1,56
22,140,63237,2,0,L|92:160,1,56,2|8,3:2|0:0,0:0:0:0:
273,206,63564,6,0,P|208:232|160:220,1,112,2|0,3:2|3:0,0:0:0:0:
100,196,63974,1,0,3:0:0:0:
100,196,64056,1,8,0:0:0:0:
208,144,64220,1,0,3:2:0:0:
40,256,64384,1,8,0:0:0:0:
96,48,64548,1,2,0:0:0:0:
96,48,64876,6,0,B|116:60|128:80|128:80|152:52|184:48,1,112,6|0,3:2|0:0,0:0:0:0:
356,64,65368,1,8,0:0:0:0:
384,220,65532,1,0,3:2:0:0:
352,36,65696,1,8,0:0:0:0:
388,248,65859,1,2,0:0:0:0:
58,115,66187,5,6,0:0:0:0:
312,332,76843,6,0,P|344:308|372:268,1,83.9999974365235,4|0,3:0|0:0,0:0:0:0:
404,176,77171,1,8,0:0:0:0:
308,96,77335,5,4,3:0:0:0:
269,80,77417,1,8,0:0:0:0:
227,80,77499,1,2,3:2:0:0:
188,94,77581,1,10,0:0:0:0:
156,121,77663,1,2,3:2:0:0:
120,240,77827,6,0,L|88:232,2,20.9999993591309,2|0|2,0:0|0:0|0:0,0:0:0:0:
192,260,77991,2,0,L|232:228,1,41.9999987182618,0|10,3:2|0:0,3:2:0:0:
344,168,78155,5,6,3:0:0:0:
364,204,78237,1,8,0:0:0:0:
368,244,78318,1,0,0:0:0:0:
352,284,78400,1,0,0:0:0:0:
320,312,78482,2,0,L|276:296,3,41.9999987182618,8|8|2|8,0:0|0:0|3:2|0:0,0:0:0:0:
192,260,78810,6,0,L|200:316,1,41.9999987182618,0|8,0:0|0:0,0:0:0:0:
80,328,78974,2,0,L|100:291,1,41.9999987182618,2|2,3:2|0:0,0:0:0:0:
174,184,79138,6,0,L|173:162,2,20.9999993591309,2|0|0,3:2|0:0|0:0,0:0:0:0:
80,168,79302,1,10,3:2:0:0:
40,176,79384,1,10,0:0:0:0:
7,200,79466,6,0,P|0:240|13:280,1,83.9999974365235,8|2,3:0|0:0,0:0:0:0:
147,350,79794,1,8,0:0:0:0:
224,232,79958,5,8,3:0:0:0:
238,193,80039,1,0,0:2:0:0:
263,160,80121,1,10,0:0:0:0:
299,137,80203,1,8,0:0:0:0:
339,128,80285,1,0,3:2:0:0:
436,264,80450,1,0,3:0:0:0:
316,360,80614,5,10,3:2:0:0:
316,360,80696,1,8,0:0:0:0:
316,360,80777,2,0,L|260:328,1,41.9999987182618,8|0,3:0|0:0,0:0:0:0:
184,300,80941,1,8,0:0:0:0:
344,252,81105,1,10,3:0:0:0:
192,184,81269,5,0,3:2:0:0:
180,136,81351,1,0,3:2:0:0:
196,88,81433,1,8,0:0:0:0:
228,48,81515,1,8,0:0:0:0:
272,28,81597,2,0,L|304:20,2,20.9999993591309,0|0|0,3:2|0:0|3:2,0:0:0:0:
356,100,81761,6,0,L|364:52,1,41.9999987182618,10|2,3:2|3:2,0:0:0:0:
436,0,81925,2,0,L|440:52,1,41.9999987182618,10|10,0:0|0:0,0:0:0:0:
448,123,82089,5,4,0:0:0:0:
512,215,82253,1,0,0:0:0:0:
412,179,82417,1,2,0:0:0:0:
444,277,82581,1,2,0:0:0:0:
356,215,82745,1,0,0:0:0:0:
361,317,82909,1,0,0:0:0:0:
292,239,83073,1,2,0:0:0:0:
270,338,83237,1,0,0:0:0:0:
224,243,83400,6,0,P|192:231|160:203,1,70,2|2,0:0|0:0,0:0:0:0:
60,187,83728,2,0,P|72:154|100:122,1,70
116,23,84056,2,0,P|148:35|180:63,1,70
280,79,84384,2,0,P|268:111|240:143,1,70,2|2,0:0|0:0,0:0:0:0:
144,171,84712,6,0,P|168:200|208:224,1,70,2|0,0:0|0:0,0:0:0:0:
284,212,85040,1,0,0:0:0:0:
368,248,85204,1,0,0:0:0:0:
408,332,85368,2,0,P|440:309|456:281,1,70,2|0,0:0|0:0,0:0:0:0:
480,196,85696,1,0,0:0:0:0:
404,144,85859,6,0,P|340:140|280:184,1,140,2|0,0:0|0:0,0:0:0:0:
249,349,86351,2,0,P|312:320|348:260,1,140,2|0,0:0|0:0,0:0:0:0:
244,240,86843,1,2,0:0:0:0:
336,155,87007,1,2,0:0:0:0:
212,120,87171,1,6,0:0:0:0:
256,192,87253,12,0,88318,0:0:0:0:
120,288,88646,5,0,3:2:0:0:
160,316,88728,1,0,3:2:0:0:
208,320,88810,1,0,0:2:0:0:
256,304,88892,1,0,0:2:0:0:
284,264,88974,1,0,3:2:0:0:
288,216,89056,1,0,3:2:0:0:
264,176,89138,1,0,0:2:0:0:
216,168,89220,1,0,0:2:0:0:
176,196,89302,5,2,3:2:0:0:
208,232,89384,1,0,0:2:0:0:
256,244,89466,1,0,0:2:0:0:
300,220,89548,1,0,0:2:0:0:
339,199,89630,6,0,B|400:188|440:224|464:276|442:340|384:376|316:356|290:298|290:298|264:336|220:336,1,420,6|0,3:2|3:2,0:0:0:0:
220,252,90777,1,0,0:0:0:0:
360,272,90941,2,0,P|320:264|292:248,1,70,2|0,3:2|0:0,0:0:0:0:
213,93,91269,2,0,P|253:101|281:117,1,70,2|0,3:2|0:0,0:0:0:0:
220,252,91597,6,0,P|232:216|256:188,1,70,2|0,3:2|0:0,0:0:0:0:
416,128,91925,2,0,P|404:164|380:192,1,70,0|0,3:2|0:0,0:0:0:0:
296,256,92252,1,2,3:2:0:0:
340,124,92416,1,0,0:0:0:0:
300,332,92580,6,0,P|336:320|365:296,1,70,2|0,3:2|0:0,0:0:0:0:
340,124,92908,2,0,P|304:136|275:160,1,70,0|0,3:2|0:0,0:0:0:0:
220,252,93236,1,2,3:2:0:0:
424,204,93400,1,2,0:0:0:0:
219,320,93564,6,0,B|227:288|227:288|219:248,1,70,2|0,3:2|0:0,0:0:0:0:
179,80,93892,2,0,B|171:112|171:112|179:152,1,70,0|0,3:2|0:0,0:0:0:0:
127,292,94220,1,0,3:2:0:0:
279,116,94384,1,0,0:0:0:0:
60,212,94548,6,0,P|90:193|130:189,1,70,0|0,3:2|0:0,0:0:0:0:
352,200,94875,2,0,P|318:220|279:224,1,70,0|0,3:2|0:0,0:0:0:0:
100,108,95203,1,0,3:2:0:0:
300,304,95367,1,0,0:0:0:0:
279,116,95531,6,0,P|291:85|314:60,1,70,2|0,3:2|0:0,0:0:0:0:
312,216,95859,2,0,P|279:221|246:213,1,70,0|0,3:2|0:0,0:0:0:0:
388,152,96187,2,0,P|408:177|418:210,1,70,0|0,3:2|0:0,0:0:0:0:
300,304,96515,5,2,3:2:0:0:
156,285,96679,1,0,0:0:0:0:
100,153,96843,1,0,3:2:0:0:
187,39,97006,1,0,0:0:0:0:
329,56,97170,1,2,3:2:0:0:
385,188,97334,1,2,0:0:0:0:
300,304,97498,5,6,3:2:0:0:
288,348,97580,1,0,0:0:0:0:
316,384,97662,1,0,0:0:0:0:
360,384,97744,1,0,0:0:0:0:
384,344,97826,5,2,3:2:0:0:
372,300,97908,1,0,0:0:0:0:
356,256,97990,1,0,0:0:0:0:
372,212,98072,1,0,0:0:0:0:
408,184,98154,5,2,3:2:0:0:
452,168,98236,1,0,0:0:0:0:
480,132,98318,1,2,0:0:0:0:
480,88,98400,1,0,0:0:0:0:
440,68,98482,6,0,P|420:72|404:80,3,35,2|0|0|0,3:2|0:0|0:0|0:0,0:0:0:0:
356,128,98810,2,2,P|340:140|320:148,3,35,2|0|0|0,3:2|0:0|0:0|0:0,0:0:0:0:
256,128,99138,2,0,P|232:140|220:152,3,35,2|0|2|0,3:2|0:0|0:0|0:0,0:0:0:0:
180,200,99466,5,2,3:2:0:0:
133,197,99548,1,0,0:0:0:0:
98,165,99629,1,0,0:0:0:0:
92,119,99711,1,0,0:0:0:0:
132,116,99793,5,2,3:2:0:0:
168,96,99875,1,0,0:0:0:0:
196,64,99957,1,0,0:0:0:0:
208,24,100039,1,0,0:0:0:0:
252,16,100121,5,2,3:2:0:0:
296,32,100203,1,0,0:0:0:0:
328,64,100285,1,2,0:0:0:0:
340,108,100367,1,0,0:0:0:0:
328,152,100449,6,2,P|317:175|304:192,3,35,2|0|0|0,3:2|0:0|0:0|0:0,0:0:0:0:
268,240,100777,2,2,P|258:255|256:276,3,35,2|0|0|0,3:2|0:0|0:0|0:0,0:0:0:0:
222,350,101105,2,0,L|203:320,1,35,2|0,3:2|0:0,0:0:0:0:
148,248,101269,2,0,L|136:280,1,35,2|0,0:0|0:0,0:0:0:0:
104,352,101433,5,2,3:2:0:0:
60,356,101515,1,0,0:0:0:0:
20,332,101597,1,0,0:0:0:0:
0,292,101679,1,0,0:0:0:0:
4,248,101761,6,0,P|20:232|28:212,3,35,2|0|0|0,3:2|0:0|0:0|0:0,0:0:0:0:
60,160,102089,2,0,P|68:144|81:133,3,35,2|0|2|0,3:2|0:0|0:0|0:0,0:0:0:0:
148,110,102416,5,2,3:2:0:0:
180,142,102498,1,0,0:0:0:0:
224,154,102580,1,0,0:0:0:0:
268,142,102662,1,0,0:0:0:0:
300,110,102744,6,0,P|316:98|336:94,3,35,2|0|0|0,3:2|0:0|0:0|0:0,0:0:0:0:
400,104,103072,2,0,P|411:91|418:75,3,35,2|0|2|0,3:2|0:0|0:0|0:0,0:0:0:0:
396,180,103400,5,2,3:2:0:0:
376,220,103482,1,0,0:0:0:0:
337,243,103564,1,0,0:0:0:0:
293,239,103646,1,0,0:0:0:0:
253,216,103728,5,2,3:2:0:0:
209,212,103810,1,0,0:0:0:0:
167,230,103892,1,0,0:0:0:0:
137,263,103974,1,0,0:0:0:0:
124,304,104056,2,0,P|140:328|164:348,3,35,2|0|0|0,3:2|0:0|0:0|0:0,0:0:0:0:
212,344,104384,5,2,3:2:0:0:
248,316,104466,1,0,0:0:0:0:
260,272,104548,1,0,0:0:0:0:
244,228,104629,1,0,0:0:0:0:
200,228,104711,5,2,3:2:0:0:
188,272,104793,1,0,0:0:0:0:
224,300,104875,1,0,0:0:0:0:
268,304,104957,1,0,0:0:0:0:
308,280,105039,5,2,3:2:0:0:
352,268,105121,1,0,0:0:0:0:
396,276,105203,1,2,0:0:0:0:
432,304,105285,1,0,0:0:0:0:
420,348,105367,6,0,P|387:347|351:336,1,70,6|0,3:2|0:0,0:0:0:0:
306,241,105694,1,8,0:0:0:0:
256,344,105858,2,0,P|228:325|204:295,1,70,6|0,3:2|3:0,3:0:0:0:
200,191,106186,1,8,0:0:0:0:
111,258,106350,6,0,B|102:239|109:206|109:206|115:178|96:123|96:123|137:133|162:104,1,210,6|0,3:2|3:2,0:0:0:0:
258,62,107006,1,8,0:0:0:0:
356,104,107170,1,0,0:0:0:0:
396,200,107334,1,0,0:0:0:0:
356,298,107498,1,0,3:2:0:0:
258,338,107662,1,10,0:0:0:0:
160,298,107826,1,2,0:0:0:0:
120,196,107989,6,0,P|132:166|171:138,1,70,6|0,3:2|0:0,0:0:0:0:
396,200,108317,2,0,P|383:229|344:257,1,70,8|0,3:2|0:0,0:0:0:0:
100,172,108645,2,0,P|133:146|178:144,1,70,2|0,3:2|0:0,0:0:0:0:
416,223,108973,2,0,P|389:246|355:253,1,70,8|0,3:2|0:0,0:0:0:0:
92,140,109301,5,0,3:2:0:0:
192,40,109465,1,0,3:2:0:0:
332,44,109629,1,8,3:2:0:0:
432,144,109793,1,0,3:2:0:0:
400,280,109957,5,2,3:2:0:0:
357,312,110039,1,0,3:2:0:0:
303,315,110121,1,0,3:2:0:0:
259,290,110203,1,0,3:2:0:0:
235,246,110285,1,8,3:2:0:0:
190,221,110367,1,0,3:2:0:0:
137,225,110449,1,0,3:2:0:0:
94,258,110531,1,0,3:2:0:0:
81,308,110612,5,6,3:2:0:0:
256,192,110694,12,0,112907,0:0:0:0:
116,208,113235,5,2,0:0:0:0:
148,288,113399,1,2,0:0:0:0:
220,332,113563,1,2,0:0:0:0:
304,320,113727,1,0,0:0:0:0:
368,268,113891,2,0,P|383:234|381:194,1,70,2|2,0:0|0:0,0:0:0:0:
316,152,114219,2,0,P|300:185|302:225,1,70,0|2,0:0|0:0,0:0:0:0:
380,356,114547,5,0,0:0:0:0:
448,304,114711,1,2,0:0:0:0:
476,224,114875,1,2,0:0:0:0:
460,140,115039,1,0,0:0:0:0:
408,76,115203,2,0,P|376:68|336:76,1,70,2|2,0:0|0:0,0:0:0:0:
372,152,115530,2,0,P|360:184|336:210,1,70,2|0,0:0|0:0,0:0:0:0:
192,272,115858,5,2,0:0:0:0:
108,272,116022,1,2,0:0:0:0:
48,216,116186,1,2,0:0:0:0:
36,132,116350,1,0,0:0:0:0:
84,64,116514,2,0,P|124:64|156:76,1,70,2|0,0:0|0:0,0:0:0:0:
108,148,116842,2,0,P|124:178|150:201,1,70,2|2,0:0|0:0,0:0:0:0:
304,176,117170,5,0,0:0:0:0:
376,220,117334,1,2,0:0:0:0:
380,304,117498,1,2,0:0:0:0:
312,356,117662,1,2,0:0:0:0:
224,344,117826,2,0,P|196:324|176:296,1,70,0|2,0:0|0:0,0:0:0:0:
212,220,118153,2,0,P|240:240|260:268,1,70,2|0,0:0|0:0,0:0:0:0:
116,212,118481,5,2,0:0:0:0:
140,132,118645,1,2,0:0:0:0:
220,100,118809,1,2,0:0:0:0:
296,132,118973,1,2,0:0:0:0:
336,208,119137,1,0,0:0:0:0:
316,288,119301,1,2,0:0:0:0:
368,352,119465,1,2,0:0:0:0:
452,356,119629,1,2,0:0:0:0:
476,204,119793,5,2,0:0:0:0:
424,140,119957,1,2,0:0:0:0:
340,124,120121,1,2,0:0:0:0:
264,160,120285,1,2,0:0:0:0:
224,308,120448,5,2,0:0:0:0:
188,328,120530,1,2,0:0:0:0:
148,324,120612,1,2,0:0:0:0:
116,296,120694,1,0,0:0:0:0:
104,256,120776,1,2,0:0:0:0:
120,216,120858,1,2,0:0:0:0:
156,196,120940,1,2,0:0:0:0:
184,164,121022,1,0,0:0:0:0:
200,124,121104,5,6,0:0:0:0:
256,192,121186,12,2,123563,0:0:0:0:
