osu file format v14

[General]
AudioFilename: 56e03b7fb2e8.mp3
AudioLeadIn: 0
PreviewTime: 7524
Countdown: 0
SampleSet: Soft
StackLeniency: 0.7
Mode: 0
LetterboxInBreaks: 0
WidescreenStoryboard: 1

[Editor]
DistanceSpacing: 1.2
BeatDivisor: 4
GridSize: 32
TimelineZoom: 1

[Metadata]
Title:dawn
TitleUnicode:dawn
Artist:sixtythree
ArtistUnicode:sixtythree
Creator:Pjecoo
Version:Wafu's Easy
Source:
Tags:chillout guitar blues beats instrumental 63 wafu -bakari-
BeatmapID:633235
BeatmapSetID:254753

[Difficulty]
HPDrainRate:2
CircleSize:3
OverallDifficulty:2
ApproachRate:3
SliderMultiplier:1
SliderTickRate:1

[Events]
//Background and Video events
0,0,"BG.jpg",0,0
//Break Periods
2,55841,66201
//Storyboard Layer 0 (Background)
//Storyboard Layer 1 (Fail)
//Storyboard Layer 2 (Pass)
//Storyboard Layer 3 (Foreground)
//Storyboard Sound Samples

[TimingPoints]
7641,750,4,2,1,40,1,0
55641,-100,4,2,0,30,0,0
67641,-100,4,2,1,40,0,0
115828,-100,4,2,0,10,0,0

[Colours]
Combo1 : 108,182,255
Combo2 : 162,88,252
Combo3 : 255,255,83
Combo4 : 255,158,100

[HitObjects]
331,271,7641,6,0,L|430:265,2,100,4|8|0,0:0|0:0|0:0,0:0:0:0:
229,207,9891,2,0,P|223:182|222:157,1,50,8|0,0:0|0:0,0:0:0:0:
229,98,10641,6,0,P|187:72|138:77,1,100,4|8,0:0|0:0,0:0:0:0:
64,171,12141,1,0,0:0:0:0:
99,219,12516,2,0,L|148:222,1,50,6|8,0:0|0:0,0:0:0:0:
264,189,13641,6,0,P|275:140|258:94,2,100,4|8|4,0:0|0:0|0:0,0:0:0:0:
161,252,15891,1,8,0:0:0:0:
142,133,16641,6,0,B|94:118|88:140|43:129,1,100,4|8,0:0|0:0,0:0:0:0:
19,247,18141,2,0,L|25:296,2,50,4|2|8,0:0|0:0|0:0,0:0:0:0:
84,146,19641,5,4,0:0:0:0:
172,227,20391,1,8,0:0:0:0:
248,134,21141,1,0,0:0:0:0:
296,169,21516,2,0,L|345:163,1,50,4|8,0:0|0:0,0:0:0:0:
431,78,22641,6,0,P|474:164|429:249,1,200,4|0,0:0|0:0,0:0:0:0:
372,267,24516,2,0,L|322:268,1,50,6|8,0:0|0:0,0:0:0:0:
220,204,25641,6,0,P|172:195|130:220,2,100,4|8|4,0:0|0:0|0:0,0:0:0:0:
316,278,27891,1,8,0:0:0:0:
418,216,28641,6,0,L|422:116,1,100,4|8,0:0|0:0,0:0:0:0:
325,44,30141,1,4,0:0:0:0:
276,79,30516,2,0,P|251:82|226:80,1,50,2|8,0:0|0:0,0:0:0:0:
105,82,31641,6,0,P|85:175|150:246,1,200,4|0,0:0|0:0,0:0:0:0:
269,260,33891,1,8,0:0:0:0:
367,190,34641,6,0,P|376:142|361:95,2,100,4|8|0,0:0|0:0|0:0,0:0:0:0:
324,233,36516,2,0,L|263:239,1,50,6|8,0:0|0:0,0:0:0:0:
199,332,37641,6,0,L|99:339,1,100,4|8,0:0|0:0,0:0:0:0:
35,237,39141,1,4,0:0:0:0:
112,145,39891,1,8,0:0:0:0:
226,182,40641,6,0,P|315:148|335:54,1,200,4|4,0:0|0:0,0:0:0:0:
216,62,42891,1,8,0:0:0:0:
119,132,43641,6,0,P|70:137|29:110,2,100,4|8|0,0:0|0:0|0:0,0:0:0:0:
216,62,45891,1,8,0:0:0:0:
333,40,46641,6,0,L|433:44,1,100,4|8,0:0|0:0,0:0:0:0:
478,155,48141,1,0,0:0:0:0:
500,210,48516,2,0,P|502:234|500:259,1,50,6|8,0:0|0:0,0:0:0:0:
407,336,49641,5,4,0:0:0:0:
319,252,50391,1,8,0:0:0:0:
211,307,51141,2,0,L|161:300,2,50,4|4|8,0:0|0:0|0:0,0:0:0:0:
319,252,52641,6,0,P|349:161|291:85,1,200,4|4,0:0|0:0,0:0:0:0:
173,62,54891,1,8,0:0:0:0:
80,138,55641,5,4,0:2:0:0:
377,292,67641,6,0,P|425:281|453:240,2,100,4|8|0,0:0|0:0|0:0,0:0:0:0:
321,272,69516,2,0,L|271:276,1,50,4|8,0:0|0:0,0:0:0:0:
176,202,70641,5,4,0:0:0:0:
229,94,71391,1,8,0:0:0:0:
348,93,72141,2,0,P|372:89|395:79,2,50,0|6|8,0:0|0:0|0:0,0:0:0:0:
228,94,73641,6,0,P|169:169|194:262,1,200,4|4,0:0|0:0,0:0:0:0:
307,304,75891,2,0,L|356:299,1,50,8|4,0:0|0:0,0:0:0:0:
407,266,76641,6,0,P|417:217|405:169,1,100,4|8,0:0|0:0,0:0:0:0:
312,94,78141,1,4,0:0:0:0:
259,123,78516,2,0,L|209:125,1,50,2|8,0:0|0:0,0:0:0:0:
92,157,79641,6,0,P|70:200|79:248,2,100,4|8|0,0:0|0:0|0:0,0:0:0:0:
144,128,81516,2,0,L|193:124,1,50,4|8,0:0|0:0,0:0:0:0:
285,46,82641,5,4,0:0:0:0:
402,72,83391,1,8,0:0:0:0:
434,187,84141,2,0,L|483:191,2,50,0|6|8,0:0|0:0|0:0,0:0:0:0:
336,255,85641,6,0,P|287:267|239:255,2,100,4|8|4,0:0|0:0|0:0,0:0:0:0:
434,187,87891,2,0,L|427:137,1,50,8|4,0:0|0:0,0:0:0:0:
372,113,88641,6,0,L|272:107,1,100,4|8,0:0|0:0,0:0:0:0:
169,45,90141,1,4,0:0:0:0:
122,84,90516,2,0,P|119:108|120:133,1,50,2|8,0:0|0:0,0:0:0:0:
206,217,91641,6,0,L|305:209,1,100,4|8,0:0|0:0,0:0:0:0:
405,143,93141,2,0,P|404:118|399:93,2,50,0|4|8,0:0|0:0|0:0,0:0:0:0:
405,263,94641,6,0,P|345:339|248:343,1,200,4|0,0:0|0:0,0:0:0:0:
186,241,96891,1,8,0:0:0:0:
111,146,97641,6,0,L|12:156,2,100,4|8|4,0:0|0:0|0:0,0:0:0:0:
166,169,99516,2,0,P|169:193|167:218,1,50,4|8,0:0|0:0,0:0:0:0:
221,325,100641,6,0,L|320:318,1,100,4|8,0:0|0:0,0:0:0:0:
416,246,102141,1,4,0:0:0:0:
439,190,102516,2,0,P|438:165|433:140,1,50,6|8,0:0|0:0,0:0:0:0:
334,70,103641,6,0,P|286:61|240:78,2,100,4|8|0,0:0|0:0|0:0,0:0:0:0:
379,111,105516,2,0,L|387:160,1,50,4|8,0:0|0:0,0:0:0:0:
318,258,106641,5,4,0:0:0:0:
206,214,107391,1,8,0:0:0:0:
111,287,108141,2,0,P|86:292|61:293,2,50,0|2|8,0:0|0:0|0:0,0:0:0:0:
206,214,109641,6,0,L|210:114,2,100,4|8|4,0:0|0:0|0:0,0:0:0:0:
264,318,111891,1,8,0:0:0:0:
382,298,112641,6,0,P|442:223|413:132,1,200,4|4,0:0|0:0,0:0:0:0:
358,107,114516,2,0,L|308:101,1,50,2|8,0:0|0:0,0:0:0:0:
209,169,115641,5,4,0:0:0:0:
256,192,115828,12,2,121641,0:0:0:0:
