osu file format v14

[General]
AudioFilename: sixtythree I remember.mp3
AudioLeadIn: 0
PreviewTime: 13275
Countdown: 0
SampleSet: Soft
StackLeniency: 0.7
Mode: 0
LetterboxInBreaks: 0
WidescreenStoryboard: 1

[Editor]
Bookmarks: 88021
DistanceSpacing: 0.9
BeatDivisor: 16
GridSize: 32
TimelineZoom: 1

[Metadata]
Title:I remember
TitleUnicode:I remember
Artist:sixtythree
ArtistUnicode:sixtythree
Creator:Mortem
Version:calm
Source:
Tags:chillout guitar blues beats instrumental 63 keren ann by the cathedral
BeatmapID:763999
BeatmapSetID:346065

[Difficulty]
HPDrainRate:3
CircleSize:4
OverallDifficulty:3
ApproachRate:3.5
SliderMultiplier:1.2
SliderTickRate:1

[Events]
//Background and Video events
0,0,"JFqZB-DXqqY.jpg",0,0
//Break Periods
//Storyboard Layer 0 (Background)
//Storyboard Layer 1 (Fail)
//Storyboard Layer 2 (Pass)
//Storyboard Layer 3 (Foreground)
//Storyboard Sound Samples

[TimingPoints]
8025,666.666666666667,4,2,1,30,1,0
13358,-100,4,2,1,60,0,0
34691,-100,4,2,1,30,0,0
45358,-100,4,2,1,60,0,0

[Colours]
Combo1 : 255,255,79
Combo2 : 128,128,255
Combo3 : 217,106,15

[HitObjects]
128,270,8025,6,0,P|85:166|159:72,1,240
270,109,10025,2,0,L|338:110,1,60
381,140,10691,2,0,P|398:193|372:260,1,120
273,311,12025,2,0,L|196:305,2,75,2|2|2,0:0|0:0|0:0,0:0:0:0:
316,232,13358,6,0,P|321:175|297:119,1,120,2|8,0:0|0:0,0:0:0:0:
202,193,14691,1,0,0:0:0:0:
81,193,15358,2,0,P|69:226|72:262,1,60,8|2,0:0|0:0,0:0:0:0:
93,298,16025,6,0,P|150:326|209:313,1,120,2|8,0:0|0:0,0:0:0:0:
249,287,17025,1,2,0:0:0:0:
284,247,17358,2,0,P|339:225|401:242,1,120,0|8,0:0|0:0,0:0:0:0:
345,333,18691,5,2,0:0:0:0:
237,342,19358,2,0,L|177:342,2,60,8|2|0,0:0|0:0|0:0,0:0:0:0:
289,247,20691,1,8,0:0:0:0:
217,166,21358,6,0,P|159:149|92:167,1,120,2|8,0:0|0:0,0:0:0:0:
46,254,22691,1,0,0:0:0:0:
150,284,23358,1,8,0:0:0:0:
245,233,24025,6,0,L|369:248,1,120,2|8,0:0|0:0,0:0:0:0:
462,203,25358,2,0,P|461:172|450:141,1,60,0|2,0:0|0:0,0:0:0:0:
416,104,26025,1,8,0:0:0:0:
300,112,26691,6,0,P|239:117|186:75,2,120,2|8|0,0:0|0:0|0:0,0:0:0:0:
376,188,28691,1,8,0:0:0:0:
299,264,29358,6,0,P|245:288|187:280,1,120,2|8,0:0|0:0,0:0:0:0:
141,249,30358,1,2,0:0:0:0:
117,200,30691,2,0,P|171:176|229:184,1,120,0|8,0:0|0:0,0:0:0:0:
328,137,32025,5,2,0:0:0:0:
418,195,32691,1,8,0:0:0:0:
345,275,33358,2,0,P|290:248|228:248,1,120
136,191,34691,5,0,0:0:0:0:
169,148,35025,1,0,0:0:0:0:
210,113,35358,2,0,P|263:95|328:111,1,120
403,182,36691,2,0,L|383:246,1,60
335,260,37358,6,0,P|282:278|217:262,1,120
275,169,38691,2,0,P|218:161|171:111,1,120
68,152,40025,6,0,L|52:216,2,60
102,49,41358,1,0,0:0:0:0:
208,65,42025,1,0,0:0:0:0:
261,58,42358,1,0,0:0:0:0:
314,51,42691,6,0,P|357:48|427:84,1,120
345,155,44025,2,0,P|368:174|416:188,2,75,2|2|0,0:0|0:0|0:0,0:0:0:0:
264,155,45358,6,0,P|208:158|156:193,1,120,2|8,0:0|0:0,0:0:0:0:
241,259,46691,1,0,0:0:0:0:
351,267,47358,2,0,P|388:260|411:264,1,60,8|2,0:0|0:0,0:0:0:0:
462,273,48025,6,0,P|482:235|467:153,1,120,2|8,0:0|0:0,0:0:0:0:
437,119,49025,1,2,0:0:0:0:
384,98,49358,2,0,P|364:136|379:218,1,120,0|8,0:0|0:0,0:0:0:0:
283,269,50691,5,2,0:0:0:0:
174,269,51358,2,0,P|115:282|58:256,1,120,8|0,0:0|0:0,0:0:0:0:
124,171,52691,1,8,0:0:0:0:
75,74,53358,6,0,P|122:63|191:87,1,120,2|8,0:0|0:0,0:0:0:0:
256,168,54691,1,0,0:0:0:0:
357,131,55358,1,8,0:0:0:0:
410,224,56025,6,0,L|447:277,2,60,2|0|8,0:0|0:0|0:0,0:0:0:0:
356,214,57025,1,2,0:0:0:0:
305,234,57358,2,0,P|260:262|190:250,1,120,0|8,0:0|0:0,0:0:0:0:
122,174,58691,6,0,P|169:148|237:158,1,120,2|8,0:0|0:0,0:0:0:0:
280,180,59691,1,2,0:0:0:0:
324,211,60025,2,0,P|371:237|439:227,1,120,0|8,0:0|0:0,0:0:0:0:
395,128,61358,6,0,L|323:116,1,60,2|0,0:0|0:0,0:0:0:0:
294,82,62025,2,0,P|265:76|189:123,1,120,8|0,0:0|0:0,0:0:0:0:
110,190,63358,1,8,0:0:0:0:
176,275,64025,6,0,L|240:286,1,60,2|0,0:0|0:0,0:0:0:0:
266,241,64691,2,0,L|330:252,1,60,8|2,0:0|0:0,0:0:0:0:
377,239,65358,2,0,P|395:208|390:118,1,120
352,90,66358,1,0,0:0:0:0:
301,110,66691,6,0,P|242:119|178:95,1,120,2|8,0:0|0:0,0:0:0:0:
103,171,68025,2,0,P|147:212|206:219,1,120,0|8,0:0|0:0,0:0:0:0:
258,219,69025,1,2,0:0:0:0:
311,219,69358,6,0,P|369:211|412:170,1,120,2|8,0:0|0:0,0:0:0:0:
320,112,70691,2,0,P|262:120|219:161,1,120,0|8,0:0|0:0,0:0:0:0:
200,211,71691,1,0,0:0:0:0:
208,264,72025,6,0,L|267:297,1,60,2|0,0:0|0:0,0:0:0:0:
312,277,72691,2,0,P|374:268|433:296,1,120,8|0,0:0|0:0,0:0:0:0:
469,190,74025,2,0,L|481:130,1,60,8|2,0:0|0:0,0:0:0:0:
443,92,74691,6,0,P|384:94|332:131,1,120,2|8,0:0|0:0,0:0:0:0:
297,166,75691,1,2,0:0:0:0:
258,204,76025,2,0,P|209:238|150:240,1,120,0|8,0:0|0:0,0:0:0:0:
177,135,77358,6,0,P|215:88|277:70,2,120,2|8|0,0:0|0:0|0:0,0:0:0:0:
103,214,79358,2,0,P|87:240|77:270,1,60,8|2,0:0|0:0,0:0:0:0:
111,310,80025,6,0,L|239:334,1,120,2|8,0:0|0:0,0:0:0:0:
274,303,81025,1,2,0:0:0:0:
322,280,81358,2,0,L|450:304,1,120,0|8,0:0|0:0,0:0:0:0:
465,197,82691,6,0,P|466:164|454:133,1,60,2|0,0:0|0:0,0:0:0:0:
403,138,83358,2,0,P|380:113|349:100,1,60,8|2,0:0|0:0,0:0:0:0:
306,123,84025,2,0,P|259:139|187:123,1,120,0|8,0:0|0:0,0:0:0:0:
93,171,85358,6,0,L|64:293,2,120,2|8|0,0:0|0:0|0:0,0:0:0:0:
191,125,87358,1,0,0:0:0:0:
290,84,88025,5,0,0:0:0:0:
