osu file format v14

[General]
AudioFilename: sixtythree I remember.mp3
AudioLeadIn: 0
PreviewTime: 13275
Countdown: 0
SampleSet: Soft
StackLeniency: 0.7
Mode: 0
LetterboxInBreaks: 0
WidescreenStoryboard: 1

[Editor]
Bookmarks: 88021
DistanceSpacing: 1.1
BeatDivisor: 6
GridSize: 32
TimelineZoom: 1

[Metadata]
Title:I remember
TitleUnicode:I remember
Artist:sixtythree
ArtistUnicode:sixtythree
Creator:Mortem
Version:advanced
Source:
Tags:chillout guitar blues beats instrumental 63 keren ann by the cathedral
BeatmapID:764000
BeatmapSetID:346065

[Difficulty]
HPDrainRate:6.4
CircleSize:4.6
OverallDifficulty:5.6
ApproachRate:7.4
SliderMultiplier:1.6
SliderTickRate:2

[Events]
//Background and Video events
0,0,"JFqZB-DXqqY.jpg",0,0
//Break Periods
//Storyboard Layer 0 (Background)
//Storyboard Layer 1 (Fail)
//Storyboard Layer 2 (Pass)
//Storyboard Layer 3 (Foreground)
//Storyboard Sound Samples

[TimingPoints]
8025,666.666666666667,4,2,1,30,1,0
13358,-100,4,2,1,60,0,0
34691,-100,4,2,1,30,0,0
45358,-100,4,2,1,60,0,0

[Colours]
Combo1 : 255,255,79
Combo2 : 128,128,255
Combo3 : 217,106,15

[HitObjects]
120,144,8025,5,0,0:0:0:0:
93,227,8358,1,0,0:0:0:0:
156,287,8691,2,0,P|208:280|263:306,1,106.666666666667
318,302,9358,2,0,L|356:228,1,80
431,186,10025,1,0,0:0:0:0:
382,112,10358,1,0,0:0:0:0:
382,112,10691,6,0,P|342:101|302:111,1,80
341,189,11358,2,0,P|283:203|237:188,1,100
180,190,12025,2,0,L|142:298,1,106.666666666667,2|2,0:0|0:0,0:0:0:0:
208,312,12691,5,2,0:0:0:0:
208,312,12858,2,0,L|230:249,1,60,2|0,0:0|0:0,0:0:0:0:
180,190,13358,6,0,P|168:155|179:105,1,80,2|0,0:0|0:0,0:0:0:0:
250,78,14025,2,0,P|288:89|328:80,1,80,8|2,0:0|0:0,0:0:0:0:
400,128,14691,1,0,0:0:0:0:
475,174,15025,1,2,0:0:0:0:
421,243,15358,2,0,P|431:284|422:323,1,80,8|2,0:0|0:0,0:0:0:0:
325,284,16025,6,0,P|258:289|203:213,1,160,2|8,0:0|0:0,0:0:0:0:
248,145,17025,1,2,0:0:0:0:
165,115,17358,2,0,P|124:110|92:80,1,80,0|2,0:0|0:0,0:0:0:0:
161,27,18025,2,0,P|203:31|234:61,1,80,8|0,0:0|0:0,0:0:0:0:
342,115,18691,6,0,L|362:194,1,80,2|0,0:0|0:0,0:0:0:0:
449,192,19358,2,0,L|469:271,2,80,8|2|0,0:0|0:0|0:0,0:0:0:0:
474,107,20358,1,2,0:0:0:0:
397,64,20691,2,0,P|364:47|315:50,1,80,8|2,0:0|0:0,0:0:0:0:
243,63,21358,6,0,P|186:76|111:57,1,133.333333333333,2|0,0:0|0:0,0:0:0:0:
77,81,22025,2,0,L|50:160,1,80,8|2,0:0|0:0,0:0:0:0:
114,217,22691,2,0,L|141:138,1,80,0|2,0:0|0:0,0:0:0:0:
227,135,23358,1,8,0:0:0:0:
307,170,23691,1,0,0:0:0:0:
417,96,24025,6,0,P|447:167|419:246,1,160,2|8,0:0|0:0,0:0:0:0:
359,304,25025,1,2,0:0:0:0:
271,304,25358,2,0,L|182:301,2,80,0|2|8,0:0|0:0|0:0,0:0:0:0:
314,227,26358,1,2,0:0:0:0:
271,149,26691,6,0,P|210:107|126:116,1,160,2|8,0:0|0:0,0:0:0:0:
60,172,27691,1,2,0:0:0:0:
108,247,28025,2,0,P|114:286|102:326,1,80,0|2,0:0|0:0,0:0:0:0:
190,324,28691,2,0,P|229:318|267:329,1,80,8|0,0:0|0:0,0:0:0:0:
285,155,29358,6,0,B|352:154|352:154|390:186|443:170,1,160,2|8,0:0|0:0,0:0:0:0:
411,82,30358,1,2,0:0:0:0:
323,75,30691,1,0,0:0:0:0:
285,155,31025,1,2,0:0:0:0:
246,233,31358,2,0,P|212:206|195:161,1,80,8|2,0:0|0:0,0:0:0:0:
285,155,32025,6,0,P|332:223|304:296,1,160,2|8,0:0|0:0,0:0:0:0:
225,318,33025,1,2,0:0:0:0:
137,318,33358,2,0,P|98:281|101:205,1,133.333333333333
124,188,34025,2,0,L|205:208,1,80
329,167,34691,5,0,0:0:0:0:
391,104,35025,1,0,0:0:0:0:
453,166,35358,2,0,B|474:202|454:239|454:239|451:282,1,106.666666666667
415,312,36025,2,0,P|377:304|330:317,1,80
284,238,36691,2,0,P|322:246|369:233,1,80
384,199,37247,1,0,0:0:0:0:
384,199,37358,6,0,L|389:116,1,80
302,99,38025,2,0,B|258:106|228:88|228:88|187:99,1,106.666666666667
150,129,38691,1,0,0:0:0:0:
91,193,39025,1,0,0:0:0:0:
153,255,39358,1,0,0:0:0:0:
215,192,39691,1,0,0:0:0:0:
215,192,40025,6,0,P|235:229|236:284,1,80
177,332,40691,2,0,P|116:324|78:283,1,106.666666666667
86,235,41358,2,0,P|99:199|94:159,1,80
154,99,42025,1,0,0:0:0:0:
234,133,42358,1,0,0:0:0:0:
315,100,42691,6,0,L|397:114,1,80
434,191,43358,2,0,P|405:235|415:297,1,106.666666666667
393,345,44025,2,0,L|282:335,1,106.666666666667,2|2,0:0|0:0,0:0:0:0:
247,289,44691,1,0,0:0:0:0:
164,315,45025,1,0,0:0:0:0:
116,196,45358,6,0,P|145:129|101:49,1,160,2|8,0:0|0:0,0:0:0:0:
59,127,46358,1,2,0:0:0:0:
116,196,46691,2,0,P|105:241|115:283,1,80,0|2,0:0|0:0,0:0:0:0:
193,241,47358,2,0,P|204:196|194:154,1,80,8|2,0:0|0:0,0:0:0:0:
256,97,48025,6,0,P|307:113|384:84,1,133.333333333333,2|2,0:0|0:0,0:0:0:0:
412,113,48691,2,0,L|430:190,1,80,8|2,0:0|0:0,0:0:0:0:
367,253,49358,1,0,0:0:0:0:
279,253,49691,2,0,L|261:176,1,80,2|8,0:0|0:0,0:0:0:0:
188,124,50358,1,0,0:0:0:0:
81,194,50691,6,0,P|50:236|64:315,1,133.333333333333,2|0,0:0|0:0,0:0:0:0:
92,326,51358,2,0,L|172:321,1,80,8|2,0:0|0:0,0:0:0:0:
260,321,52025,2,0,P|298:320|337:296,1,80,0|2,0:0|0:0,0:0:0:0:
348,212,52691,2,0,P|310:213|271:237,1,80,8|2,0:0|0:0,0:0:0:0:
191,235,53358,6,0,P|127:196|119:115,1,160,2|8,0:0|0:0,0:0:0:0:
200,148,54358,1,2,0:0:0:0:
281,114,54691,2,0,P|313:131|360:129,1,80,0|2,0:0|0:0,0:0:0:0:
442,115,55358,2,0,P|442:153|418:196,1,80,8|0,0:0|0:0,0:0:0:0:
323,270,56025,6,0,P|256:303|180:262,1,160,2|8,0:0|0:0,0:0:0:0:
139,192,57025,1,2,0:0:0:0:
139,192,57358,2,0,P|144:153|131:113,1,80,0|2,0:0|0:0,0:0:0:0:
57,161,58025,2,0,P|52:200|65:240,1,80,8|2,0:0|0:0,0:0:0:0:
147,266,58691,6,0,P|188:252|216:173,1,133.333333333333,2|2,0:0|0:0,0:0:0:0:
248,158,59358,2,0,P|279:169|336:160,1,80,8|2,0:0|0:0,0:0:0:0:
294,81,60025,2,0,P|332:75|381:96,2,80,0|2|8,0:0|0:0|0:0,0:0:0:0:
203,82,61025,1,0,0:0:0:0:
115,175,61358,6,0,P|117:234|58:289,1,133.333333333333,2|0,0:0|0:0,0:0:0:0:
73,322,62025,2,0,P|112:332|152:327,1,80,8|2,0:0|0:0,0:0:0:0:
233,297,62691,1,0,0:0:0:0:
315,328,63025,1,2,0:0:0:0:
396,295,63358,2,0,P|422:260|428:222,1,80,8|2,0:0|0:0,0:0:0:0:
339,226,64025,6,0,P|309:225|257:117,1,160,2|8,0:0|0:0,0:0:0:0:
191,61,65025,1,2,0:0:0:0:
117,109,65358,2,0,B|96:149|118:187|118:187|144:232|112:275,1,160
61,327,66358,1,0,0:0:0:0:
187,309,66691,6,0,P|227:301|281:313,1,80,2|0,0:0|0:0,0:0:0:0:
269,218,67358,2,0,P|307:231|348:268,1,80,8|2,0:0|0:0,0:0:0:0:
400,317,68025,1,0,0:0:0:0:
462,254,68358,1,2,0:0:0:0:
418,177,68691,1,8,0:0:0:0:
329,177,69025,1,2,0:0:0:0:
266,114,69358,6,0,P|220:118|180:144,2,80,2|0|8,0:0|0:0|0:0,0:0:0:0:
329,177,70358,1,2,0:0:0:0:
263,236,70691,2,0,L|179:250,1,80,0|2,0:0|0:0,0:0:0:0:
149,330,71358,2,0,L|233:316,1,80,8|0,0:0|0:0,0:0:0:0:
338,252,72025,6,0,P|336:215|231:168,1,160,2|8,0:0|0:0,0:0:0:0:
151,150,73025,1,2,0:0:0:0:
86,209,73358,2,0,P|68:256|72:299,1,80,0|2,0:0|0:0,0:0:0:0:
154,264,74025,2,0,P|201:282|244:278,1,80,8|2,0:0|0:0,0:0:0:0:
292,219,74691,6,0,P|366:214|421:278,1,160,2|8,0:0|0:0,0:0:0:0:
335,298,75691,1,2,0:0:0:0:
246,298,76025,2,0,P|194:305|164:297,2,80,0|2|8,0:0|0:0|0:0,0:0:0:0:
292,219,77025,1,0,0:0:0:0:
229,107,77358,6,0,P|174:116|103:83,1,133.333333333333,2|0,0:0|0:0,0:0:0:0:
72,107,78025,2,0,L|40:186,1,80,8|2,0:0|0:0,0:0:0:0:
90,254,78691,2,0,L|122:175,1,80,0|2,0:0|0:0,0:0:0:0:
208,179,79358,1,8,0:0:0:0:
270,241,79691,1,2,0:0:0:0:
332,178,80025,6,0,P|354:153|404:140,2,80,2|0|8,0:0|0:0|0:0,0:0:0:0:
404,228,81025,1,2,0:0:0:0:
341,289,81358,2,0,P|291:326|220:313,1,133.333333333333
200,298,82025,2,0,P|178:285|123:275,1,80,8|0,0:0|0:0,0:0:0:0:
57,165,82691,5,2,0:0:0:0:
129,115,83025,1,0,0:0:0:0:
180,186,83358,2,0,P|209:199|266:195,1,80,8|2,0:0|0:0,0:0:0:0:
231,112,84025,2,0,P|258:109|307:76,1,80,0|2,0:0|0:0,0:0:0:0:
390,75,84691,2,0,L|387:159,1,80,8|2,0:0|0:0,0:0:0:0:
300,211,85358,6,0,P|269:279|315:357,1,160,2|8,0:0|0:0,0:0:0:0:
359,280,86358,1,2,0:0:0:0:
359,280,86691,2,0,P|385:242|386:207,1,80,0|2,0:0|0:0,0:0:0:0:
340,133,87358,1,0,0:0:0:0:
260,96,87691,1,0,0:0:0:0:
175,192,88025,5,0,0:0:0:0:
