osu file format v14

[General]
AudioFilename: _abs07_02.mp3
AudioLeadIn: 0
PreviewTime: 60731
Countdown: 0
SampleSet: Normal
StackLeniency: 0.7
Mode: 0
LetterboxInBreaks: 1
WidescreenStoryboard: 1

[Editor]
Bookmarks: 13481
DistanceSpacing: 1.1
BeatDivisor: 4
GridSize: 8
TimelineZoom: 1

[Metadata]
Title:Absurd Gaff
TitleUnicode:Absurd Gaff
Artist:siromaru
ArtistUnicode:siromaru
Creator:spro
Version:Another
Source:BMS
Tags:THE BMS OF FIGHTERS 2008 Resurrection BOF2008 schranz
BeatmapID:630291
BeatmapSetID:278213

[Difficulty]
HPDrainRate:5
CircleSize:5
OverallDifficulty:7.5
ApproachRate:8.5
SliderMultiplier:1.4
SliderTickRate:2

[Events]
//Background and Video events
0,0,"ms_title.jpg",0,0
Video,-592,"mentalstock_movie.avi"
//Break Periods
2,37681,47306
2,85681,96056
//Storyboard Layer 0 (Background)
//Storyboard Layer 1 (Fail)
//Storyboard Layer 2 (Pass)
//Storyboard Layer 3 (Foreground)
//Storyboard Sound Samples

[TimingPoints]
1481,375,4,1,0,60,1,0
12543,-100,4,1,0,65,0,0
19106,-100,4,1,0,40,0,0
19481,-100,4,1,0,65,0,0
23981,-80,4,1,0,50,0,0
24356,-80,4,1,0,45,0,0
24731,-80,4,1,0,40,0,0
25106,-80,4,1,0,60,0,0
25199,-80,4,1,0,55,0,0
25293,-80,4,1,0,50,0,0
25481,-66.6666666666667,4,1,0,65,0,1
35981,-100,4,1,0,60,0,0
36918,-66.6666666666667,4,1,0,50,0,0
37106,-66.6666666666667,4,1,0,40,0,0
37293,-66.6666666666667,4,1,0,30,0,0
37481,-100,4,1,0,60,0,0
41981,-133.333333333333,4,1,0,70,0,0
42731,-80,4,1,0,70,0,0
43481,-100,4,1,0,60,0,0
49106,-66.6666666666667,4,1,0,60,0,0
49481,-100,4,1,0,60,0,0
61481,-57.1428571428571,4,1,0,70,0,1
71981,-57.1428571428571,4,1,0,80,0,1
72731,-57.1428571428571,4,1,0,70,0,1
77981,-100,4,1,0,80,0,1
78356,-133.333333333333,4,1,0,80,0,1
78731,-66.6666666666667,4,1,0,80,0,1
79481,-57.1428571428571,4,1,0,70,0,1
83981,-100,4,2,0,65,0,0
84356,-100,4,2,0,60,0,0
84731,-100,4,2,0,55,0,0
84918,-100,4,2,0,50,0,0
85106,-100,4,2,0,45,0,0
85481,-100,4,2,0,70,0,0
95981,-200,4,1,0,85,0,0
96731,-66.6666666666667,4,1,0,80,0,0
97481,-57.1428571428571,4,1,0,75,0,1
103106,-66.6666666666667,4,1,0,75,0,1
103481,-57.1428571428571,4,1,0,75,0,1
109106,-100,4,1,0,75,0,1
109481,-57.1428571428571,4,1,0,75,0,1
115481,-100,4,1,0,75,0,0
120356,-57.1428571428571,4,1,0,75,0,0
121106,-200,4,1,0,75,0,0

[HitObjects]
80,296,1481,5,0,0:0:0:0:
152,288,1668,1,0,0:0:0:0:
224,280,1856,2,0,L|232:208,1,70,8|0,0:0|0:0,0:0:0:0:
240,144,2137,5,0,0:0:0:0:
240,144,2231,2,0,L|244:100,2,35
312,136,2606,1,8,0:0:0:0:
384,128,2793,1,0,0:0:0:0:
384,128,2887,1,0,0:0:0:0:
384,128,2981,1,0,0:0:0:0:
416,192,3168,5,0,0:0:0:0:
432,264,3356,1,8,0:0:0:0:
360,264,3543,1,0,0:0:0:0:
360,264,3637,1,0,0:0:0:0:
360,264,3731,1,0,0:0:0:0:
360,264,3824,1,0,0:0:0:0:
360,264,3918,1,0,0:0:0:0:
288,264,4106,1,8,0:0:0:0:
288,264,4199,2,0,L|280:192,1,70,0|8,0:0|0:0,0:0:0:0:
272,128,4481,5,0,0:0:0:0:
200,128,4668,1,0,0:0:0:0:
128,128,4856,1,8,0:0:0:0:
80,184,5043,2,0,L|40:184,4,35
136,224,5606,5,8,0:0:0:0:
208,224,5793,1,0,0:0:0:0:
208,224,5887,1,0,0:0:0:0:
208,224,5981,6,8,L|200:272,2,46.6666666666667
264,150,6356,2,0,L|272:104,2,46.6666666666667,0|8|8,0:0|0:0|0:0,0:0:0:0:
288,224,6731,5,0,0:0:0:0:
312,224,6824,1,8,0:0:0:0:
336,224,6918,1,0,0:0:0:0:
360,224,7012,1,0,0:0:0:0:
384,224,7106,1,8,0:0:0:0:
408,224,7199,1,0,0:0:0:0:
432,224,7293,1,8,0:0:0:0:
456,224,7387,1,8,0:0:0:0:
480,224,7481,5,0,0:0:0:0:
456,160,7668,1,0,0:0:0:0:
432,96,7856,1,8,0:0:0:0:
376,136,8043,1,0,0:0:0:0:
376,136,8137,1,0,0:0:0:0:
376,136,8231,1,0,0:0:0:0:
376,136,8324,1,0,0:0:0:0:
376,136,8418,1,0,0:0:0:0:
304,128,8606,6,0,L|224:136,1,70,8|0,0:0|0:0,0:0:0:0:
234,134,8887,1,0,0:0:0:0:
234,134,8981,1,0,0:0:0:0:
168,128,9168,5,0,0:0:0:0:
96,120,9356,1,8,0:0:0:0:
20,204,9543,5,0,0:0:0:0:
44,200,9637,1,0,0:0:0:0:
68,196,9731,1,0,0:0:0:0:
92,192,9824,1,0,0:0:0:0:
116,188,9918,1,0,0:0:0:0:
160,240,10106,1,8,0:0:0:0:
160,240,10199,2,0,L|152:312,1,70,0|8,0:0|0:0,0:0:0:0:
176,336,10481,5,0,0:0:0:0:
248,352,10668,1,0,0:0:0:0:
320,368,10856,1,8,0:0:0:0:
384,336,11043,2,0,L|392:296,4,35
336,176,11606,6,0,L|344:248,1,70,8|0,0:0|0:0,0:0:0:0:
343,245,11887,1,0,0:0:0:0:
343,245,11981,1,4,2:0:0:0:
0,152,12731,5,8,0:0:0:0:
15,155,12825,1,0,0:0:0:0:
30,159,12919,1,0,0:0:0:0:
45,162,13013,1,0,0:0:0:0:
92,144,13106,5,8,0:0:0:0:
120,139,13200,1,0,0:0:0:0:
149,134,13294,1,8,0:0:0:0:
177,130,13387,1,8,0:0:0:0:
224,160,13481,6,0,P|240:192|240:232,1,70,4|8,0:0|0:0,0:0:0:0:
280,112,13856,2,0,L|296:40,1,70,2|0,0:0|0:0,0:0:0:0:
192,256,14231,6,0,L|120:248,1,70,0|8,0:0|0:0,0:0:0:0:
256,296,14606,2,0,P|288:288|328:288,1,70,2|0,0:0|0:0,0:0:0:0:
392,256,14981,6,0,L|416:184,1,70,0|8,0:0|0:0,0:0:0:0:
368,56,15356,2,0,P|369:90|385:121,1,70,2|0,0:0|0:0,0:0:0:0:
312,152,15731,6,0,L|240:144,1,70,0|8,0:0|0:0,0:0:0:0:
106,175,16106,2,0,L|176:168,1,70,2|0,0:0|0:0,0:0:0:0:
216,224,16481,6,0,L|208:296,1,70,0|8,0:0|0:0,0:0:0:0:
288,200,16856,2,0,L|280:272,1,70,2|0,0:0|0:0,0:0:0:0:
352,168,17231,6,0,L|360:96,1,70,0|8,0:0|0:0,0:0:0:0:
424,144,17606,2,0,L|432:72,1,70,2|0,0:0|0:0,0:0:0:0:
376,200,17981,6,0,P|336:192|304:192,1,70,0|8,0:0|0:0,0:0:0:0:
248,224,18356,2,0,L|256:296,1,70,2|0,0:0|0:0,0:0:0:0:
192,176,18731,6,0,L|200:104,1,70,0|8,0:0|0:0,0:0:0:0:
128,208,19106,5,2,0:1:0:0:
128,208,19199,1,2,0:1:0:0:
128,208,19293,1,2,0:1:0:0:
128,208,19387,1,0,0:1:0:0:
128,208,19481,6,0,L|56:200,1,70,0|8,0:0|0:0,0:0:0:0:
272,232,19856,2,0,L|192:240,1,70,2|0,0:0|0:0,0:0:0:0:
184,176,20231,6,0,L|112:168,1,70,0|8,0:0|0:0,0:0:0:0:
328,200,20606,2,0,L|248:208,1,70,2|0,0:0|0:0,0:0:0:0:
392,240,20981,6,0,L|384:312,1,70,0|8,0:0|0:0,0:0:0:0:
432,120,21356,2,0,L|440:200,1,70,2|0,0:0|0:0,0:0:0:0:
368,176,21731,6,0,L|360:248,1,70,0|8,0:0|0:0,0:0:0:0:
408,56,22106,2,0,L|416:136,1,70,2|0,0:0|0:0,0:0:0:0:
264,64,22481,6,0,P|296:72|336:72,1,70,0|8,0:0|0:0,0:0:0:0:
128,96,22856,2,0,L|208:88,1,70,2|0,0:0|0:0,0:0:0:0:
232,32,23231,6,0,P|264:40|304:40,1,70,0|8,0:0|0:0,0:0:0:0:
96,64,23606,2,0,L|176:56,1,70,2|0,0:0|0:0,0:0:0:0:
48,104,23981,6,0,L|4:100,3,43.75,2|0|0|0,1:1|1:0|1:0|1:0,1:0:0:0:
72,172,24356,2,0,L|116:176,3,43.75,0|0|0|0,1:1|1:0|1:0|1:0,1:0:0:0:
216,136,24731,2,0,L|172:132,3,43.75,0|0|0|0,1:1|1:0|1:0|1:0,1:0:0:0:
192,208,25106,5,0,0:0:0:0:
189,225,25199,1,0,0:0:0:0:
186,242,25293,1,0,0:0:0:0:
112,72,25481,6,0,P|192:48|304:104,1,210.000008010865,6|0,0:0|0:0,0:0:0:0:
272,264,26043,5,2,0:0:0:0:
272,264,26231,2,0,P|192:288|80:232,1,210.000008010865,6|0,0:0|0:0,0:0:0:0:
112,72,26793,5,2,0:0:0:0:
112,72,26981,2,0,L|336:88,1,210.000008010865,6|0,0:0|0:0,0:0:0:0:
472,192,27543,5,2,0:0:0:0:
472,192,27731,2,0,L|248:176,1,210.000008010865,6|0,0:0|0:0,0:0:0:0:
64,216,28293,5,2,0:0:0:0:
64,216,28481,2,0,P|176:184|224:104,1,210.000008010865,6|0,0:0|0:0,0:0:0:0:
464,32,29043,5,2,0:0:0:0:
464,32,29231,2,0,P|352:64|304:144,1,210.000008010865,6|0,0:0|0:0,0:0:0:0:
464,296,29793,5,2,0:0:0:0:
464,296,29981,2,0,L|360:280,1,105.000004005432,6|0,0:0|0:0,0:0:0:0:
504,216,30356,2,0,L|400:200,1,105.000004005432,6|0,0:0|0:0,0:0:0:0:
296,232,30731,5,2,2:0:0:0:
232,248,30918,1,2,2:0:0:0:
168,264,31106,1,2,2:0:0:0:
104,280,31293,1,2,2:0:0:0:
48,184,31481,6,0,P|160:160|208:232,1,210.000008010865,6|0,0:0|0:0,0:0:0:0:
176,328,32043,1,2,0:0:0:0:
320,248,32231,6,0,P|424:216|432:128,1,210.000008010865,6|0,0:0|0:0,0:0:0:0:
360,48,32793,1,2,0:0:0:0:
88,120,32981,6,0,P|176:160|272:104,1,210.000008010865,6|0,0:0|0:0,0:0:0:0:
320,0,33543,1,2,0:0:0:0:
392,184,33731,6,0,P|488:232|488:328,1,210.000008010865,6|0,0:0|0:0,0:0:0:0:
384,360,34293,1,2,0:0:0:0:
104,264,34481,6,0,P|216:248|264:320,1,210.000008010865,6|0,0:0|0:0,0:0:0:0:
384,280,35043,1,2,0:0:0:0:
208,168,35231,6,0,P|112:140|72:40,1,210.000008010865,6|0,0:0|0:0,0:0:0:0:
184,0,35793,1,2,0:0:0:0:
280,72,35981,5,2,1:0:0:0:
288,96,36074,1,0,2:0:0:0:
296,120,36168,2,0,L|288:160,1,35,0|0,2:0|2:0,2:0:0:0:
368,104,36356,1,6,0:0:0:0:
208,240,36731,5,2,2:0:0:0:
210,245,36824,1,0,2:0:0:0:
212,250,36918,1,0,2:0:0:0:
215,255,37012,1,0,2:0:0:0:
217,260,37106,1,0,2:0:0:0:
219,265,37199,1,0,2:0:0:0:
222,270,37293,1,0,2:0:0:0:
280,384,37481,5,4,0:0:0:0:
384,256,47981,6,0,L|456:256,2,70,0|2|0,0:0|2:0|0:0,0:0:0:0:
280,224,48731,1,2,0:0:0:0:
284,224,48824,1,2,0:0:0:0:
288,224,48918,1,2,0:0:0:0:
292,224,49012,1,2,0:0:0:0:
296,224,49106,2,0,L|128:224,1,157.500006008148
72,240,49481,6,0,L|64:168,2,70,4|0|8,0:0|0:0|0:0,0:0:0:0:
128,288,50043,2,0,L|124:328,4,35
196,264,50606,2,0,L|240:268,1,35,8|0,0:0|0:0,0:0:0:0:
264,260,50793,2,0,L|304:264,1,35
368,296,50981,6,0,L|440:292,2,70,4|0|8,0:0|0:0|0:0,0:0:0:0:
328,240,51543,2,0,L|328:204,4,35
256,248,52106,1,8,0:0:0:0:
264,252,52199,2,0,L|184:256,1,70,0|8,0:0|0:0,0:0:0:0:
112,272,52481,6,0,L|120:200,2,70,4|0|8,0:0|0:0|0:0,0:0:0:0:
168,312,53043,2,0,L|172:352,4,35
228,276,53606,1,8,0:0:0:0:
241,274,53699,1,0,0:0:0:0:
254,272,53793,1,0,0:0:0:0:
267,270,53887,1,0,0:0:0:0:
280,268,53981,6,0,L|352:273,2,70,4|0|8,0:0|0:0|0:0,0:0:0:0:
244,208,54543,1,0,0:0:0:0:
246,194,54637,1,0,0:0:0:0:
248,180,54731,1,0,0:0:0:0:
250,166,54824,1,0,0:0:0:0:
252,152,54918,1,0,0:0:0:0:
320,96,55106,6,0,P|328:80|344:64,1,35,2|2,2:0|2:0,2:0:0:0:
400,108,55293,2,0,P|392:124|376:140,1,35,2|2,2:0|2:0,2:0:0:0:
200,96,55481,6,0,L|128:104,2,70,4|0|8,0:0|0:0|0:0,0:0:0:0:
264,120,56043,2,0,L|304:120,4,35
224,176,56606,1,8,0:0:0:0:
225,189,56699,1,0,0:0:0:0:
227,202,56793,1,0,0:0:0:0:
229,215,56887,1,0,0:0:0:0:
231,228,56981,1,4,0:0:0:0:
120,272,57168,5,0,0:0:0:0:
192,288,57356,1,8,0:0:0:0:
264,280,57543,2,0,L|260:240,4,35
332,292,58106,1,8,0:0:0:0:
332,292,58199,2,0,L|404:288,1,70,0|8,0:0|0:0,0:0:0:0:
488,248,58481,5,4,0:0:0:0:
416,256,58668,1,0,0:0:0:0:
344,264,58856,1,8,0:0:0:0:
272,248,59043,1,0,0:0:0:0:
258,250,59137,1,0,0:0:0:0:
244,252,59231,1,0,0:0:0:0:
230,254,59324,1,0,0:0:0:0:
216,256,59418,1,0,0:0:0:0:
152,248,59606,2,0,L|80:240,1,70,8|4,0:0|0:0,0:0:0:0:
96,124,59981,6,0,L|104:172,2,46.6666666666667,8|0|0,0:0|0:0|0:0,0:0:0:0:
176,132,60356,6,0,L|168:76,2,46.6666666666667,8|0|0,0:0|0:0|0:0,0:0:0:0:
224,32,60731,5,8,0:0:0:0:
247,40,60824,1,0,0:0:0:0:
270,48,60918,1,0,0:0:0:0:
293,56,61012,1,0,0:0:0:0:
316,63,61106,1,2,2:0:0:0:
416,176,61481,6,0,L|400:304,1,122.500001168251,4|2,0:0|0:0,0:0:0:0:
224,224,61856,2,0,L|240:352,1,122.500001168251,8|2,0:0|0:0,0:0:0:0:
400,160,62231,6,0,L|384:288,1,122.500001168251,0|2,0:0|0:0,0:0:0:0:
240,208,62606,2,0,L|256:336,1,122.500001168251,8|2,0:0|0:0,0:0:0:0:
472,136,62981,6,0,L|344:120,1,122.500001168251,4|2,0:0|0:0,0:0:0:0:
336,272,63356,2,0,L|208:288,1,122.500001168251,8|2,0:0|0:0,0:0:0:0:
488,160,63731,6,0,L|360:144,1,122.500001168251,0|2,0:0|0:0,0:0:0:0:
352,256,64106,2,0,L|224:272,1,122.500001168251,8|2,0:0|0:0,0:0:0:0:
64,128,64481,6,0,P|48:192|64:256,1,122.500001168251,4|2,0:0|0:0,0:0:0:0:
224,80,64856,2,0,P|240:144|224:208,1,122.500001168251,8|2,0:0|0:0,0:0:0:0:
48,96,65231,6,0,P|32:160|48:224,1,122.500001168251,0|2,0:0|0:0,0:0:0:0:
192,112,65606,2,0,P|208:176|192:240,1,122.500001168251,8|2,0:0|0:0,0:0:0:0:
288,352,65981,6,0,L|416:336,1,122.500001168251,4|2,0:0|0:0,0:0:0:0:
336,272,66356,2,0,L|464:256,1,122.500001168251,8|2,0:0|0:0,0:0:0:0:
384,192,66731,2,0,L|512:176,1,122.500001168251,4|2,0:0|0:0,0:0:0:0:
192,64,67106,5,2,0:0:0:0:
168,72,67199,1,2,0:0:0:0:
144,80,67293,1,2,0:0:0:0:
120,88,67387,1,0,0:0:0:0:
96,96,67481,5,4,0:0:0:0:
104,240,67668,1,2,0:0:0:0:
32,168,67856,1,8,0:0:0:0:
168,168,68043,1,2,0:0:0:0:
376,160,68231,5,0,0:0:0:0:
232,192,68418,1,2,0:0:0:0:
384,168,68606,1,8,0:0:0:0:
240,184,68793,1,2,0:0:0:0:
424,352,68981,5,4,0:0:0:0:
448,208,69168,1,2,0:0:0:0:
304,352,69356,1,8,0:0:0:0:
328,208,69543,1,2,0:0:0:0:
128,272,69731,5,0,0:0:0:0:
272,280,69918,1,2,0:0:0:0:
104,288,70106,1,8,0:0:0:0:
248,256,70293,1,2,0:0:0:0:
32,248,70481,5,4,0:0:0:0:
24,104,70668,1,2,0:0:0:0:
160,48,70856,1,8,0:0:0:0:
152,192,71043,1,2,0:0:0:0:
280,120,71231,5,0,0:0:0:0:
424,128,71418,1,2,0:0:0:0:
272,128,71606,1,8,0:0:0:0:
416,120,71793,1,2,0:0:0:0:
384,248,71981,6,0,L|376:312,3,61.2500005841255
280,352,72356,1,6,0:0:0:0:
277,327,72449,1,0,0:0:0:0:
275,302,72543,1,0,0:0:0:0:
273,277,72637,1,0,0:0:0:0:
184,248,72731,6,0,P|188:220|176:184,1,61.2500005841255,2|0,0:0|0:0,0:0:0:0:
48,248,72918,2,0,P|44:276|56:312,1,61.2500005841255,2|0,0:0|0:0,0:0:0:0:
8,128,73106,5,2,0:0:0:0:
8,128,73199,1,2,0:0:0:0:
8,128,73293,1,0,0:0:0:0:
96,184,73481,6,0,P|160:192|216:160,1,122.500001168251,4|2,0:0|0:0,0:0:0:0:
48,32,73856,2,0,P|112:24|168:56,1,122.500001168251,8|2,0:0|0:0,0:0:0:0:
168,120,74231,6,0,L|296:128,1,122.500001168251,0|2,0:0|0:0,0:0:0:0:
144,272,74606,2,0,L|272:264,1,122.500001168251,8|2,0:0|0:0,0:0:0:0:
496,208,74981,6,0,L|368:200,1,122.500001168251,4|2,0:0|0:0,0:0:0:0:
512,48,75356,2,0,L|384:56,1,122.500001168251,8|2,0:0|0:0,0:0:0:0:
192,128,75731,6,0,P|256:120|320:136,1,122.500001168251,0|2,0:0|0:0,0:0:0:0:
104,256,76106,2,0,P|168:264|232:248,1,122.500001168251,8|2,0:0|0:0,0:0:0:0:
288,184,76481,5,4,0:0:0:0:
120,160,76668,1,2,0:0:0:0:
304,152,76856,1,8,0:0:0:0:
144,184,77043,1,2,0:0:0:0:
240,328,77231,5,4,0:0:0:0:
408,304,77418,1,2,0:0:0:0:
264,296,77606,1,8,0:0:0:0:
432,328,77793,1,2,0:0:0:0:
280,232,77981,6,2,L|176:240,1,105,2|0,0:0|0:0,0:0:0:0:
152,272,78356,6,2,P|128:248|136:208,1,78.7500030040742,4|0,0:0|0:0,0:0:0:0:
168,176,78731,6,2,P|168:128|64:216,1,315.000012016297
240,216,79481,6,0,L|488:208,1,245.000002336502,6|0,0:0|0:0,0:0:0:0:
272,136,80043,6,0,L|24:128,2,245.000002336502,6|0|2,0:0|0:0|0:0,0:0:0:0:
200,368,80981,5,4,0:0:0:0:
360,304,81168,1,2,0:0:0:0:
224,200,81356,1,6,0:0:0:0:
512,280,81731,5,4,0:0:0:0:
512,280,81824,1,0,0:0:0:0:
512,280,81918,1,0,0:0:0:0:
512,280,82012,1,0,0:0:0:0:
512,280,82106,2,2,L|256:256,1,245.000002336502,2|6,0:0|0:0,0:0:0:0:
48,112,82856,5,0,0:0:0:0:
0,208,83043,2,0,L|256:184,2,245.000002336502,6|0|6,0:0|0:0|0:0,0:0:0:0:
64,280,83981,6,0,L|60:324,3,35,2|0|0|0,0:0|0:0|0:0|0:0,0:0:0:0:
128,296,84356,2,0,L|124:340,3,35,2|0|0|0,0:0|0:0|0:0|0:0,0:0:0:0:
192,312,84731,5,0,0:0:0:0:
191,320,84824,1,2,0:0:0:0:
190,329,84918,1,0,0:0:0:0:
189,338,85012,1,0,0:0:0:0:
188,346,85106,1,0,0:0:0:0:
280,312,85481,5,4,0:0:0:0:
384,120,96731,5,6,0:0:0:0:
376,216,97106,1,6,0:0:0:0:
368,312,97481,6,0,P|272:280|152:352,1,245.000002336502,6|8,0:0|0:0,0:0:0:0:
40,216,98043,1,2,0:0:0:0:
40,216,98137,1,0,0:0:0:0:
40,216,98231,1,0,0:0:0:0:
192,136,98418,6,0,L|328:152,1,122.500001168251,2|8,0:0|0:0,0:0:0:0:
504,80,98793,2,0,L|382:94,1,122.500001168251,2|4,0:0|0:0,0:0:0:0:
344,264,99168,5,2,0:0:0:0:
344,264,99262,1,0,0:0:0:0:
344,264,99356,1,8,0:0:0:0:
176,288,99543,1,2,0:0:0:0:
176,288,99637,1,0,0:0:0:0:
176,288,99731,6,0,L|112:280,2,61.2500005841255,0|0|2,0:0|0:0|0:0,0:0:0:0:
48,136,100106,1,8,0:0:0:0:
48,136,100199,1,0,0:0:0:0:
48,136,100293,2,0,L|112:144,1,61.2500005841255,2|0,0:0|0:0,0:0:0:0:
208,160,100481,6,0,P|328:144|440:208,1,245.000002336502,6|8,0:0|0:0,0:0:0:0:
304,88,101043,6,0,P|320:144|304:208,1,122.500001168251,2|4,0:0|0:0,0:0:0:0:
168,312,101418,1,2,0:0:0:0:
172,288,101512,1,0,0:0:0:0:
176,264,101606,1,8,0:0:0:0:
180,240,101699,1,0,0:0:0:0:
184,216,101793,1,2,0:0:0:0:
144,112,101981,6,0,P|104:128|56:128,2,81.6666674455007,4|0|0,0:0|0:0|0:0,0:0:0:0:
208,80,102356,6,0,P|214:37|238:-4,2,81.6666674455007
204,152,102731,6,0,P|237:178|261:220,2,81.6666674455007
136,184,103106,6,0,L|280:200,1,140.000005340576,2|0,0:0|0:0,0:0:0:0:
392,176,103481,6,0,P|280:184|208:288,1,245.000002336502,6|8,0:0|0:0,0:0:0:0:
40,344,104043,1,2,0:0:0:0:
40,344,104137,1,0,0:0:0:0:
40,344,104231,1,0,0:0:0:0:
208,312,104418,6,0,L|80:296,1,122.500001168251,2|8,0:0|0:0,0:0:0:0:
24,136,104793,2,0,L|152:152,1,122.500001168251,2|4,0:0|0:0,0:0:0:0:
304,216,105168,5,2,0:0:0:0:
304,216,105262,1,0,0:0:0:0:
304,216,105356,1,8,0:0:0:0:
472,168,105543,2,0,L|488:104,1,61.2500005841255,2|0,0:0|0:0,0:0:0:0:
408,64,105731,5,0,0:0:0:0:
388,68,105824,1,0,0:0:0:0:
368,72,105918,1,2,0:0:0:0:
348,76,106012,1,0,0:0:0:0:
328,72,106106,5,8,0:0:0:0:
312,68,106199,1,0,0:0:0:0:
292,64,106293,1,2,0:0:0:0:
272,60,106387,1,0,0:0:0:0:
252,64,106481,6,0,P|144:88|80:200,1,245.000002336502,6|8,0:0|0:0,0:0:0:0:
168,344,107043,2,0,L|304:336,1,122.500001168251,2|4,0:0|0:0,0:0:0:0:
464,320,107418,1,2,0:0:0:0:
464,320,107512,1,0,0:0:0:0:
464,320,107606,1,8,0:0:0:0:
336,208,107793,1,2,0:0:0:0:
336,208,107887,1,0,0:0:0:0:
336,208,107981,6,0,P|368:208|400:192,1,61.2500005841255,4|0,0:0|0:0,0:0:0:0:
264,240,108168,2,2,L|136:240,2,122.500001168251,0|2|0,0:0|0:0|0:0,0:0:0:0:
120,136,108731,6,0,L|256:136,1,122.500001168251,0|2,0:0|0:0,0:0:0:0:
417,96,109106,2,2,L|312:96,1,105,6|0,0:0|0:0,0:0:0:0:
496,160,109481,6,0,P|496:288|416:368,1,245.000002336502,6|8,0:0|0:0,0:0:0:0:
256,320,110043,1,2,0:0:0:0:
256,320,110137,1,0,0:0:0:0:
256,320,110231,1,0,0:0:0:0:
8,264,110418,6,0,P|72:272|136:264,1,122.500001168251,2|8,0:0|0:0,0:0:0:0:
128,128,110793,2,0,P|67:121|6:129,1,122.500001168251,2|4,0:0|0:0,0:0:0:0:
280,208,111168,5,2,0:0:0:0:
280,208,111262,1,0,0:0:0:0:
280,208,111356,2,0,L|408:216,1,122.500001168251,8|2,0:0|0:0,0:0:0:0:
256,128,111731,6,0,P|272:104|280:72,1,61.2500005841255
232,16,111918,2,0,P|216:40|208:72,1,61.2500005841255,2|0,0:0|0:0,0:0:0:0:
136,96,112106,5,8,0:0:0:0:
112,104,112199,1,0,0:0:0:0:
88,112,112293,1,2,0:0:0:0:
64,120,112387,1,0,0:0:0:0:
40,128,112481,1,6,0:0:0:0:
472,176,112856,5,8,0:0:0:0:
360,144,113043,1,6,0:0:0:0:
296,248,113231,1,0,0:0:0:0:
184,224,113418,1,2,0:0:0:0:
184,224,113512,1,0,0:0:0:0:
184,224,113606,1,8,0:0:0:0:
64,176,113793,5,2,0:0:0:0:
64,176,113887,1,0,0:0:0:0:
64,176,113981,2,0,P|96:176|128:184,1,61.2500005841255,4|0,0:0|0:0,0:0:0:0:
184,144,114168,2,0,L|248:144,1,61.2500005841255
304,0,114356,6,0,P|328:64|312:120,1,122.500001168251,2|0,0:0|0:0,0:0:0:0:
432,312,114731,6,0,L|440:248,1,61.2500005841255,2|0,0:0|0:0,0:0:0:0:
360,184,114918,2,0,P|352:152|352:120,1,61.2500005841255
296,264,115106,6,2,L|168:272,2,122.500001168251,2|0|4,0:0|0:0|0:0,0:0:0:0:
152,184,115856,5,8,0:0:0:0:
88,240,116043,1,0,0:0:0:0:
88,240,116137,1,0,0:0:0:0:
88,240,116231,1,0,0:0:0:0:
88,240,116324,1,0,0:0:0:0:
88,240,116418,1,0,0:0:0:0:
16,200,116606,1,8,0:0:0:0:
240,280,116981,5,4,0:0:0:0:
472,240,117356,1,8,0:0:0:0:
400,200,117544,1,0,0:0:0:0:
400,200,117638,1,0,0:0:0:0:
400,200,117731,1,0,0:0:0:0:
400,200,117825,1,0,0:0:0:0:
400,200,117919,1,0,0:0:0:0:
336,256,118106,1,8,0:0:0:0:
272,104,118481,6,0,L|344:104,2,70,4|0|8,0:0|0:0|0:0,0:0:0:0:
216,160,119043,1,0,0:0:0:0:
192,160,119137,1,0,0:0:0:0:
168,160,119231,1,4,0:0:0:0:
144,160,119324,1,0,0:0:0:0:
120,160,119418,1,0,0:0:0:0:
72,216,119606,6,0,L|80:256,1,35,8|0,0:0|0:0,0:0:0:0:
160,264,119793,2,0,L|152:224,1,35
248,312,119981,5,4,0:0:0:0:
312,312,120106,1,0,0:0:0:0:
376,312,120231,1,0,0:0:0:0:
464,200,120356,6,0,P|424:184|384:184,1,81.6666674455007,4|0,0:0|0:0,0:0:0:0:
304,208,120606,1,0,0:0:0:0:
208,128,120731,5,4,0:0:0:0:
64,80,120856,1,0,0:0:0:0:
160,56,120981,1,0,0:0:0:0:
56,168,121106,6,2,L|64:240,1,70,2|4,0:0|0:0,0:0:0:0:
