osu file format v9

[General]
AudioFilename: Absurd Gaff - siromaru..mp3
AudioLeadIn: 1500
PreviewTime: -1
Countdown: 1
SampleSet: Normal
StackLeniency: 0.7
Mode: 0
LetterboxInBreaks: 1

[Editor]
DistanceSpacing: 1.6
BeatDivisor: 4
GridSize: 8

[Metadata]
Title:Absurd Gaff
Artist:siromaru
Creator:loli_milk
Version:Another
Source:BMS
Tags:

[Difficulty]
HPDrainRate:8
CircleSize:6
OverallDifficulty:10
ApproachRate:10
SliderMultiplier:2
SliderTickRate:0.5

[Events]
//Background and Video events
0,0,"Absurd Gaff.jpg"
//Break Periods
2,10971,11823
//Storyboard Layer 0 (Background)
//Storyboard Layer 1 (Fail)
//Storyboard Layer 2 (Pass)
//Storyboard Layer 3 (Foreground)
//Storyboard Sound Samples
//Background Colour Transformations
3,100,0,0,0

[TimingPoints]
273,375,4,1,0,100,1,0
273,-100,4,1,0,40,0,0
12273,-100,4,1,0,60,0,0

[Colours]
Combo1 : 64,0,0
Combo2 : 192,192,192
Combo3 : 128,128,128
Combo4 : 128,0,0

[HitObjects]
160,96,273,2,0,B|224:64,1,50
256,128,460,2,0,B|320:160,1,50
368,96,648,2,0,B|400:96,2,25
352,224,835,6,0,B|352:288,1,50
256,224,1023,2,0,B|256:160,1,50
160,224,1210,2,0,B|160:288,1,50
64,96,1398,6,0,B|96:160,1,50
192,128,1585,2,0,B|256:160,1,50
416,192,1773,6,0,B|336:192,1,50
256,144,1960,2,0,B|336:144,1,50
384,256,2148,2,0,B|384:320,1,50
288,80,2335,2,0,B|288:16,1,50
176,32,2523,6,0,B|128:80,1,50
128,176,2710,2,0,B|64:160,1,50
336,352,2898,2,0,B|384:304,1,50
384,208,3085,2,0,B|448:224,1,50
256,32,3273,6,0,B|256:96,1,50
256,160,3460,2,0,B|256:224,1,50
256,288,3648,2,0,B|256:352,2,50
128,96,4023,6,0,B|96:160,1,50
384,288,4210,2,0,B|416:224,1,50
160,320,4398,2,0,B|224:352,1,50
352,64,4585,2,0,B|288:32,1,50
192,192,4773,6,0,B|80:192,2,66.6666666666667
320,192,5148,2,0,B|416:192,2,66.6666666666667
256,272,5523,6,0,B|256:304,4,25
192,64,5898,6,0,B|192:160,1,50
320,320,6085,2,0,B|320:224,1,50
256,192,6273,6,0,B|192:160,1,50
128,160,6460,2,0,B|64:160,1,50
160,224,6648,2,0,B|224:256,1,50
288,256,6835,2,0,B|352:256,1,50
384,64,7023,6,0,B|448:32,1,50
480,96,7210,2,0,B|480:160,1,50
416,128,7398,2,0,B|352:160,1,50
320,96,7585,2,0,B|320:32,1,50
96,64,7773,6,0,B|160:64,1,50
192,128,7960,2,0,B|160:192,1,50
64,128,8148,2,0,B|128:128,1,50
160,192,8335,2,0,B|128:256,1,50
256,256,8523,6,0,B|256:288,2,25
320,128,8804,2,0,B|384:128,1,50
192,256,8991,2,0,B|128:256,1,50
384,288,9179,6,0,B|384:224,1,50
320,192,9366,2,0,B|288:128,1,50
224,160,9553,2,0,B|160:128,1,50
128,192,9741,2,0,B|64:192,1,50
128,288,9928,2,0,B|64:320,1,50
256,288,10116,2,0,B|224:352,1,50
320,192,10303,2,0,B|352:256,1,50
288,64,10491,2,0,B|352:64,1,50
128,96,10678,2,0,B|192:64,1,50
224,64,12273,6,0,B|192:128|128:128,1,100
128,256,12648,2,0,B|160:192|224:192,1,100
288,128,13023,2,0,B|288:192|352:224,1,100
448,224,13398,2,0,B|384:224|352:288,1,100
256,288,13773,6,0,B|128:288,1,100
32,192,14148,2,0,B|160:192,1,100
256,96,14523,2,0,B|128:96,1,100
288,192,14898,2,0,B|416:192,1,100
288,320,15273,6,0,B|224:352|160:288,1,100
64,224,15648,2,0,B|32:160|96:96,1,100
224,64,16023,2,0,B|288:32|352:96,1,100
448,160,16398,2,0,B|480:224|416:288,1,100
320,128,16773,6,0,B|320:0,1,100
256,160,17148,2,0,B|256:288,1,100
192,128,17523,2,0,B|192:0,1,100
192,192,17898,6,0,B|160:224|224:256|192:288,1,100
320,192,18273,6,0,B|416:128,1,100
416,256,18648,2,0,B|320:320,1,100
192,192,19023,2,0,B|96:256,1,100
96,128,19398,2,0,B|192:64,1,100
320,128,19773,6,0,B|384:96|384:96|416:128,1,100
320,128,20148,2,0,B|352:192|352:192|320:224,1,100
320,128,20523,2,0,B|256:160|256:160|224:128,1,100
320,128,20898,2,0,B|288:64|288:64|320:32,1,100
139,276,21273,6,0,B|160:256|160:256|128:192,1,100
212,180,21648,2,0,B|192:160|192:160|128:192,1,100
116,107,22023,2,0,B|96:128|96:128|128:192,1,100
43,203,22398,2,0,B|64:224|64:224|128:192,1,100
336,80,22773,6,0,B|400:112,1,50
368,208,22960,2,0,B|336:272,1,50
304,272,23148,2,0,B|240:240,1,50
288,96,23335,2,0,B|256:160,1,50
96,112,23523,2,0,B|176:112,1,50
128,160,23710,2,0,B|96:208,1,50
128,240,23898,2,0,B|192:240,1,50
48,144,24085,2,0,B|48:80,1,50
304,64,24273,6,0,B|288:160|192:192,1,150
192,176,24648,2,0,B|112:208|80:304,1,150
48,288,25023,2,0,B|0:240|16:128,1,150
32,112,25398,2,0,B|128:144,1,100
304,80,25773,6,0,B|400:80|448:144,1,150
432,176,26148,2,0,B|320:176|272:240,1,150
272,256,26523,2,0,B|208:224|176:128,1,150
224,128,26898,2,0,B|336:112,1,100
80,176,27273,6,0,B|208:144,1,100
336,176,27648,2,0,B|208:208,1,100
96,272,28023,2,0,B|224:240,1,100
352,272,28398,2,0,B|224:304,1,100
192,64,28773,6,0,B|336:32|416:128,2,200
160,48,29616,2,0,B|64:64|16:160|64:272,1,250
144,208,30273,6,0,B|112:304|32:320,1,150
224,240,30648,2,0,B|320:272|352:352,1,150
272,160,31023,2,0,B|369:134|432:192,1,150
368,48,31398,2,0,B|304:112|224:96,1,150
64,96,31773,2,0,B|160:128|176:240,1,150
256,352,32148,2,0,B|272:240|384:240,1,150
256,32,32523,2,0,B|240:144|128:144,1,150
112,272,32898,2,0,B|240:256|288:320,1,150
416,224,33273,2,0,B|336:176|240:208,1,150
144,80,33648,2,0,B|192:160|160:256,1,150
80,208,34023,2,0,B|128:128|224:128,1,150
352,96,34398,2,0,B|288:144|288:240,1,150
256,288,34773,6,0,B|208:336,1,50
144,304,34960,2,0,B|192:256,1,50
208,240,35101,2,0,B|208:208,7,25
272,144,35523,6,0,B|304:192,1,50
272,144,35710,2,0,B|320:112,1,50
272,144,35898,2,0,B|240:96,2,50
64,144,36273,6,0,B|48:240|96:304,1,150
112,320,36648,2,0,B|192:336|256:288,1,150
256,192,37023,2,0,B|176:240,1,50
128,192,37210,2,0,B|208:144,1,50
160,240,37398,2,0,B|160:288,1,50
224,144,37585,2,0,B|224:80,1,50
368,96,37773,6,0,B|416:144,1,50
320,320,37960,2,0,B|384:272,1,50
192,48,38148,2,0,B|256:112,1,50
128,336,38335,2,0,B|176:304,1,50
176,128,38523,6,0,B|96:128,1,50
320,224,38710,2,0,B|368:224,1,50
176,256,38898,2,0,B|144:256,2,25
192,256,39085,2,0,B|256:256,1,50
336,80,39273,6,0,B|264:80,1,50
286,80,39460,2,0,B|264:136,1,50
267,126,39648,2,0,B|312:176,1,50
301,163,39835,2,0,B|352:152,1,50
128,192,40023,6,0,B|200:192,1,50
178,192,40210,2,0,B|200:136,1,50
196,145,40398,2,0,B|151:95,1,50
162,108,40585,2,0,B|111:119,1,50
56,152,40773,2,0,B|16:160,6,25
64,216,41148,2,0,B|88:248,18,25
112,184,42085,2,0,B|152:176,2,25
192,96,42273,6,0,B|240:120,1,50
236,118,42460,2,0,B|288:176,1,50
269,155,42648,2,0,B|280:240,1,50
275,205,42835,2,0,B|240:280,1,50
32,264,43023,6,0,B|56:216,1,50
54,219,43210,2,0,B|111:167,1,50
91,186,43398,2,0,B|175:175,1,50
141,180,43585,2,0,B|215:215,1,50
224,88,43773,6,0,B|224:144,1,50
280,112,43960,2,0,B|280:40,1,50
168,64,44148,2,0,B|168:128,1,50
336,136,44335,2,0,B|336:88,1,50
112,120,44523,2,0,B|112:48,1,50
392,80,44710,2,0,B|392:144,1,50
256,192,44898,6,0,B|256:216,2,25
176,256,45085,2,0,B|120:296,1,50
40,184,45273,2,0,B|72:248,1,50
176,160,45460,2,0,B|176:88,1,50
288,256,45648,2,0,B|344:256,1,50
408,168,45835,2,0,B|480:224,1,50
288,96,46023,2,0,B|256:176,1,50
120,216,46210,2,0,B|168:256,1,50
408,232,46398,2,0,B|360:192,1,50
208,48,46585,2,0,B|208:144,1,50
208,168,46773,2,0,B|208:296,2,100
256,320,47523,6,0,B|256:296,12,25
