osu file format v9

[General]
AudioFilename: siromaru_+_cranky___conflict_[music_video].mp3
AudioLeadIn: 0
PreviewTime: 116769
Countdown: 1
SampleSet: Normal
StackLeniency: 0.7
Mode: 0
LetterboxInBreaks: 1
EpilepsyWarning: 1

[Editor]
Bookmarks: 13784,19409,25221,35534,37502,111940,129377,141565
DistanceSpacing: 0.8
BeatDivisor: 4
GridSize: 4

[Metadata]
Title:conflict
Artist:siromaru + cranky
Creator:f-INVERSE
Version:Intersection of Conflict
Source:BMS
Tags:bms of fighters bof 2011 intersection of conflict siromaru cranky iimo pico schranz rave

[Difficulty]
HPDrainRate:5
CircleSize:4
OverallDifficulty:10
ApproachRate:9
SliderMultiplier:2.5
SliderTickRate:1

[Events]
//Background and Video events
Video,0,"siromaru cranky conflict Music Video .avi"
0,0,"scconflict_opt.jpg"
//Break Periods
2,61796,71684
2,73796,84996
//Storyboard Layer 0 (Background)
//Storyboard Layer 1 (Fail)
//Storyboard Layer 2 (Pass)
//Storyboard Layer 3 (Foreground)
//Storyboard Sound Samples
//Background Colour Transformations
3,100,163,162,255

[TimingPoints]
1596.522588773,375,4,1,2,100,1,0
37457,-100,4,2,0,100,0,0
58398,-100,4,1,1,100,0,0
61465,-100,4,2,0,100,0,0
106571,-100,4,1,2,100,0,0
141546,-100,4,1,2,100,0,0

[Colours]
Combo1 : 112,88,126
Combo2 : 64,0,64
Combo3 : 130,77,112

[HitObjects]
256,192,1596,1,0
256,192,1971,1,0
256,192,2346,1,0
256,192,2721,1,0
256,192,3096,1,0
256,192,3471,1,0
256,192,3846,1,0
256,192,4221,1,0
256,192,4596,1,0
256,192,4971,1,0
256,192,5346,1,0
256,192,5721,1,0
256,192,6096,1,0
256,192,6471,1,0
256,192,6846,1,0
256,192,7221,1,0
256,192,7315,1,0
256,192,7409,1,0
256,192,7596,1,0
256,192,7971,1,0
256,192,8346,1,0
256,192,8721,1,0
256,192,9096,1,0
256,192,9471,1,0
256,192,9846,1,0
256,192,10221,1,0
256,192,10596,1,0
256,192,10971,1,0
256,192,11346,1,0
256,192,11721,1,0
256,192,12096,1,0
256,192,12190,1,0
256,192,12284,1,0
256,192,12471,1,0
256,192,12565,1,0
256,192,12659,1,0
256,192,12846,1,0
256,192,12940,1,0
256,192,13034,1,0
256,192,13221,1,0
256,192,13315,1,0
256,192,13409,1,0
256,192,13596,5,0
264,144,13690,1,0
232,160,13784,1,0
296,168,13971,1,0
280,128,14065,1,0
280,128,14159,5,0
232,160,14346,5,0
280,128,14440,1,0
280,128,14534,5,0
232,160,14721,5,0
280,128,14815,1,0
280,128,14909,5,0
256,192,15096,5,0
264,144,15190,1,0
232,160,15284,1,0
296,168,15471,1,0
280,128,15565,1,0
280,128,15659,5,0
232,160,15846,5,0
280,128,15940,1,0
280,128,16034,5,0
232,160,16221,5,0
280,128,16315,1,0
280,128,16409,5,0
256,192,16596,5,0
264,144,16690,1,0
232,160,16784,1,0
296,168,16971,1,0
280,128,17065,1,0
280,128,17159,5,0
232,160,17346,5,0
280,128,17440,1,0
280,128,17534,5,0
232,160,17721,5,0
280,128,17815,1,0
280,128,17909,5,0
232,160,18096,5,0
280,128,18190,1,0
280,128,18284,5,0
232,160,18471,5,0
280,128,18565,1,0
280,128,18659,5,0
232,160,18846,5,0
280,128,18940,1,0
280,128,19034,5,0
232,160,19221,5,0
280,128,19315,1,0
280,128,19409,5,0
232,160,19596,5,0
280,128,19690,1,0
280,128,19784,5,0
232,160,19971,5,0
280,128,20065,1,0
280,128,20159,5,0
232,160,20346,5,0
280,128,20440,1,0
280,128,20534,5,0
232,160,20721,5,0
280,128,20815,1,0
280,128,20909,5,0
232,160,21096,5,0
280,128,21190,1,0
280,128,21284,5,0
232,160,21471,5,0
280,128,21565,1,0
280,128,21659,5,0
232,160,21846,5,0
280,128,21940,1,0
280,128,22034,5,0
256,240,22221,5,0
256,240,22315,5,0
256,240,22409,1,0
256,240,22502,1,0
256,240,22596,1,0
256,240,22971,1,0
256,240,23252,1,0
256,240,23346,1,0
256,240,23721,1,0
256,240,24002,1,0
256,240,24096,1,0
256,240,24377,1,0
256,240,24471,1,0
256,240,24752,1,0
256,240,24845,1,0
256,240,25034,1,0
256,240,25127,1,0
20,124,25596,5,0
31,91,25690,1,0
62,68,25784,1,0
100,64,25877,1,0
132,88,25971,1,0
136,128,26065,5,0
120,164,26159,1,0
88,192,26253,1,0
51,218,26346,1,0
13,250,26440,1,0
1,293,26534,5,0
18,338,26628,1,0
68,359,26722,1,0
106,334,26815,1,0
135,295,26909,1,0
177,277,27002,5,0
222,288,27096,1,0
254,318,27190,1,0
283,356,27283,1,0
320,327,27377,1,0
346,291,27471,5,0
364,249,27565,1,0
375,204,27659,1,0
363,161,27752,1,0
338,117,27846,1,0
304,93,27940,5,0
268,69,28034,1,0
228,66,28128,1,0
199,97,28221,1,0
198,139,28315,1,0
225,170,28409,5,0
263,187,28503,1,0
301,179,28597,1,0
337,166,28690,1,0
378,146,28784,1,0
411,119,28878,5,0
432,158,28972,1,0
409,189,29066,1,0
442,216,29159,1,0
410,247,29253,1,0
453,280,29347,5,0
457,328,29441,1,0
413,331,29535,1,0
369,331,29628,1,0
328,324,29722,1,0
292,307,29815,5,0
259,287,29909,1,0
231,268,30003,1,0
203,244,30096,1,0
173,215,30190,1,0
204,189,30284,5,0
233,166,30378,1,0
266,142,30472,1,0
300,118,30565,1,0
270,82,30659,1,0
244,51,30753,5,0
200,39,30847,1,0
157,53,30941,1,0
126,80,31034,1,0
89,42,31128,1,0
49,60,31221,5,0
18,94,31315,1,0
46,128,31409,1,0
74,164,31502,1,0
93,196,31596,1,0
85,236,31690,5,0
51,246,31784,1,0
22,265,31878,1,0
4,296,31971,1,0
26,328,32065,1,0
64,347,32159,5,0
102,341,32253,1,0
132,318,32347,1,0
161,298,32440,1,0
189,275,32534,1,0
218,251,32627,5,0
242,225,32721,1,0
261,199,32815,1,0
273,165,32908,1,0
264,130,33002,1,0
237,93,33096,5,0
217,57,33190,1,0
173,45,33284,1,0
124,43,33377,1,0
87,71,33471,1,0
63,112,33565,5,0
62,157,33659,1,0
84,191,33753,1,0
120,220,33846,1,0
155,248,33940,1,0
190,269,34034,5,0
228,286,34128,1,0
268,290,34222,1,0
303,277,34316,1,0
321,237,34410,1,0
354,255,34503,5,0
355,215,34597,1,0
397,214,34690,1,0
384,175,34784,1,0
429,172,34878,1,0
408,141,34972,5,0
451,131,35066,1,0
419,101,35159,1,0
455,75,35253,1,0
432,39,35346,1,0
393,29,35440,5,0
361,34,35534,1,0
324,54,35628,1,0
305,80,35721,1,0
256,144,36096,5,0
256,144,36190,1,0
192,112,36284,5,0
224,128,36471,5,0
224,128,36565,5,0
224,128,36659,5,0
224,128,36846,1,0
224,128,36940,1,0
224,128,37034,1,0
224,128,37127,1,0
224,128,37221,1,0
344,136,37596,5,0
344,136,37690,1,0
224,128,37784,1,0
344,136,37877,1,0
344,136,37971,1,0
288,184,38159,1,0
288,184,38252,1,0
288,184,38346,1,0
288,184,38440,1,0
288,184,38534,1,0
288,184,38721,1,0
288,184,38815,1,0
288,184,38909,1,0
288,184,39002,1,0
288,184,39096,1,0
288,184,39284,1,0
288,184,39377,1,0
288,184,39471,1,0
288,184,39565,1,0
288,184,39659,1,0
200,176,39846,1,0
200,176,39940,1,0
200,176,40034,1,0
200,176,40221,1,0
344,136,40596,5,0
344,136,40690,1,0
224,128,40784,1,0
344,136,40877,1,0
344,136,40971,1,0
288,184,41159,1,0
288,184,41252,1,0
288,184,41346,1,0
288,184,41440,1,0
288,184,41534,1,0
288,184,41721,1,0
288,184,41815,1,0
288,184,41909,1,0
288,184,42002,1,0
288,184,42096,1,0
288,184,42284,1,0
288,184,42377,1,0
288,184,42471,1,0
288,184,42565,1,0
288,184,42659,1,0
264,120,42846,1,0
264,120,42940,1,0
264,120,43034,1,0
264,120,43221,1,0
264,120,43409,1,0
344,136,43596,5,0
344,136,43690,1,0
224,128,43784,1,0
344,136,43877,1,0
344,136,43971,1,0
288,184,44159,1,0
288,184,44252,1,0
288,184,44346,1,0
288,184,44440,1,0
288,184,44534,1,0
288,184,44721,1,0
288,184,44815,1,0
288,184,44909,1,0
288,184,45002,1,0
288,184,45096,1,0
288,184,45284,1,0
288,184,45377,1,0
288,184,45471,1,0
288,184,45565,1,0
288,184,45659,1,0
256,144,45846,1,0
256,144,45940,1,0
256,144,46034,1,0
256,144,46221,1,0
344,136,46596,5,0
344,136,46690,1,0
224,128,46784,1,0
344,136,46877,1,0
344,136,46971,1,0
288,184,47159,1,0
288,184,47252,1,0
288,184,47346,1,0
288,184,47440,1,0
288,184,47534,1,0
288,184,47721,1,0
288,184,47815,1,0
288,184,47909,1,0
288,184,48002,1,0
288,184,48096,1,0
288,184,48284,1,0
288,184,48377,1,0
288,184,48471,1,0
288,184,48565,1,0
288,184,48659,1,0
288,184,48846,1,0
288,184,49034,1,0
288,184,49221,1,0
288,184,49315,1,0
288,184,49409,1,0
344,136,49596,5,0
344,136,49690,1,0
224,128,49784,1,0
344,136,49877,1,0
344,136,49971,1,0
288,184,50159,1,0
288,184,50252,1,0
288,184,50346,1,0
288,184,50440,1,0
288,184,50534,1,0
288,184,50721,1,0
288,184,50815,1,0
288,184,50909,1,0
288,184,51002,1,0
288,184,51096,1,0
288,184,51284,1,0
288,184,51377,1,0
288,184,51471,1,0
288,184,51565,1,0
288,184,51659,1,0
288,184,51846,1,0
288,184,51940,1,0
288,184,52034,1,0
288,184,52221,1,0
344,136,52596,5,0
344,136,52690,1,0
224,128,52784,1,0
344,136,52877,1,0
344,136,52971,1,0
288,184,53159,1,0
288,184,53252,1,0
288,184,53346,1,0
288,184,53440,1,0
288,184,53534,1,0
288,184,53721,1,0
288,184,53815,1,0
288,184,53909,1,0
288,184,54002,1,0
288,184,54096,1,0
288,184,54284,1,0
288,184,54377,1,0
288,184,54471,1,0
288,184,54565,1,0
288,184,54659,1,0
288,184,54846,1,0
288,184,55221,1,0
344,136,55596,5,0
344,136,55690,1,0
224,128,55784,1,0
344,136,55877,1,0
344,136,55971,1,0
288,184,56159,1,0
288,184,56252,1,0
288,184,56346,1,0
288,184,56440,1,0
288,184,56534,1,0
288,184,56721,1,0
288,184,56815,1,0
288,184,56909,1,0
288,184,57002,1,0
288,184,57096,1,0
288,184,57284,1,0
288,184,57377,1,0
288,184,57471,1,0
288,184,57565,1,0
288,184,57659,1,0
224,128,57846,1,0
224,128,57940,1,0
224,128,58034,1,0
224,128,58221,1,0
216,208,58596,5,0
216,208,58690,1,0
224,240,58784,1,0
216,208,58971,5,0
216,208,59065,1,0
224,240,59159,1,0
216,208,59346,5,0
216,208,59440,1,0
224,240,59534,1,0
216,208,59721,5,0
216,208,59815,1,0
224,240,59909,1,0
184,232,60096,1,0
176,184,60377,1,0
208,152,60659,1,0
256,184,60940,1,0
344,192,61221,1,0
312,256,61596,1,0
208,168,72284,5,0
232,200,72378,5,0
208,168,72472,5,0
232,200,72566,5,0
208,168,72659,5,0
232,200,72753,5,0
256,160,72846,1,0
208,88,73034,1,0
312,96,73221,1,0
264,104,73409,1,0
264,64,73596,1,0
344,136,85596,5,0
344,136,85690,1,0
224,128,85784,1,0
344,136,85877,1,0
344,136,85971,1,0
288,184,86159,1,0
288,184,86252,1,0
288,184,86346,1,0
288,184,86440,1,0
288,184,86534,1,0
288,184,86721,1,0
288,184,86815,1,0
288,184,86909,1,0
288,184,87002,1,0
288,184,87096,1,0
288,184,87284,1,0
288,184,87377,1,0
288,184,87471,1,0
288,184,87565,1,0
288,184,87659,1,0
200,176,87846,1,0
200,176,87940,1,0
200,176,88034,1,0
200,176,88221,5,0
224,240,88315,1,0
200,176,88409,1,0
224,240,88502,1,0
224,240,88596,1,0
200,176,88784,5,0
224,240,88878,1,0
200,176,88972,1,0
224,240,89065,1,0
224,240,89159,1,0
200,176,89346,5,0
224,240,89440,1,0
200,176,89534,1,0
224,240,89627,1,0
224,240,89721,1,0
200,176,89909,5,0
224,240,90003,1,0
200,176,90097,1,0
224,240,90190,1,0
224,240,90284,1,0
264,168,90471,1,0
288,208,90659,1,0
200,176,90846,5,0
224,240,90940,1,0
200,176,91034,1,0
224,240,91127,1,0
224,240,91221,1,0
200,176,91409,5,0
224,240,91503,1,0
200,176,91597,1,0
224,240,91690,1,0
224,240,91784,1,0
200,176,91971,5,0
224,240,92065,1,0
200,176,92159,1,0
224,240,92252,1,0
224,240,92346,1,0
200,176,92534,5,0
224,240,92628,1,0
200,176,92722,1,0
224,240,92815,1,0
224,240,92909,1,0
264,192,93096,1,0
264,192,93190,1,0
264,192,93284,1,0
264,192,93471,1,0
296,160,93846,1,0
296,160,93940,1,0
296,160,94034,1,0
352,176,94221,1,0
328,216,94409,1,0
304,240,94502,1,0
280,264,94596,1,0
256,288,94690,1,0
208,256,94971,1,0
176,240,95065,1,0
176,240,95159,1,0
160,184,95346,1,0
160,184,95440,1,0
160,184,95534,1,0
168,144,95721,1,0
168,144,95815,1,0
168,144,95909,1,0
200,176,96096,5,0
224,240,96190,1,0
200,176,96284,1,0
224,240,96377,1,0
224,240,96471,1,0
200,176,96659,5,0
224,240,96753,1,0
200,176,96847,1,0
224,240,96940,1,0
224,240,97034,1,0
200,176,97221,5,0
224,240,97315,1,0
200,176,97409,1,0
224,240,97502,1,0
224,240,97596,1,0
200,176,97784,5,0
224,240,97878,1,0
200,176,97972,1,0
224,240,98065,1,0
224,240,98159,1,0
176,128,98346,1,0
216,128,98440,1,0
192,96,98534,1,0
200,176,98721,5,0
224,240,98815,1,0
200,176,98909,1,0
224,240,99002,1,0
224,240,99096,1,0
200,176,99284,5,0
224,240,99378,1,0
200,176,99472,1,0
224,240,99565,1,0
224,240,99659,1,0
200,176,99846,5,0
224,240,99940,1,0
200,176,100034,1,0
224,240,100127,1,0
224,240,100221,1,0
200,176,100409,5,0
224,240,100503,1,0
200,176,100597,1,0
224,240,100690,1,0
224,240,100784,1,0
224,128,100971,1,0
256,144,101159,1,0
200,176,101346,5,0
224,240,101440,1,0
200,176,101534,1,0
224,240,101627,1,0
224,240,101721,1,0
200,176,101909,5,0
224,240,102003,1,0
200,176,102097,1,0
224,240,102190,1,0
224,240,102284,1,0
200,176,102471,5,0
224,240,102565,1,0
200,176,102659,1,0
224,240,102752,1,0
224,240,102846,1,0
200,176,103034,5,0
224,240,103128,1,0
200,176,103222,1,0
224,240,103315,1,0
224,240,103409,1,0
232,128,103596,1,0
232,128,103690,1,0
232,128,103784,1,0
200,176,103971,5,0
224,240,104065,1,0
200,176,104159,1,0
224,240,104252,1,0
224,240,104346,1,0
200,176,104533,5,0
224,240,104627,1,0
200,176,104721,1,0
224,240,104814,1,0
224,240,104908,1,0
200,176,105096,5,0
224,240,105190,1,0
200,176,105284,1,0
224,240,105377,1,0
224,240,105471,1,0
200,176,105659,5,0
224,240,105753,1,0
200,176,105847,1,0
224,240,105940,1,0
224,240,106034,1,0
256,192,106877,5,0
264,224,107159,1,0
304,216,107440,1,0
224,224,107721,1,0
288,176,108002,1,0
256,160,108284,1,0
224,184,108565,1,0
208,144,108846,1,0
208,144,108940,1,0
208,144,109033,1,0
256,192,109221,5,0
264,224,109503,1,0
304,216,109784,1,0
224,224,110065,1,0
288,176,110346,1,0
256,160,110628,1,0
224,184,110909,1,0
272,208,111190,1,0
208,144,111471,1,0
208,144,111565,1,0
208,144,111658,1,0
256,192,111846,5,0
264,224,112128,1,0
304,216,112409,1,0
224,224,112690,1,0
288,176,112971,1,0
256,160,113253,1,0
224,184,113534,1,0
272,208,113815,1,0
208,144,114096,1,0
208,144,114190,1,0
208,144,114283,1,0
360,168,114471,1,0
360,168,114565,1,0
360,168,114659,1,0
360,168,114752,1,0
360,168,114846,1,0
360,168,114940,1,0
360,168,115034,1,0
360,168,115127,1,0
360,168,115221,1,0
360,168,115315,1,0
360,168,115409,1,0
360,168,115596,1,0
288,184,115690,1,0
288,184,115784,1,0
240,168,115971,1,0
208,192,116252,1,0
168,160,116534,1,0
144,192,116815,1,0
96,168,117096,1,0
66,53,117471,5,0
104,60,117565,1,0
140,71,117659,1,0
180,83,117752,1,0
220,97,117846,1,0
203,134,117940,5,0
173,153,118034,1,0
142,171,118127,1,0
114,183,118221,1,0
78,200,118315,1,0
92,237,118409,1,0
129,255,118503,1,0
160,271,118597,1,0
199,286,118690,1,0
230,296,118784,1,0
245,259,118878,1,0
252,223,118971,1,0
259,190,119065,1,0
264,157,119159,1,0
282,127,119252,1,0
307,104,119346,1,0
347,95,119440,1,0
388,108,119534,1,0
411,137,119628,1,0
407,177,119722,1,0
381,212,119815,1,0
338,220,119909,1,0
303,201,120003,1,0
267,177,120096,1,0
242,160,120190,1,0
218,136,120284,1,0
190,111,120377,1,0
161,134,120471,1,0
135,169,120565,1,0
135,202,120658,1,0
149,235,120752,1,0
136,264,120846,1,0
104,277,120940,1,0
122,312,121034,1,0
72,312,121128,1,0
48,276,121221,1,0
45,236,121315,1,0
75,205,121409,1,0
114,193,121502,1,0
156,204,121596,1,0
190,220,121690,1,0
217,249,121784,1,0
198,275,121878,1,0
214,313,121972,1,0
242,344,122065,1,0
283,338,122159,1,0
307,307,122253,1,0
343,281,122346,1,0
380,270,122440,1,0
419,285,122534,1,0
438,316,122627,1,0
476,328,122721,1,0
511,301,122815,1,0
494,262,122909,1,0
471,230,123003,1,0
474,193,123097,1,0
441,166,123190,1,0
396,156,123284,1,0
379,121,123378,1,0
350,88,123471,1,0
367,57,123565,1,0
324,45,123659,1,0
285,54,123752,1,0
253,60,123846,1,0
215,70,123940,1,0
180,78,124034,1,0
161,109,124128,1,0
146,138,124222,1,0
139,173,124315,1,0
147,202,124409,1,0
172,229,124503,1,0
207,241,124596,1,0
243,241,124690,1,0
272,219,124784,1,0
310,208,124877,1,0
346,210,124971,1,0
381,233,125065,1,0
405,261,125159,1,0
420,293,125253,1,0
410,325,125347,1,0
384,348,125440,1,0
348,359,125534,1,0
305,344,125627,1,0
284,321,125721,1,0
277,287,125815,1,0
279,254,125908,1,0
284,214,126002,1,0
286,183,126096,1,0
291,157,126190,1,0
298,126,126284,1,0
321,96,126378,1,0
366,75,126471,1,0
406,87,126565,1,0
431,115,126659,1,0
435,154,126752,1,0
413,183,126846,1,0
371,187,126939,1,0
331,188,127033,1,0
290,186,127127,1,0
260,183,127221,1,0
216,181,127315,1,0
182,172,127409,1,0
149,154,127502,1,0
115,134,127596,1,0
76,134,127690,1,0
34,156,127784,1,0
256,152,127971,5,0
224,128,128065,1,0
256,248,128346,1,0
192,112,128440,1,0
256,88,128721,5,0
296,144,128815,5,0
304,96,128909,5,0
256,88,129002,5,0
296,144,129096,5,0
256,88,129471,5,0
296,144,129565,1,0
304,96,129659,1,0
296,144,129752,1,0
256,88,129846,1,0
296,144,129940,1,0
304,96,130034,1,0
256,88,130127,1,0
296,144,130221,1,0
304,96,130315,1,0
256,88,130409,1,0
296,144,130503,1,0
304,96,130597,1,0
256,88,130690,1,0
296,144,130784,1,0
304,96,130878,1,0
256,88,130971,1,0
296,144,131065,1,0
304,96,131159,1,0
256,88,131252,1,0
296,144,131346,1,0
304,96,131440,1,0
256,88,131534,1,0
296,144,131628,1,0
304,96,131722,1,0
256,88,131815,1,0
296,144,131909,1,0
304,96,132003,1,0
256,88,132096,1,0
296,144,132190,1,0
304,96,132284,1,0
256,88,132377,1,0
296,144,132471,1,0
304,96,132565,1,0
256,88,132658,1,0
296,144,132752,1,0
304,96,132846,1,0
256,88,132940,1,0
296,144,133034,1,0
304,96,133128,1,0
256,88,133221,1,0
296,144,133315,1,0
304,96,133409,1,0
256,88,133502,1,0
296,144,133596,1,0
304,96,133690,1,0
256,88,133784,1,0
296,144,133878,1,0
304,96,133972,1,0
256,88,134065,1,0
296,144,134159,1,0
304,96,134253,1,0
256,88,134346,1,0
296,144,134440,1,0
304,96,134534,1,0
256,88,134627,1,0
296,144,134721,1,0
304,96,134815,1,0
256,88,134909,1,0
296,144,135003,1,0
304,96,135097,1,0
256,88,135190,1,0
296,144,135284,1,0
304,96,135378,1,0
256,88,135471,1,0
296,144,135565,1,0
304,96,135659,1,0
256,88,135752,1,0
296,144,135846,1,0
304,96,135940,1,0
256,88,136034,1,0
296,144,136128,1,0
304,96,136222,1,0
256,88,136315,1,0
296,144,136409,1,0
304,96,136503,1,0
256,88,136596,1,0
296,144,136690,1,0
304,96,136784,1,0
256,88,136877,1,0
296,144,136971,1,0
304,96,137065,1,0
256,88,137159,1,0
296,144,137253,1,0
304,96,137347,1,0
296,144,137440,1,0
304,96,137534,1,0
256,88,137627,1,0
296,144,137721,1,0
304,96,137815,1,0
256,88,137908,1,0
296,144,138002,1,0
304,96,138096,1,0
256,88,138190,1,0
296,144,138284,1,0
304,96,138378,1,0
296,144,138471,1,0
304,96,138565,1,0
256,88,138658,1,0
296,144,138752,1,0
304,96,138846,1,0
256,88,138939,1,0
296,144,139033,1,0
304,96,139127,1,0
256,88,139221,1,0
296,144,139315,1,0
304,96,139409,1,0
304,96,139502,1,0
256,88,139596,1,0
296,144,139690,1,0
304,96,139784,1,0
296,144,139877,1,0
304,96,139971,1,0
256,88,140064,1,0
296,144,140158,1,0
304,96,140252,1,0
256,88,140346,1,0
296,144,140440,1,0
304,96,140534,1,0
304,96,140627,1,0
256,88,140721,1,0
296,144,140815,1,0
304,96,140909,1,0
296,144,141002,1,0
304,96,141096,1,0
296,144,141190,1,0
304,96,141284,1,0
256,88,141659,5,0
280,160,142034,1,0
240,184,142409,1,0
280,224,142784,1,0
232,248,143159,1,0
200,224,143534,1,0
200,224,143627,1,0
200,224,143721,1,0
160,200,143909,1,0
160,200,144284,1,0
160,152,144377,1,0
184,128,144471,1,0
192,176,144659,1,0
160,152,144752,1,0
184,128,144846,1,0
192,176,145034,1,0
160,152,145127,1,0
184,128,145221,1,0
192,176,145409,1,0
160,152,145502,1,0
184,128,145596,1,0
224,136,145690,1,0
224,88,145784,1,0
192,80,145971,1,0
