osu file format v14

[General]
AudioFilename: Atomic.mp3
AudioLeadIn: 0
PreviewTime: 108010
Countdown: 0
SampleSet: Soft
StackLeniency: 0.7
Mode: 0
LetterboxInBreaks: 1
WidescreenStoryboard: 1

[Editor]
Bookmarks: 91523
DistanceSpacing: 1.2
BeatDivisor: 4
GridSize: 4
TimelineZoom: 2.1

[Metadata]
Title:Atomic
TitleUnicode:Atomic
Artist:she
ArtistUnicode:she
Creator:Zerzxes
Version:Hard
Source:
Tags:Electronica chiptune
BeatmapID:341264
BeatmapSetID:136093

[Difficulty]
HPDrainRate:6
CircleSize:4.4
OverallDifficulty:8
ApproachRate:8
SliderMultiplier:1.5
SliderTickRate:2

[Events]
//Background and Video events
0,0,"BG.png",0,0
//Break Periods
2,75703,90526
2,120029,123034
//Storyboard Layer 0 (Background)
//Storyboard Layer 1 (Fail)
//Storyboard Layer 2 (Pass)
//Storyboard Layer 3 (Foreground)
//Storyboard Sound Samples

[TimingPoints]
502,492.914356130622,4,2,0,65,1,0
24159,-66.6666666666667,4,1,1,65,0,0
31802,-66.6666666666667,4,1,1,5,0,0
32044,-133.333333333333,4,1,1,65,0,0
33029,-66.6666666666667,4,1,1,65,0,0
34020,-133.333333333333,4,1,1,65,0,0
34513,-66.6666666666667,4,1,1,65,0,0
37957,-133.333333333333,4,1,1,65,0,0
38450,-66.6666666666667,4,1,1,65,0,0
43871,-66.6666666666667,4,1,1,65,0,0
60144,-66.6666666666667,4,1,1,65,0,0
60645,-66.6666666666667,4,1,1,35,0,0
60884,-66.6666666666667,4,1,1,65,0,0
61623,489.795918367347,4,1,1,35,1,0
61623,-66.6666666666667,4,1,1,35,0,0
61867,-100,4,1,1,65,0,0
63582,492.914356130622,4,1,1,65,1,0
63582,-66.6666666666667,4,1,1,65,0,0
66046,-66.6666666666667,4,1,1,35,0,0
66539,-66.6666666666667,4,1,1,65,0,0
67545,496.277915632754,4,1,1,65,1,0
67545,-62.5,4,1,1,65,0,0
71515,501.882057716437,4,1,1,65,1,0
71515,-62.5,4,1,1,65,0,0
72008,-62.5,4,1,1,65,0,0
73532,492.914356130622,4,1,1,65,1,0
91276,-200,4,2,1,65,0,0
107050,-200,4,2,1,5,0,0
107995,493.116909800699,4,2,1,65,1,0
107995,-66.6666666666667,4,1,1,65,0,1
119829,-66.6666666666667,4,1,1,65,0,0
123784,491.803278688525,4,1,1,65,1,1
123784,-66.6666666666667,4,1,1,65,0,1
125731,492.914356130622,4,1,1,65,1,1
125731,-66.6666666666667,4,1,1,65,0,1
135589,-66.6666666666667,4,1,1,65,0,0
139286,-66.6666666666667,4,2,1,40,0,0
139514,492.914356130622,4,1,1,65,1,0
139514,-66.6666666666667,4,1,1,65,0,0
151344,-66.6666666666667,4,1,1,65,0,0
171060,-66.6666666666667,4,1,1,65,0,1
198663,-66.6666666666667,4,1,1,65,0,0
202607,-66.6666666666667,4,1,1,15,0,0

[HitObjects]
114,34,8388,6,0,P|56:79|48:152,1,150,8|0,0:0|0:0,0:0:0:0:
184,268,9374,2,0,P|256:288|340:252,1,150,8|0,0:0|0:0,0:0:0:0:
464,152,10360,2,0,P|456:80|368:32,1,150,8|0,0:0|0:0,0:0:0:0:
216,40,11346,2,0,P|152:80|136:176,1,150,8|0,0:0|0:0,0:0:0:0:
124,240,12085,1,0,0:0:0:0:
200,284,12331,6,0,P|244:296|288:276,1,75
348,244,12824,1,8,0:0:0:0:
388,164,13071,1,0,0:0:0:0:
324,100,13317,2,0,P|268:56|192:60,1,150,8|0,0:0|0:0,2:0:0:0:
88,104,14057,1,0,0:0:0:0:
232,164,14303,1,8,0:0:0:0:
104,252,14550,1,0,0:0:0:0:
248,304,14796,6,8,L|336:328,1,75,8|0,0:0|0:0,0:0:0:0:
400,288,15289,1,0,0:0:0:0:
408,200,15535,2,0,P|384:144|360:120,1,75
288,160,16028,2,0,P|176:176|140:136,1,150,8|0,0:0|0:0,0:0:0:0:
220,96,16768,6,0,P|250:73|306:72,1,75,8|0,0:0|0:0,2:0:0:0:
312,248,17261,2,0,L|264:312,1,75,8|0,0:0|0:0,0:0:0:0:
176,320,17754,1,0,0:0:0:0:
144,232,18000,2,8,L|200:160,1,75,0|0,0:0|0:0,0:0:0:0:
192,80,18493,5,0,0:0:0:0:
112,120,18739,1,8,0:0:0:0:
312,160,19232,2,0,P|328:200|312:264,1,75,8|0,0:0|0:0,0:0:0:0:
272,304,19725,2,0,P|152:312|120:280,1,150,8|0,0:0|0:0,0:0:0:0:
256,192,20465,12,0,23668,0:0:0:0:
120,88,24161,6,0,B|160:72|160:72|176:104|176:104|200:72|200:72|224:104|224:104|248:72|248:72|320:88|320:88,1,225.000008583069,4|0,0:0|0:0,0:0:0:0:
384,136,24901,1,0,0:0:0:0:
320,256,25147,1,8,0:0:0:0:
384,136,25394,1,0,0:0:0:0:
248,144,25640,1,8,0:0:0:0:
64,160,25887,2,0,L|120:120,1,56.2500021457673
160,96,26133,6,0,B|220:52|220:52|260:64|260:64|292:32|292:32|360:40,1,225.000008583069,4|0,0:0|0:0,0:0:0:0:
328,208,26872,1,8,0:0:0:0:
208,272,27119,1,0,0:0:0:0:
72,240,27365,1,8,0:0:0:0:
136,120,27612,1,8,0:0:0:0:
136,120,27735,1,8,0:0:0:0:
328,120,27981,1,0,0:0:0:0:
328,120,28105,6,0,P|400:176|328:280,1,225.000008583069,4|8,0:0|0:0,0:0:0:0:
208,272,28844,1,8,0:0:0:0:
344,280,29091,6,0,B|400:200|400:160|344:128|416:72,1,225.000008583069
276,60,29830,1,8,0:0:0:0:
140,56,30076,6,0,P|60:124|92:256,1,225.000008583069,4|0,0:0|0:0,0:0:0:0:
256,192,30693,12,0,31802,0:0:0:0:
333,58,32048,6,0,B|300:96|300:96|356:132|356:132|300:160|300:160|328:196,1,225.000008583069,4|0,0:0|0:0,0:0:0:0:
216,268,33280,1,8,0:0:0:0:
104,192,33527,1,0,0:0:0:0:
184,80,33773,1,8,0:0:0:0:
320,80,34020,6,0,P|384:104|404:160,1,112.500004291535,4|0,0:0|0:0,0:0:0:0:
72,68,34759,1,8,0:0:0:0:
172,156,35006,1,0,0:0:0:0:
60,228,35252,1,8,0:0:0:0:
184,280,35498,5,0,0:0:0:0:
208,264,35622,1,8,0:0:0:0:
232,248,35745,1,0,0:0:0:0:
364,224,35991,2,0,B|424:148|424:148|340:160|400:116|400:116|400:60,1,225.000008583069,4|0,0:0|0:0,0:0:0:0:
280,32,36731,6,8,P|216:64|200:128,1,112.500004291535
168,232,37224,1,0,0:0:0:0:
409,96,37470,2,8,L|416:132,4,37.5000014305115,0|0|0|0|0,0:0|0:0|0:0|0:0|0:0,0:0:0:0:
392,72,37963,2,0,B|320:88|320:88|264:56|264:56,1,112.500004291535,4|0,0:0|0:0,0:0:0:0:
152,248,38949,5,0,0:0:0:0:
256,40,39442,1,0,0:0:0:0:
360,248,39935,1,4,0:0:0:0:
256,192,40181,12,0,43385,0:0:0:0:
64,176,43878,5,4,0:0:0:0:
184,112,44124,1,0,0:0:0:0:
448,176,44371,1,8,0:0:0:0:
328,112,44617,1,0,0:0:0:0:
237,323,44864,2,0,P|293:327|344:304,1,112.500004291535,4|8,0:0|0:0,0:0:0:0:
120,248,45357,2,0,P|104:192|128:120,1,112.500004291535,8|8,0:0|0:0,0:0:0:0:
232,96,45850,6,0,P|320:104|352:144,1,112.500004291535,4|8,0:0|0:0,0:0:0:0:
232,208,46343,1,8,0:0:0:0:
112,264,46589,1,0,0:0:0:0:
236,320,46835,1,0,0:0:0:0:
184,96,47082,1,0,0:0:0:0:
236,324,47329,2,8,B|216:328|216:328|200:340|200:340|184:332|184:332|172:344|172:344|155:341|155:341|126:337,1,112.500004291535
312,136,47821,5,4,0:0:0:0:
324,272,48068,1,0,0:0:0:0:
112,280,48314,2,0,P|64:232|80:160,1,112.500004291535,8|0,0:0|0:0,0:0:0:0:
88,56,48807,2,8,P|144:24|224:48,1,112.500004291535,4|8,0:0|0:0,0:0:0:0:
424,56,49300,2,8,P|368:24|288:48,1,112.500004291535,8|0,0:0|0:0,0:0:0:0:
104,208,49793,5,0,0:0:0:0:
408,208,50039,2,8,L|408:264,2,56.2500021457673
168,304,50532,1,8,0:0:0:0:
304,308,50779,1,4,0:0:0:0:
256,180,51025,1,8,0:0:0:0:
148,40,51272,5,4,0:0:0:0:
364,40,51518,1,8,0:0:0:0:
120,232,51765,2,8,P|83:191|70:137,1,112.500004291535,4|8,0:0|0:0,0:0:0:0:
392,232,52258,2,8,P|429:191|442:137,1,112.500004291535,8|0,0:0|0:0,0:0:0:0:
256,192,52750,1,0,0:0:0:0:
164,288,52997,6,0,P|120:253|110:199,1,112.500004291535
256,192,53490,1,8,0:0:0:0:
388,168,53736,2,0,P|378:114|335:80,1,112.500004291535
200,88,54229,5,0,0:0:0:0:
172,104,54352,1,0,0:0:0:0:
144,120,54476,1,0,0:0:0:0:
116,136,54599,1,0,0:0:0:0:
88,152,54722,1,8,0:0:0:0:
80,292,54969,1,0,0:0:0:0:
432,292,55215,2,0,B|400:288|384:256|384:256|364:220|320:212,1,112.500004291535,4|0,0:0|0:0,0:0:0:0:
80,292,55708,2,0,B|112:288|128:256|128:256|148:220|192:212,1,112.500004291535,8|0,0:0|0:0,0:0:0:0:
356,108,56201,6,0,P|415:89|480:126,1,112.500004291535,0|8,0:0|0:0,0:0:0:0:
156,108,56694,2,0,P|96:89|31:126,1,112.500004291535,0|8,0:0|0:0,0:0:0:0:
436,208,57187,1,0,0:0:0:0:
296,320,57433,2,8,L|208:320,2,56.2500021457673
196,228,57926,6,0,L|172:108,1,112.500004291535
288,44,58419,2,0,P|360:76|376:108,1,112.500004291535,0|8,0:0|0:0,0:0:0:0:
404,164,58789,2,8,L|428:224,1,56.2500021457673
344,304,59158,1,0,0:0:0:0:
208,288,59405,2,0,L|132:252,2,56.2500021457673,0|0|0,0:0|0:0|0:0,0:0:0:0:
128,176,59898,5,8,0:0:0:0:
192,56,60144,2,0,P|304:64|364:160,1,225.000008583069,4|0,0:0|0:0,0:0:0:0:
240,176,60884,1,8,0:0:0:0:
308,292,61130,2,0,P|196:304|112:208,1,225.000008583069,8|0,0:0|0:0,0:0:0:0:
84,128,61867,5,8,0:0:0:0:
148,68,62112,1,0,0:0:0:0:
236,52,62357,1,0,0:0:0:0:
352,64,62602,2,0,L|408:108,1,37.5,8|0,0:0|0:0,0:0:0:0:
416,152,62847,2,8,L|440:208,1,37.5,8|0,0:0|0:0,0:0:0:0:
432,264,63092,1,8,0:0:0:0:
416,284,63214,1,0,0:0:0:0:
396,300,63337,1,0,0:0:0:0:
372,312,63459,1,0,0:0:0:0:
344,324,63582,6,4,B|287:338|287:338|266:285|266:285|225:327|225:327|184:294,1,225.000008583069,4|8,0:0|0:0,0:0:0:0:
168,60,64567,2,4,B|224:45|224:45|245:98|245:98|286:56|286:56|327:89,1,225.000008583069,4|8,0:0|0:0,0:0:0:0:
320,224,65307,1,0,0:0:0:0:
196,276,65553,5,8,0:0:0:0:
168,264,65676,1,8,0:0:0:0:
144,240,65800,1,8,0:0:0:0:
140,104,66046,2,0,B|216:104|216:104|288:64|356:108,1,225.000008583069
404,256,66785,2,0,L|460:280,2,37.5,0|0|0,0:0|0:0|0:0,0:0:0:0:
364,236,67032,2,0,P|316:212|268:168,1,112.500004291535
184,248,67545,6,0,L|32:248,1,120
72,136,68041,2,0,L|200:136,1,120
296,136,68537,2,8,P|376:136|416:176,1,120
400,264,69033,2,0,P|320:264|280:224,1,120,0|8,0:0|0:0,0:0:0:0:
168,128,69530,2,8,P|88:128|48:172,1,120
72,280,70026,2,0,P|152:280|192:240,1,120,0|8,0:0|0:0,0:0:0:0:
264,192,70522,5,4,0:0:0:0:
392,128,70770,1,0,0:0:0:0:
367,96,70894,1,0,0:0:0:0:
335,73,71018,1,0,0:0:0:0:
297,57,71142,1,0,0:0:0:0:
258,52,71266,1,0,0:0:0:0:
92,132,71515,1,4,0:0:0:0:
176,248,71765,2,0,L|200:265,4,30,0|0|0|0|0,0:0|0:0|0:0|0:0|0:0,0:0:0:0:
92,132,72267,6,0,P|144:80|224:76,1,120,8|8,0:0|0:0,0:0:0:0:
444,172,72769,1,0,0:0:0:0:
332,84,73020,1,0,0:0:0:0:
448,264,73271,2,0,P|420:310|336:328,1,120,8|0,0:0|0:0,0:0:0:0:
240,312,73778,1,0,0:0:0:0:
152,240,74024,1,0,0:0:0:0:
256,208,74271,1,8,0:0:0:0:
360,132,74517,5,0,0:0:0:0:
360,132,74641,1,0,0:0:0:0:
360,132,74764,1,0,0:0:0:0:
288,80,75010,1,0,0:0:0:0:
288,80,75133,1,0,0:0:0:0:
288,80,75257,1,0,0:0:0:0:
152,240,75503,5,4,0:0:0:0:
120,88,91276,6,0,B|144:104|192:112|192:112|168:160|176:192,2,150,4|0|0,0:0|0:0|0:0,0:0:0:0:
312,96,94234,1,0,0:0:0:0:
240,264,95220,2,0,B|168:296|168:232|88:272,1,150
176,112,97191,1,8,0:0:0:0:
328,112,98177,1,0,0:0:0:0:
432,224,99163,5,8,0:0:0:0:
352,272,99656,1,0,0:0:0:0:
264,280,100149,1,8,0:0:0:0:
176,256,100642,6,0,P|138:230|130:191,1,75,0|8,0:0|0:0,0:0:0:0:
384,104,101628,1,0,0:0:0:0:
296,84,102121,1,8,0:0:0:0:
204,84,102613,2,0,P|164:92|132:124,1,75,0|8,0:0|0:0,0:0:0:0:
88,176,103353,1,0,0:0:0:0:
384,240,103599,5,0,0:0:0:0:
320,288,103846,1,8,0:0:0:0:
176,304,104092,1,8,0:0:0:0:
248,320,104339,1,0,0:0:0:0:
111,279,104585,2,0,L|44:246,1,75,0|0,0:0|0:0,0:0:0:0:
256,192,105324,12,0,107050,0:0:0:0:
96,72,107995,6,0,B|184:56|160:136|288:128|336:72,1,225.000008583069,4|0,0:0|0:0,0:0:0:0:
312,320,108981,2,0,B|290:354|162:362|186:282|98:298,1,225.000008583069,4|0,0:0|0:0,0:0:0:0:
288,168,109967,5,0,0:0:0:0:
192,72,110214,1,0,0:0:0:0:
56,96,110460,2,0,P|24:152|48:224,1,112.500004291535,8|0,0:0|0:0,0:0:0:0:
336,312,110953,2,0,P|392:256|384:184,1,112.500004291535,4|8,0:0|0:0,0:0:0:0:
104,304,111446,2,0,P|168:344|240:336,1,112.500004291535,8|8,0:0|0:0,0:0:0:0:
200,64,111939,5,4,0:0:0:0:
328,112,112186,1,0,0:0:0:0:
224,196,112433,1,8,0:0:0:0:
92,164,112679,1,0,0:0:0:0:
104,312,112926,2,8,P|152:336|224:328,1,112.500004291535
304,160,113419,2,0,P|264:112|184:104,1,112.500004291535,8|8,0:0|0:0,0:0:0:0:
104,176,113912,5,0,0:0:0:0:
104,312,114158,1,0,0:0:0:0:
325,253,114405,2,0,P|293:297|240:312,1,112.500004291535,8|8,0:0|0:0,0:0:0:0:
99,162,114898,2,8,P|125:114|176:95,1,112.500004291535,12|8,0:0|0:0,0:0:0:0:
176,272,115391,1,8,0:0:0:0:
208,296,115515,1,8,0:0:0:0:
240,312,115638,1,8,0:0:0:0:
276,320,115761,1,0,0:0:0:0:
312,320,115884,1,4,0:0:0:0:
420,240,116131,5,0,0:0:0:0:
356,124,116377,2,0,P|321:91|250:81,1,112.500004291535,8|8,0:0|0:0,0:0:0:0:
160,172,116871,2,0,P|194:204|265:214,1,112.500004291535,0|8,0:0|0:0,0:0:0:0:
376,156,117364,1,8,0:0:0:0:
300,44,117610,1,8,0:0:0:0:
164,44,117857,2,0,P|72:96|32:212,1,225.000008583069,4|0,0:0|0:0,0:0:0:0:
184,336,118843,6,0,P|148:324|80:272,1,112.500004291535,4|0,0:0|0:0,0:0:0:0:
80,144,119336,1,0,0:0:0:0:
92,108,119459,1,0,0:0:0:0:
115,78,119582,1,0,0:0:0:0:
145,55,119705,1,0,0:0:0:0:
180,42,119829,1,4,0:0:0:0:
184,248,123784,6,0,L|184:176,4,56.2500021457673
296,328,124521,1,8,0:0:0:0:
416,120,124767,1,8,0:0:0:0:
416,264,125013,1,8,0:0:0:0:
296,56,125259,1,0,0:0:0:0:
296,56,125731,6,0,P|232:64|184:96,1,112.500004291535,4|8,0:0|0:0,0:0:0:0:
216,328,126223,2,0,P|280:320|328:288,1,112.500004291535,0|8,0:0|0:0,0:0:0:0:
244,180,126716,1,0,0:0:0:0:
128,108,126963,1,0,0:0:0:0:
248,40,127209,1,8,0:0:0:0:
280,40,127332,1,8,0:0:0:0:
312,40,127456,1,8,0:0:0:0:
344,40,127579,1,0,0:0:0:0:
376,40,127702,6,0,P|444:60|480:96,1,112.500004291535,8|8,0:0|0:0,0:0:0:0:
40,152,128195,2,0,L|152:152,1,112.500004291535,0|8,0:0|0:0,0:0:0:0:
380,188,128688,2,0,L|252:188,1,112.500004291535,0|8,0:0|0:0,0:0:0:0:
152,40,129181,1,0,0:0:0:0:
152,40,129674,6,0,L|288:40,1,112.500004291535,4|8,0:0|0:0,0:0:0:0:
376,264,130167,2,0,L|256:264,1,112.500004291535,0|8,0:0|0:0,0:0:0:0:
128,264,130660,1,0,0:0:0:0:
56,152,130906,1,0,0:0:0:0:
160,64,131153,1,8,0:0:0:0:
192,48,131276,1,8,0:0:0:0:
224,40,131399,1,8,0:0:0:0:
360,40,131645,6,0,L|440:40,2,56.2500021457673,0|0|0,0:0|0:0|0:0,0:0:0:0:
352,176,132138,2,0,L|352:232,2,56.2500021457673
216,176,132631,2,0,L|128:176,2,56.2500021457673
304,72,133124,1,8,0:0:0:0:
216,176,133371,1,8,0:0:0:0:
392,176,133617,6,0,B|424:248|360:304,1,112.500004291535,0|8,0:0|0:0,0:0:0:0:
130,281,134110,2,0,B|88:248|120:176,1,112.500004291535,0|8,0:0|0:0,0:0:0:0:
212,80,134603,1,8,0:0:0:0:
344,52,134849,2,8,P|400:68|432:124,2,112.500004291535,0|0|0,0:0|0:0|0:0,0:0:0:0:
256,192,135589,1,4,0:0:0:0:
256,192,135835,12,0,139286,0:0:0:0:
256,192,139514,5,4,0:0:0:0:
144,160,139761,2,0,L|208:64,1,112.500004291535,8|0,0:0|0:0,0:0:0:0:
305,66,140253,2,0,L|368:160,1,112.500004291535,8|0,0:0|0:0,0:0:0:0:
400,292,140746,2,0,P|368:340|304:348,1,112.500004291535,8|0,0:0|0:0,0:0:0:0:
112,292,141239,2,0,P|144:340|208:348,1,112.500004291535,8|0,0:0|0:0,0:0:0:0:
256,192,141732,1,8,0:0:0:0:
256,64,141978,6,0,L|256:0,2,56.2500021457673
176,168,142471,1,8,0:0:0:0:
256,276,142717,1,0,0:0:0:0:
376,216,142964,1,0,0:0:0:0:
370,178,143087,1,0,0:0:0:0:
355,144,143210,1,0,0:0:0:0:
333,113,143333,1,0,0:0:0:0:
305,89,143456,5,4,0:0:0:0:
36,48,143950,1,8,0:0:0:0:
48,316,144443,1,4,0:0:0:0:
336,280,144936,5,8,0:0:0:0:
424,176,145183,1,0,0:0:0:0:
288,168,145429,1,4,0:0:0:0:
320,36,145676,1,8,0:0:0:0:
212,120,145922,1,8,0:0:0:0:
84,80,146168,2,0,P|44:128|32:188,1,112.500004291535,8|0,0:0|0:0,0:0:0:0:
164,188,146661,1,8,0:0:0:0:
200,320,146908,6,4,P|247:291|276:240,1,112.500004291535,4|0,0:0|0:0,0:0:0:0:
264,108,147400,1,0,0:0:0:0:
140,56,147647,1,8,0:0:0:0:
264,108,147893,1,0,0:0:0:0:
392,64,148140,1,8,0:0:0:0:
412,196,148387,1,0,0:0:0:0:
304,272,148633,6,0,P|232:288|187:269,1,112.500004291535,0|0,0:0|0:0,0:0:0:0:
32,272,149125,2,0,P|103:288|148:269,1,112.500004291535,0|0,0:0|0:0,0:0:0:0:
220,168,149618,1,8,0:0:0:0:
304,272,149865,2,8,P|352:224|344:168,1,112.500004291535,8|8,0:0|0:0,0:0:0:0:
300,56,150358,6,8,P|240:40|172:44,1,112.500004291535,4|8,0:0|0:0,0:0:0:0:
76,116,150851,1,0,0:0:0:0:
55,147,150974,1,0,0:0:0:0:
48,184,151097,1,0,0:0:0:0:
53,221,151220,1,0,0:0:0:0:
71,254,151343,1,4,0:0:0:0:
256,360,151591,1,0,0:0:0:0:
256,160,151837,2,8,B|276:128|264:96|264:96|247:56|262:37,1,112.500004291535,8|0,0:0|0:0,0:0:0:0:
92,152,152329,6,0,P|57:104|82:53,1,112.500004291535,4|0,0:0|0:0,0:0:0:0:
420,152,152822,2,0,P|454:104|429:53,1,112.500004291535,8|0,0:0|0:0,0:0:0:0:
256,52,153315,1,8,0:0:0:0:
224,184,153562,1,0,0:0:0:0:
356,220,153809,2,0,P|416:192|408:128,1,112.500004291535,8|8,0:0|0:0,0:0:0:0:
256,52,154302,5,0,0:0:0:0:
88,120,154548,1,0,0:0:0:0:
96,256,154795,2,8,B|96:320|176:328|232:288|176:216|266:189,1,225.000008583069,8|4,0:0|0:0,0:0:0:0:
376,176,155534,1,8,0:0:0:0:
432,296,155781,2,0,B|368:224|312:272|248:240|240:200,1,225.000008583069,0|4,0:0|0:0,0:0:0:0:
88,120,156520,5,0,0:0:0:0:
64,88,156642,1,0,0:0:0:0:
72,56,156766,1,0,0:0:0:0:
208,72,157013,2,0,L|272:88,2,56.2500021457673
72,56,157506,1,8,0:0:0:0:
208,72,157752,1,0,0:0:0:0:
340,100,157999,2,8,P|396:132|408:176,1,112.500004291535,8|0,0:0|0:0,0:0:0:0:
384,308,158492,1,8,0:0:0:0:
248,304,158738,5,0,0:0:0:0:
210,304,158861,1,0,0:0:0:0:
173,299,158984,1,0,0:0:0:0:
140,281,159107,1,0,0:0:0:0:
120,250,159230,1,4,0:0:0:0:
184,132,159477,1,0,0:0:0:0:
300,60,159724,2,0,P|360:48|408:76,1,112.500004291535,8|8,0:0|0:0,0:0:0:0:
428,204,160217,1,0,0:0:0:0:
316,280,160463,2,0,P|252:300|204:272,1,112.500004291535,8|0,0:0|0:0,0:0:0:0:
56,168,160956,5,8,0:0:0:0:
112,48,161203,1,0,0:0:0:0:
248,32,161449,1,8,0:0:0:0:
192,152,161695,1,0,0:0:0:0:
320,192,161942,1,8,0:0:0:0:
228,288,162188,1,0,0:0:0:0:
356,328,162435,1,8,0:0:0:0:
80,216,162681,2,0,P|41:146|64:95,1,112.500004291535,0|0,0:0|0:0,0:0:0:0:
176,72,163174,5,4,0:0:0:0:
400,112,163666,1,8,0:0:0:0:
208,232,164160,1,4,0:0:0:0:
432,272,164653,1,8,0:0:0:0:
280,104,165146,6,0,P|224:86|160:104,1,112.500004291535,4|0,0:0|0:0,0:0:0:0:
64,192,165639,1,0,0:0:0:0:
172,276,165885,2,0,P|236:288|300:264,1,112.500004291535,8|0,0:0|0:0,0:0:0:0:
392,196,166378,5,8,0:0:0:0:
348,68,166624,1,0,0:0:0:0:
310,68,166747,1,0,0:0:0:0:
273,74,166870,1,0,0:0:0:0:
237,87,166993,1,0,0:0:0:0:
204,105,167116,1,4,0:0:0:0:
256,192,167364,12,0,170568,0:0:0:0:
256,80,171061,5,4,0:0:0:0:
152,192,171307,1,8,0:0:0:0:
256,312,171553,2,8,L|256:184,1,112.500004291535,0|0,0:0|0:0,0:0:0:0:
256,80,172046,2,0,P|336:84|376:128,1,112.500004291535,0|8,0:0|0:0,0:0:0:0:
256,80,172539,2,0,P|176:76|136:32,1,112.500004291535,0|8,0:0|0:0,0:0:0:0:
256,200,173032,1,4,0:0:0:0:
143,200,173279,6,0,L|271:200,1,112.500004291535,0|8,0:0|0:0,0:0:0:0:
368,200,173772,2,0,L|256:200,1,112.500004291535,8|0,0:0|0:0,0:0:0:0:
172,92,174265,1,8,0:0:0:0:
96,208,174511,1,0,0:0:0:0:
172,320,174757,1,8,0:0:0:0:
312,320,175004,6,0,P|384:288|416:240,1,112.500004291535
216,48,175496,2,0,P|152:64|120:112,1,112.500004291535,0|0,0:0|0:0,0:0:0:0:
420,128,175989,2,0,P|388:64|332:48,1,112.500004291535,0|0,0:0|0:0,0:0:0:0:
92,232,176483,1,8,0:0:0:0:
216,288,176729,1,0,0:0:0:0:
164,164,176976,1,8,0:0:0:0:
292,216,177222,5,0,0:0:0:0:
328,232,177345,1,0,0:0:0:0:
364,248,177469,1,0,0:0:0:0:
88,72,177715,2,0,P|149:55|208:72,1,112.500004291535,4|0,0:0|0:0,0:0:0:0:
328,124,178208,2,0,P|388:144|464:120,1,112.500004291535,0|8,0:0|0:0,0:0:0:0:
164,232,178700,5,8,0:0:0:0:
436,136,178947,1,4,0:0:0:0:
68,136,179193,1,8,0:0:0:0:
340,232,179440,1,4,0:0:0:0:
84,264,179687,6,0,P|116:320|180:336,1,112.500004291535
256,244,180179,1,0,0:0:0:0:
428,264,180425,2,0,P|396:320|332:336,1,112.500004291535
264,40,180918,2,0,P|324:80|336:135,1,112.500004291535,8|8,0:0|0:0,0:0:0:0:
256,224,181411,1,0,0:0:0:0:
228,244,181534,1,0,0:0:0:0:
200,264,181658,1,0,0:0:0:0:
168,276,181781,1,0,0:0:0:0:
136,284,181904,1,4,0:0:0:0:
336,112,182151,5,0,0:0:0:0:
208,72,182398,1,8,0:0:0:0:
256,196,182644,1,0,0:0:0:0:
132,144,182891,2,0,L|64:116,2,56.2500021457673
264,120,183383,5,8,0:0:0:0:
344,228,183630,1,0,0:0:0:0:
208,228,183876,1,0,0:0:0:0:
376,128,184123,2,8,L|480:60,1,112.500004291535
184,176,184616,2,0,L|72:176,1,112.500004291535,0|8,0:0|0:0,0:0:0:0:
320,180,185109,5,0,0:0:0:0:
184,176,185355,1,8,0:0:0:0:
256,64,185602,1,0,0:0:0:0:
392,60,185848,2,8,P|452:92|468:164,1,112.500004291535,8|0,0:0|0:0,0:0:0:0:
472,264,186341,2,8,P|440:309|384:324,1,112.500004291535,8|0,0:0|0:0,0:0:0:0:
252,300,186834,1,4,0:0:0:0:
40,120,187327,5,8,0:0:0:0:
264,144,187820,1,4,0:0:0:0:
488,104,188313,1,8,0:0:0:0:
360,288,188806,5,4,0:0:0:0:
228,316,189052,1,8,0:0:0:0:
284,192,189298,1,0,0:0:0:0:
148,192,189545,1,8,0:0:0:0:
204,72,189791,6,8,P|268:60|324:76,1,112.500004291535
436,132,190284,2,0,L|477:169,3,56.2500021457673,0|8|0|0,0:0|0:0|0:0|0:0,0:0:0:0:
444,228,190777,2,0,P|388:272|316:292,1,112.500004291535,4|8,0:0|0:0,0:0:0:0:
216,292,191270,2,0,P|140:232|156:184,3,112.500004291535
152,72,192255,2,8,P|224:48|264:64,1,112.500004291535,8|0,0:0|0:0,0:0:0:0:
356,148,192749,5,4,0:0:0:0:
388,280,192995,1,8,0:0:0:0:
256,300,193242,2,0,P|160:308|72:212,1,225.000008583069
124,96,193981,1,0,0:0:0:0:
232,32,194228,5,0,0:0:0:0:
312,140,194474,1,0,0:0:0:0:
184,188,194721,1,8,0:0:0:0:
256,300,194967,1,0,0:0:0:0:
184,188,195213,1,8,0:0:0:0:
312,140,195460,1,0,0:0:0:0:
208,40,195706,5,8,0:0:0:0:
184,64,195830,1,8,0:0:0:0:
160,88,195953,1,8,0:0:0:0:
88,176,196199,2,0,L|88:256,2,56.2500021457673
88,312,196692,5,8,0:0:0:0:
88,176,196939,2,0,P|100:109|172:76,1,112.500004291535
168,68,197308,1,0,0:0:0:0:
204,60,197431,2,0,L|260:60,2,56.2500021457673
288,168,197924,1,0,0:0:0:0:
204,276,198170,2,0,P|254:313|332:312,1,112.500004291535
424,256,198663,1,12,0:0:0:0:
256,192,198786,12,4,202607,0:0:0:0:
