osu file format v14

[General]
AudioFilename: Atomic.mp3
AudioLeadIn: 0
PreviewTime: 108010
Countdown: 0
SampleSet: Normal
StackLeniency: 0.7
Mode: 0
LetterboxInBreaks: 1
WidescreenStoryboard: 1

[Editor]
Bookmarks: 89058,170567
DistanceSpacing: 0.6
BeatDivisor: 2
GridSize: 4
TimelineZoom: 1.2

[Metadata]
Title:Atomic
TitleUnicode:Atomic
Artist:she
ArtistUnicode:she
Creator:Zerzxes
Version:Easy
Source:
Tags:Electronica chiptune
BeatmapID:359341
BeatmapSetID:136093

[Difficulty]
HPDrainRate:2
CircleSize:3
OverallDifficulty:3
ApproachRate:3
SliderMultiplier:1.4
SliderTickRate:1

[Events]
//Background and Video events
0,0,"BG.png",0,0
//Break Periods
2,75703,89836
2,120029,122344
//Storyboard Layer 0 (Background)
//Storyboard Layer 1 (Fail)
//Storyboard Layer 2 (Pass)
//Storyboard Layer 3 (Foreground)
//Storyboard Sound Samples

[TimingPoints]
502,492.914356130622,4,1,0,65,1,0
24161,-100,4,1,1,65,0,0
32044,-133.333333333333,4,1,1,65,0,0
33029,-100,4,1,1,65,0,0
61623,489.795918367347,4,1,1,65,1,0
63582,492.914356130622,4,1,1,65,1,0
67545,496.277915632754,4,1,1,65,1,0
69527,-100,4,1,1,65,0,0
71513,-100,4,1,1,65,0,0
71515,501.882057716437,4,1,1,65,1,0
73532,492.914356130622,4,1,1,65,1,0
91276,-100,4,2,1,65,0,0
107050,-100,4,2,1,5,0,0
107995,493.116909800699,4,2,1,65,1,0
107995,-100,4,1,1,65,0,1
119829,-66.6666666666667,4,1,1,65,0,0
123784,491.803278688525,4,1,1,65,1,1
123784,-66.6666666666667,4,1,1,65,0,1
125731,492.914356130622,4,1,1,65,1,1
136082,-100,4,1,1,65,0,0
139514,492.914356130622,4,1,1,65,1,0
171060,-100,4,1,1,65,0,1
198663,-100,4,1,1,65,0,0
202607,-100,4,1,1,5,0,0

[HitObjects]
256,192,20465,12,0,23668,0:0:0:0:
176,120,24161,5,4,0:0:0:0:
140,196,24654,2,0,P|296:244|396:196,1,280
400,112,26133,2,8,B|391:38|335:51|286:104|222:44,1,210,4|0,0:0|0:0,0:0:0:0:
120,116,27612,1,8,0:0:0:0:
152,192,28105,6,0,P|240:192|272:136,1,140,4|0,0:0|0:0,0:0:0:0:
340,196,29091,1,0,0:0:0:0:
288,264,29583,1,8,0:0:0:0:
364,296,30076,2,0,B|436:272|420:192|492:192,1,140,4|0,0:0|0:0,0:0:0:0:
408,132,31062,1,8,0:0:0:0:
292,76,32048,6,0,B|292:148|292:148|204:124|204:124|164:156,1,210.000008010865,4|0,0:0|0:0,0:0:0:0:
128,228,33527,2,0,P|84:160|68:76,2,140
212,240,35006,1,0,0:0:0:0:
296,224,35498,1,8,0:0:0:0:
372,188,35991,2,0,L|268:84,1,140,4|0,0:0|0:0,0:0:0:0:
188,100,36977,6,0,P|156:148|212:192,1,140
292,216,37963,2,0,P|381:209|415:141,1,140,4|0,0:0|0:0,0:0:0:0:
396,92,38949,1,8,0:0:0:0:
256,192,39935,12,0,43385,0:0:0:0:
152,192,43878,5,4,0:0:0:0:
228,228,44371,1,8,0:0:0:0:
308,256,44864,2,0,P|300:160|260:104,1,140,0|0,0:0|0:0,0:0:0:0:
216,68,45850,2,0,P|136:56|56:80,1,140,4|0,0:0|0:0,0:0:0:0:
76,152,46835,5,0,0:0:0:0:
124,220,47328,2,0,P|204:268|260:244,1,140,8|0,0:0|0:0,0:0:0:0:
324,228,48314,2,8,B|400:160|324:116,1,140,8|0,0:0|0:0,0:0:0:0:
244,96,49300,6,0,B|184:148|168:32|92:96,1,140
72,152,50286,2,8,P|48:224|80:280,1,140
136,340,51272,6,2,P|165:278|140:214,1,140
152,132,52258,2,0,P|233:176|240:225,1,140,0|0,0:0|0:0,0:0:0:0:
284,288,53243,2,0,L|356:288,1,70,8|0,0:0|0:0,0:0:0:0:
396,284,53736,2,0,L|440:212,1,70
448,184,54229,2,0,L|403:129,1,70
376,100,54722,1,4,0:0:0:0:
148,184,55708,6,0,L|80:124,1,70,8|0,0:0|0:0,0:0:0:0:
92,96,56201,2,0,B|212:124|212:124|284:88|284:88|316:104|316:104|276:124,1,280,4|8,0:0|0:0,0:0:0:0:
332,188,57680,2,0,B|292:268|204:232,1,140,8|0,0:0|0:0,0:0:0:0:
132,224,58665,6,0,B|76:152|128:80,1,140,0|8,0:0|0:0,0:0:0:0:
192,56,59651,2,0,P|292:40|328:76,1,140
368,124,60637,1,0,0:0:0:0:
424,184,61130,5,8,0:0:0:0:
356,236,61623,2,0,B|320:292|241:310,1,140
156,312,62602,2,0,P|48:324|36:304,1,140,4|0,0:0|0:0,0:0:0:0:
80,240,63582,5,4,0:0:0:0:
152,196,64074,2,0,B|223:157|175:73,1,140,0|0,0:0|0:0,0:0:0:0:
260,56,65060,2,0,B|266:130|350:150,1,140,8|0,0:0|0:0,0:0:0:0:
384,228,66046,1,0,0:0:0:0:
464,200,66539,2,8,B|500:284|444:356,1,140,8|0,0:0|0:0,0:0:0:0:
376,340,67525,6,0,L|288:340,2,70,2|2|0,0:0|0:0|0:0,0:0:0:0:
328,272,68537,2,0,L|258:272,2,70,0|2|0,0:0|0:0|0:0,0:0:0:0:
304,192,69530,1,0,0:0:0:0:
232,148,70026,2,0,P|163:105|151:40,1,140
180,216,71515,5,4,0:0:0:0:
132,148,72016,1,0,0:0:0:0:
84,80,72518,2,0,P|36:152|52:212,1,140,8|0,0:0|0:0,0:0:0:0:
72,284,73532,2,8,P|160:308|220:288,1,140,8|0,0:0|0:0,0:0:0:0:
284,272,74517,2,0,P|260:204|192:164,1,140,0|0,0:0|0:0,0:0:0:0:
200,84,75503,5,4,0:0:0:0:
292,272,91276,6,0,P|360:152|348:140,1,140,0|0,0:0|0:0,0:0:0:0:
336,108,92262,1,0,0:0:0:0:
236,244,93248,6,0,P|180:312|160:288,1,140
124,232,94234,2,0,L|80:152,1,70
68,136,94727,1,0,0:0:0:0:
152,120,95220,6,0,P|296:120|328:88,1,140
368,144,96206,2,0,P|424:232|412:248,1,140
336,268,97191,1,0,0:0:0:0:
168,284,98177,5,0,0:0:0:0:
108,228,98670,1,0,0:0:0:0:
96,144,99163,2,0,P|128:76|192:80,1,140
264,104,100149,6,0,L|348:136,1,70
368,148,100642,1,0,0:0:0:0:
372,232,101135,2,0,B|300:328|176:128|96:320,1,280
76,204,102613,1,0,0:0:0:0:
256,192,103106,12,0,107050,0:0:0:0:
196,124,107995,5,4,0:0:0:0:
264,72,108488,2,0,B|308:124|312:240,1,140,0|0,0:0|0:0,0:0:0:0:
268,276,109474,2,0,P|180:300|116:284,1,140,8|0,0:0|0:0,0:0:0:0:
116,208,110460,2,0,B|176:152|196:248|288:168|288:168|228:116|320:120,1,280,0|8,0:0|0:0,0:0:0:0:
392,124,111939,6,0,P|347:219|294:196,1,140,4|0,0:0|0:0,0:0:0:0:
248,220,112926,2,0,P|164:124|172:68,1,140,8|0,0:0|0:0,0:0:0:0:
212,52,113912,1,8,0:0:0:0:
296,48,114405,5,0,0:0:0:0:
356,104,114898,2,8,B|276:196|276:196|228:136|228:136|136:136,1,280,4|8,0:0|0:0,0:0:0:0:
88,196,116377,2,0,P|88:76|152:44,1,140
180,68,117364,2,0,L|324:68,1,140
404,84,118350,2,0,B|252:216|464:216|344:328,1,280,8|0,0:0|0:0,0:0:0:0:
240,260,119829,1,4,0:0:0:0:
217,72,123784,6,0,L|112:72,2,105.000004005432,0|0|4,0:0|0:0|0:0,0:0:0:0:
344,72,124767,1,0,0:0:0:0:
388,188,125259,2,0,B|340:152|340:152|280:208|280:208|224:156|224:156,1,210.000008010865,8|0,0:0|0:0,0:0:0:0:
88,232,126716,5,0,0:0:0:0:
156,284,127209,1,8,0:0:0:0:
240,292,127702,2,0,P|312:236|312:164,1,140,4|0,0:0|0:0,0:0:0:0:
236,208,128688,1,0,0:0:0:0:
164,252,129181,5,0,0:0:0:0:
100,196,129674,2,0,P|152:144|256:136,1,140,4|8,0:0|0:0,0:0:0:0:
300,136,130660,2,0,P|368:200|356:288,1,140,4|8,0:0|0:0,0:0:0:0:
300,288,131645,5,0,0:0:0:0:
216,288,132138,2,0,P|164:176|180:160,2,140,8|0|8,0:0|0:0|0:0,0:0:0:0:
300,288,133617,2,0,P|352:176|336:160,2,140
260,212,135096,1,4,0:0:0:0:
260,128,135589,1,4,0:0:0:0:
256,192,136082,12,0,139039,0:0:0:0:
184,156,139514,6,0,P|196:228|268:256,1,140,4|0,0:0|0:0,0:0:0:0:
328,224,140499,2,0,P|316:152|244:124,1,140,8|0,0:0|0:0,0:0:0:0:
196,68,141485,1,0,0:0:0:0:
116,100,141978,2,0,P|166:148|225:186,1,140,0|0,0:0|0:0,0:0:0:0:
308,196,142964,6,0,B|280:264|196:284,1,140,0|4,0:0|0:0,0:0:0:0:
120,276,143950,2,0,P|53:201|93:132,1,140,0|8,0:0|0:0,0:0:0:0:
80,92,144936,2,0,P|133:50|198:67,1,140,0|0,0:0|0:0,0:0:0:0:
232,144,145921,2,0,B|308:112|316:168|376:116,1,140,8|0,0:0|0:0,0:0:0:0:
420,188,146907,2,8,P|352:216|252:220,1,140,8|4,0:0|0:0,0:0:0:0:
204,216,147893,6,0,P|228:292|296:320,1,140
340,268,148879,2,0,B|372:200|416:296|456:220,1,140,0|0,0:0|0:0,0:0:0:0:
400,160,149865,1,8,0:0:0:0:
340,104,150358,1,0,0:0:0:0:
256,96,150851,2,0,B|152:52|112:60,1,140,0|4,0:0|0:0,0:0:0:0:
52,120,151836,6,0,P|40:185|94:224,1,140
180,228,152822,2,0,L|320:228,1,140,8|0,0:0|0:0,0:0:0:0:
404,232,153808,2,0,P|461:187|450:101,1,140
384,148,154794,2,0,L|280:52,1,140,8|0,0:0|0:0,0:0:0:0:
220,112,155780,6,0,L|324:212,1,140,8|0,0:0|0:0,0:0:0:0:
240,236,156766,1,8,0:0:0:0:
168,192,157258,1,4,0:0:0:0:
168,108,157751,2,0,P|96:144|84:204,1,140,0|0,0:0|0:0,0:0:0:0:
128,268,158737,2,0,B|192:296|348:360|392:272|336:212,1,280,0|8,0:0|0:0,0:0:0:0:
368,156,160216,1,8,0:0:0:0:
432,104,160709,6,0,B|364:-26|220:-28|120:71|136:226|239:259|244:222|409:223|172:115|344:110,1,560
348,188,163173,1,8,0:0:0:0:
324,268,163666,5,0,0:0:0:0:
248,308,164159,2,0,B|156:238|110:322|104:207,1,140
64,200,165145,1,8,0:0:0:0:
144,176,165638,2,0,B|312:184|264:56|428:96|404:-12|412:0,1,280
452,92,167117,1,4,0:0:0:0:
256,192,167363,12,0,170567,0:0:0:0:
380,272,171060,5,4,0:0:0:0:
340,200,171553,1,0,0:0:0:0:
284,136,172046,2,0,P|224:88|160:156,1,140
212,184,173032,1,8,0:0:0:0:
240,264,173525,5,0,0:0:0:0:
316,300,174018,2,0,P|228:352|236:192,1,280
256,188,175496,2,0,P|150:63|125:109,1,280,0|8,0:0|0:0,0:0:0:0:
192,140,176975,5,0,0:0:0:0:
196,224,177468,2,0,B|292:116|292:316|444:208,1,280,8|0,0:0|0:0,0:0:0:0:
384,152,178947,1,4,0:0:0:0:
328,88,179440,6,0,P|241:59|196:95,1,140
256,148,180425,2,0,P|184:188|88:160,1,140
116,100,181411,2,0,P|40:172|148:272,1,280,8|0,0:0|0:0,0:0:0:0:
160,192,182890,5,4,0:0:0:0:
232,148,183383,2,0,L|360:72,1,140
412,136,184369,1,0,0:0:0:0:
416,220,184862,1,0,0:0:0:0:
368,288,185355,6,0,P|280:313|247:229,1,140,8|0,0:0|0:0,0:0:0:0:
196,224,186340,1,0,0:0:0:0:
272,188,186833,1,4,0:0:0:0:
280,104,187326,1,8,0:0:0:0:
204,136,187819,6,0,P|160:56|244:40,1,140,8|0,0:0|0:0,0:0:0:0:
256,76,188805,1,0,0:0:0:0:
288,152,189298,6,0,B|436:120|436:52,1,140,8|0,0:0|0:0,0:0:0:0:
348,52,190284,2,0,P|264:64|208:16,1,140,8|0,0:0|0:0,0:0:0:0:
156,92,191270,1,4,0:0:0:0:
288,196,192255,5,4,0:0:0:0:
240,264,192748,2,0,B|268:144|96:244|202:63|300:72,1,280,8|0,0:0|0:0,0:0:0:0:
356,132,194227,1,0,0:0:0:0:
420,188,194720,2,0,P|332:220|300:192,1,140
248,132,195706,6,0,P|192:72|128:56,1,140
124,140,196692,2,0,P|212:164|268:112,1,140,8|4,0:0|0:0,0:0:0:0:
328,108,197677,2,0,L|300:32,2,70,4|0|4,0:0|0:0|0:0,0:0:0:0:
256,192,198663,12,0,202607,0:0:0:0:
