osu file format v12

[General]
AudioFilename: virtual
AudioLeadIn: 0
PreviewTime: -1
Countdown: 0
SampleSet: Soft
StackLeniency: 0.7
Mode: 3
LetterboxInBreaks: 0
UseSkinSprites: 1
SpecialStyle: 1
WidescreenStoryboard: 1

[Editor]
Bookmarks: 42132
DistanceSpacing: 0.8
BeatDivisor: 1
GridSize: 32

[Metadata]
Title:Gin no Ishi
TitleUnicode:Gin no Ishi
Artist:shammy(BMS)
ArtistUnicode:shammy(BMS)
Creator:xxbidiao
Version:WARNING! THIS IS ONLY A STUB!!!
Source:BMS
Tags:Sora no kiseki
BeatmapID:359249
BeatmapSetID:144693

[Difficulty]
HPDrainRate:8
CircleSize:8
OverallDifficulty:8
ApproachRate:0
SliderMultiplier:0.6
SliderTickRate:1

[Events]
//Background and Video events
//Break Periods
//Storyboard Layer 0 (Background)
Sprite,Background,Centre,"bg.jpg",320,264 L,4722,16 S,0,0,3740,1.5,1.9 S,0,3740,7480,1.9,1.5 F,1,4722,5470,0,1 F,0,121068,121816,1,0
Sprite,Background,Centre,"osulogo.png",320,250 F,0,24,607,0,1 M,1,24,1729,0,250,320,250 R,1,24,1729,-4,0 S,1,1729,2103,1.1,1 S,1,2103,2477,1.1,1 S,1,2477,2851,1.1,1 S,1,2851,3225,1.1,1 S,1,3225,3599,1.1,1 S,1,3599,3974,1.1,1 S,1,3974,4348,1.1,1 S,1,4348,4722,1.1,1 F,1,4722,5470,1,0 S,1,4722,5470,1.1,5
Sprite,Background,Centre,"howto.png",320,180 M,0,1024,1624,320,-40,300,180 F,0,1024,1624,0,1 R,0,1024,1624,0.5,-0.1 S,1,1729,2103,1.1,1 S,1,2103,2477,1.1,1 S,1,2477,2851,1.1,1 S,1,2851,3225,1.1,1 F,0,3225,3599,1,0 S,0,3225,3599,1,3
Sprite,Background,Centre,"text1.png",320,130 F,0,5024,6024,0,1 F,0,9024,10024,1,0
Sprite,Background,Centre,"hitcircle1.png",320,320 S,0,21944,,0.6 F,0,21944,22624,1,0
Sprite,Background,Centre,"hitcircle1.png",320,320 S,0,6024,,0.6 F,0,6024,6424,0,1 F,0,21944,22324,1,0 S,0,21944,22324,0.6,1.2
Sprite,Background,Centre,"hitcircle2.png",200,320 F,0,24175,25175,1,0 S,1,24175,25175,0.6,1.2
Sprite,Background,Centre,"hitcircle2.png",280,320 F,0,24923,26023,1,0 S,1,24923,26023,0.6,1.2
Sprite,Background,Centre,"hitcircle2.png",360,320 F,0,25672,27290,1,0 S,1,25672,27290,0.6,1.2
Sprite,Background,Centre,"hitcircle2.png",440,320 F,0,26420,28020,1,0 S,1,26420,28020,0.6,1.2
Sprite,Background,Centre,"approachcircle1.png",320,320 S,0,9524,,1.8 F,0,9524,10024,0,1 S,0,14854,21944,1.8,0.6 F,0,21944,22024,1,0
Sprite,Background,TopLeft,"mouse.png",320,320 R,0,19264,,0 M,1,19264,21944,700,370,320,320 R,2,21944,22944,-0.2,0
Sprite,Background,Centre,"text2.png",320,130 F,0,9524,10524,0,1 F,0,13524,14524,1,0
Sprite,Background,Centre,"text3.png",320,130 F,0,14024,15024,0,1 F,0,18024,19024,1,0
Sprite,Background,Centre,"text4.png",320,130 F,0,18524,19524,0,1 F,0,22024,23024,1,0
Sprite,Background,Centre,"text5.png",320,130 F,0,23024,23524,0,1 F,0,27024,27524,1,0
Sprite,Background,Centre,"text6.png",320,130 F,0,27024,27524,0,1 F,0,31024,31524,1,0
Sprite,Background,Centre,"hand2.png",0,0 F,0,28351,29071,0,1 R,0,28351,29771,0,0.4 M,1,28351,29901,-30,300,135,200 M,1,29901,30261,135,200,135,300 M,1,30261,31383,135,300,265,200 M,1,31383,31757,265,200,265,300 M,1,31757,32879,265,300,400,200 M,1,32879,33254,400,200,400,300 M,1,33254,34376,400,300,530,200 M,1,34376,34750,530,200,530,300 F,0,35150,35640,1,0
Sprite,Background,Centre,"text7.png",320,120 F,0,42132,42632,0,1 F,0,51132,51632,1,0
Sprite,Background,Centre,"slider.png",320,210 F,0,43132,43632,0,1 M,0,52132,53132,320,210,320,270 F,0,78046,78546,1,0
Sprite,Background,Centre,"text8a.png",320,325 F,0,44132,44632,0,1 F,0,51132,51632,1,0
Sprite,Background,Centre,"text8b.png",320,325 F,0,45251,46251,0,1 F,0,51132,51632,1,0
Sprite,Background,Centre,"sliderb0.png",206,210 F,0,44132,44632,0,1 S,0,45132,,0.6 F,0,51132,51632,1,0
Sprite,Background,Centre,"sliderfollowcircle.png",206,210 S,0,45251,45252,0.6 F,0,45251,46451,0,1 F,0,51132,51632,1,0
Sprite,Background,Centre,"text9.png",320,400 F,0,46632,47632,0,1 F,0,51132,51632,1,0
Sprite,Background,Centre,"sliderscorepoint.png",320,208 F,0,46632,47632,0,1 M,0,52132,53132,320,208,320,268 F,0,62708,,1,0
Sprite,Background,Centre,"text10.png",320,130 F,0,53132,53632,0,1 F,0,65132,65632,1,0
Sprite,Background,Centre,"approachcircle2.png",207,270 S,0,54132,,1.8 F,0,54132,54632,0,1 S,0,55132,60089,1.8,0.6 F,0,60589,61089,1,0
Sprite,Background,Centre,"text11.png",320,420 F,0,60089,60589,0,1 F,0,65089,65589,1,0
Animation,Background,Centre,"sliderb.png",207,270,5,200,LoopForever S,0,60089,,0.6 M,0,60089,65701,207,270,437,270 S,0,65701,65901,0.6,1.2 F,0,65701,65950,1,0
Sprite,Background,Centre,"sliderfollowcircle.png",207,270 S,0,60089,60289,0.3,0.6 M,0,60089,65701,207,270,437,270 S,0,63082,63269,0.7,0.6 S,0,65701,65901,0.6,1.2 F,0,65701,65950,1,0
Sprite,Background,Centre,"hitcircle2.png",208,270 F,0,60089,60589,1,0 S,0,60089,60589,0.6,1.2
Sprite,Background,Centre,"text12.png",320,120 F,0,66571,67071,0,1 F,0,69571,70071,1,0
Sprite,Background,Centre,"reversearrow.png",435,270 L,67945,19 S,0,0,370,0.7,0.6 R,0,0,370,3.5,3 S,0,68071,,0.6 R,0,68071,,3 F,0,68071,68571,0,1 F,0,75053,,0
Sprite,Background,Centre,"text13.png",320,120 F,0,69571,70071,0,1 F,0,77571,78071,1,0
Sprite,Background,Centre,"sliderscorepoint.png",320,265 F,0,70071,70571,0,1 F,0,73370,73500,1,0 F,0,75053,75303,0,1 F,0,76363,,1,0
Sprite,Background,Centre,"approachcircle2.png",207,270 S,0,70071,,1.8 F,0,70071,70571,0,1 S,0,70071,72060,1.8,0.6 F,0,72060,72560,1,0 S,0,72060,72560,0.6
Animation,Background,Centre,"sliderb.png",207,270,5,200,LoopForever S,0,72060,,0.6 M,0,72060,75053,207,270,437,270 M,0,75053,78046,437,270,207,270 F,0,78046,78546,1,0 S,0,78046,78546,0.6,1.2
Sprite,Background,Centre,"sliderfollowcircle.png",207,270 S,0,72060,72260,0.3,0.6 M,0,72060,75053,207,270,437,270 S,0,73557,73744,0.7,0.6 S,0,75053,75240,0.7,0.6 M,0,75053,78046,437,270,207,270 S,0,76550,76737,0.7,0.6 F,0,78046,78546,1,0 S,0,78046,78546,0.6,1.2
Sprite,Background,Centre,"hitcircle2.png",208,270 F,0,72060,72360,1,0 S,0,72060,72360,0.6,1.2 F,0,78046,78346,1,0 S,0,78046,78546,0.6,1.2
Sprite,Background,Centre,"text14.png",320,400 F,0,75053,75553,0,1 F,0,77571,78071,1,0
Sprite,Background,Centre,"hitcircle2.png",435,270 F,0,75053,75353,1,0 S,0,75053,75353,0.6,1.2
Sprite,Background,Centre,"text15.png",320,150 F,0,79917,80417,0,1 F,0,82917,83417,1,0
Sprite,Background,Centre,"hand2.png",0,0 R,0,81535,,0.4 F,0,81535,82253,0,1 M,1,81535,83658,-30,300,145,120 M,2,83658,84032,145,120,145,210 M,0,84032,86276,145,210,505,210 M,1,86276,86650,510,210,510,170 M,2,86650,87024,510,170,510,285 M,0,87024,89269,510,285,150,285 M,0,89269,89643,150,285,195,245 M,2,89643,90017,195,245,210,370 M,0,90017,91514,210,370,435,370 M,0,91514,93010,435,370,210,370 F,0,93510,94010,1,0
Sprite,Background,Centre,"spinner-background.png",320,250 S,0,100492,,0.66 F,0,100492,100992,0,1 F,0,107600,108100,1,0
Sprite,Background,Centre,"spinner-circle.png",320,250 S,0,100492,,0.66 F,0,100492,100992,0,1 R,0,103485,107600,0,32 F,0,107600,108100,1,0
Sprite,Background,Centre,"approachcircle2.png",320,250 F,0,102985,103485,0,1 S,0,103485,,3.8 S,0,103485,107600,3.8,0.1 F,0,107600,108100,1,0 S,0,107600,108100,0.1
Sprite,Background,Centre,"text16.png",320,100 F,0,98996,99496,0,1 F,0,101996,102496,1,0
Sprite,Background,Centre,"text17.png",320,100 F,0,101996,102496,0,1 F,0,106996,107496,1,0
Sprite,Background,Centre,"text18.png",320,390 F,0,103485,103985,0,1 F,0,106996,107496,1,0
Sprite,Background,Centre,"text19.png",320,150 F,0,108722,109222,0,1 F,0,111722,112222,1,0
//Storyboard Layer 1 (Fail)
Sprite,Fail,Centre,"result-bad.png",320,240 F,0,36364,37024,0,1 S,1,36364,37024,0.2,1 F,0,40024,40524,1,0
Sprite,Fail,Centre,"result-bad.png",320,240 F,0,94507,95267,0,1 S,1,94507,95267,0.2,1 F,0,97567,98067,1,0
Sprite,Fail,Centre,"spinbad.png",320,240 F,0,121091,121791,0,1 S,1,121091,121791,0.2,1 F,0,124091,124791,1,0
//Storyboard Layer 2 (Pass)
Sprite,Pass,Centre,"result-good.png",320,240 F,0,36364,37024,0,1 S,1,36364,37024,2.2,1 F,0,40024,40524,1,0
Sprite,Pass,Centre,"result-good.png",320,240 F,0,94507,95267,0,1 S,1,94507,95267,2.2,1 F,0,97567,98067,1,0
Sprite,Pass,Centre,"spingood.png",320,240 F,0,121091,121791,0,1 S,1,121091,121791,2.2,1 F,0,124091,124791,1,0
//Storyboard Layer 3 (Foreground)
Sprite,Foreground,TopLeft,"mouse.png",0,0 S,0,57089,,0.75 R,2,57089,,0 M,1,57089,60089,700,370,207,270 R,1,60089,60339,0,-0.2 M,0,60089,65701,207,270,437,270 F,1,65701,66201,1,0 R,2,65701,66201,-0.2,0
Sprite,Foreground,TopLeft,"mouse.png",0,0 S,0,70190,,0.75 R,2,70190,,0 M,1,70190,72060,700,370,207,270 R,1,72060,72247,0,-0.2 M,0,72060,75053,207,270,437,270 M,0,75053,78046,437,270,207,270 F,1,78046,78546,1,0 R,1,78046,78546,-0.2,0
//Storyboard Sound Samples
Sample,3310,0,"tbgm_01.wav",70
Sample,3310,0,"10_shake.wav",70
Sample,3310,0,"10_tamb.wav",70
Sample,3413,0,"10_shake_w.wav",70
Sample,3517,0,"10_tamb.wav",70
Sample,3517,0,"10_shake_w.wav",70
Sample,3620,0,"10_shake_w.wav",70
Sample,3724,0,"10_tamb.wav",70
Sample,3724,0,"10_shake.wav",70
Sample,3827,0,"10_shake_w.wav",70
Sample,3931,0,"10_tamb.wav",70
Sample,3931,0,"10_shake_w.wav",70
Sample,4034,0,"10_shake_w.wav",70
Sample,4137,0,"10_tamb.wav",70
Sample,4137,0,"10_shake.wav",70
Sample,4241,0,"10_shake_w.wav",70
Sample,4344,0,"10_shake_w.wav",70
Sample,4448,0,"10_shake_w.wav",70
Sample,4551,0,"10_shake.wav",70
Sample,4551,0,"10_tamb.wav",70
Sample,4655,0,"10_shake_w.wav",70
Sample,4758,0,"10_shake_w.wav",70
Sample,4758,0,"10_tamb.wav",70
Sample,4862,0,"10_shake_w.wav",70
Sample,4965,0,"10_tamb.wav",70
Sample,4965,0,"10_shake.wav",70
Sample,5068,0,"10_shake_w.wav",70
Sample,5172,0,"10_tamb.wav",70
Sample,5172,0,"10_shake_w.wav",70
Sample,5275,0,"10_shake_w.wav",70
Sample,5379,0,"10_tamb.wav",70
Sample,5379,0,"10_shake.wav",70
Sample,5482,0,"10_shake_w.wav",70
Sample,5586,0,"10_shake_w.wav",70
Sample,5689,0,"10_shake_w.wav",70
Sample,5793,0,"10_tamb.wav",70
Sample,5793,0,"10_shake.wav",70
Sample,5896,0,"10_shake_w.wav",70
Sample,6000,0,"10_shake_w.wav",70
Sample,6103,0,"10_shake_w.wav",70
Sample,6206,0,"10_tamb.wav",70
Sample,6206,0,"10_shake.wav",70
Sample,6310,0,"10_shake_w.wav",70
Sample,6413,0,"10_tamb.wav",70
Sample,6413,0,"10_shake_w.wav",70
Sample,6517,0,"10_shake_w.wav",70
Sample,6620,0,"10_Chat.wav",70
Sample,6620,0,"harpsi_1_G#.wav",70
Sample,6620,0,"10_BD.wav",70
Sample,6620,0,"piano_in_C#F#G#.wav",70
Sample,6620,0,"10_shake.wav",70
Sample,6620,0,"tbgm_02.wav",70
Sample,6724,0,"10_Chat.wav",70
Sample,6724,0,"harpsi_1_F#.wav",70
Sample,6724,0,"10_shake_w.wav",70
Sample,6827,0,"harpsi_1_G#.wav",70
Sample,6827,0,"10_shake_w.wav",70
Sample,6827,0,"piano_in_C#F#G#.wav",70
Sample,6827,0,"10_Chat.wav",70
Sample,6931,0,"10_shake_w.wav",70
Sample,6931,0,"harpsi_1_C#).wav",70
Sample,7034,0,"10_SD2.wav",70
Sample,7034,0,"harpsi_1_G#.wav",70
Sample,7034,0,"piano_in_C#F#G#.wav",70
Sample,7034,0,"10_shake.wav",70
Sample,7034,0,"10_Chat.wav",70
Sample,7034,0,"10_BD.wav",70
Sample,7137,0,"10_shake_w.wav",70
Sample,7137,0,"harpsi_1_F#.wav",70
Sample,7241,0,"10_Chat.wav",70
Sample,7241,0,"10_shake_w.wav",70
Sample,7241,0,"piano_in_C#EG#.wav",70
Sample,7241,0,"harpsi_1_C#.wav",70
Sample,7344,0,"10_shake_w.wav",70
Sample,7344,0,"harpsi_1_F#.wav",70
Sample,7448,0,"harpsi_1_G#.wav",70
Sample,7448,0,"10_shake.wav",70
Sample,7448,0,"10_BD.wav",70
Sample,7448,0,"piano_in_C#EG#.wav",70
Sample,7448,0,"10_Chat.wav",70
Sample,7551,0,"harpsi_1_C#).wav",70
Sample,7551,0,"10_Chat.wav",70
Sample,7551,0,"10_shake_w.wav",70
Sample,7655,0,"piano_in_C#EG#.wav",70
Sample,7655,0,"10_shake_w.wav",70
Sample,7655,0,"harpsi_1_G#.wav",70
Sample,7655,0,"10_Chat.wav",70
Sample,7758,0,"10_shake_w.wav",70
Sample,7758,0,"harpsi_1_F#.wav",70
Sample,7862,0,"10_BD.wav",70
Sample,7862,0,"10_Chat.wav",70
Sample,7862,0,"piano_in_C#EG#.wav",70
Sample,7862,0,"10_SD2.wav",70
Sample,7862,0,"harpsi_1_C#.wav",70
Sample,7862,0,"10_shake.wav",70
Sample,7965,0,"harpsi_1_F#.wav",70
Sample,7965,0,"10_shake_w.wav",70
Sample,8068,0,"10_Chat.wav",70
Sample,8068,0,"10_shake_w.wav",70
Sample,8068,0,"harpsi_1_G#.wav",70
Sample,8068,0,"piano_in_C#D#G#.wav",70
Sample,8172,0,"harpsi_1_C#).wav",70
Sample,8172,0,"10_shake_w.wav",70
Sample,8275,0,"10_Chat.wav",70
Sample,8275,0,"harpsi_1_G#.wav",70
Sample,8275,0,"10_BD.wav",70
Sample,8275,0,"piano_in_C#D#G#.wav",70
Sample,8275,0,"10_shake.wav",70
Sample,8379,0,"10_Chat.wav",70
Sample,8379,0,"harpsi_1_F#.wav",70
Sample,8379,0,"10_shake_w.wav",70
Sample,8482,0,"10_shake_w.wav",70
Sample,8482,0,"piano_in_C#D#G#.wav",70
Sample,8482,0,"10_Chat.wav",70
Sample,8482,0,"harpsi_1_C#.wav",70
Sample,8586,0,"harpsi_1_F#.wav",70
Sample,8586,0,"10_shake_w.wav",70
Sample,8689,0,"10_Chat.wav",70
Sample,8689,0,"10_BD.wav",70
Sample,8689,0,"10_shake.wav",70
Sample,8689,0,"harpsi_1_G#.wav",70
Sample,8689,0,"10_SD2.wav",70
Sample,8689,0,"piano_in_C#D#G#.wav",70
Sample,8793,0,"harpsi_1_C#).wav",70
Sample,8793,0,"10_shake_w.wav",70
Sample,8896,0,"10_shake_w.wav",70
Sample,8896,0,"piano_in_C#EG#.wav",70
Sample,8896,0,"harpsi_1_G#.wav",70
Sample,8896,0,"10_Chat.wav",70
Sample,9000,0,"harpsi_1_F#.wav",70
Sample,9000,0,"10_shake_w.wav",70
Sample,9103,0,"piano_in_C#EG#.wav",70
Sample,9103,0,"harpsi_1_C#.wav",70
Sample,9103,0,"10_BD.wav",70
Sample,9103,0,"10_Chat.wav",70
Sample,9103,0,"10_shake.wav",70
Sample,9206,0,"harpsi_1_F#.wav",70
Sample,9206,0,"10_Chat.wav",70
Sample,9206,0,"10_shake_w.wav",70
Sample,9310,0,"10_shake_w.wav",70
Sample,9310,0,"piano_in_C#EG#.wav",70
Sample,9310,0,"harpsi_1_G#.wav",70
Sample,9310,0,"10_Chat.wav",70
Sample,9413,0,"harpsi_1_C#).wav",70
Sample,9413,0,"10_shake_w.wav",70
Sample,9517,0,"10_BD.wav",70
Sample,9517,0,"10_SD2.wav",70
Sample,9517,0,"10_shake.wav",70
Sample,9517,0,"piano_in_C#EG#.wav",70
Sample,9517,0,"10_Chat.wav",70
Sample,9517,0,"harpsi_1_G#.wav",70
Sample,9620,0,"harpsi_1_F#.wav",70
Sample,9620,0,"10_shake_w.wav",70
Sample,9724,0,"10_shake_w.wav",70
Sample,9724,0,"10_Chat.wav",70
Sample,9724,0,"harpsi_1_C#.wav",70
Sample,9724,0,"piano_in_C#F#G#.wav",70
Sample,9827,0,"harpsi_1_F#.wav",70
Sample,9827,0,"10_shake_w.wav",70
Sample,9931,0,"10_Chat.wav",70
Sample,9931,0,"harpsi_2_G#).wav",70
Sample,9931,0,"10_BD.wav",70
Sample,9931,0,"piano_in_C#F#G#.wav",70
Sample,9931,0,"10_shake.wav",70
Sample,10034,0,"harpsi_2_F#).wav",70
Sample,10034,0,"10_Chat.wav",70
Sample,10034,0,"10_shake_w.wav",70
Sample,10137,0,"10_shake_w.wav",70
Sample,10137,0,"10_Chat.wav",70
Sample,10137,0,"piano_in_C#F#G#.wav",70
Sample,10137,0,"harpsi_2_G#).wav",70
Sample,10241,0,"harpsi_2_C#)).wav",70
Sample,10241,0,"10_shake_w.wav",70
Sample,10344,0,"10_BD.wav",70
Sample,10344,0,"10_SD2.wav",70
Sample,10344,0,"10_shake.wav",70
Sample,10344,0,"harpsi_2_G#).wav",70
Sample,10344,0,"10_Chat.wav",70
Sample,10344,0,"piano_in_C#F#G#.wav",70
Sample,10448,0,"harpsi_2_F#).wav",70
Sample,10448,0,"10_shake_w.wav",70
Sample,10551,0,"10_shake_w.wav",70
Sample,10551,0,"10_Chat.wav",70
Sample,10551,0,"harpsi_1_C#).wav",70
Sample,10551,0,"piano_in_C#EG#.wav",70
Sample,10655,0,"harpsi_2_F#).wav",70
Sample,10655,0,"10_shake_w.wav",70
Sample,10758,0,"10_BD.wav",70
Sample,10758,0,"harpsi_2_G#).wav",70
Sample,10758,0,"piano_in_C#EG#.wav",70
Sample,10758,0,"10_Chat.wav",70
Sample,10758,0,"10_shake.wav",70
Sample,10862,0,"10_Chat.wav",70
Sample,10862,0,"harpsi_2_C#)).wav",70
Sample,10862,0,"10_shake_w.wav",70
Sample,10965,0,"10_shake_w.wav",70
Sample,10965,0,"piano_in_C#EG#.wav",70
Sample,10965,0,"harpsi_2_G#).wav",70
Sample,10965,0,"10_Chat.wav",70
Sample,11068,0,"harpsi_2_F#).wav",70
Sample,11068,0,"10_shake_w.wav",70
Sample,11172,0,"harpsi_1_C#).wav",70
Sample,11172,0,"10_Chat.wav",70
Sample,11172,0,"10_shake.wav",70
Sample,11172,0,"piano_in_C#EG#.wav",70
Sample,11172,0,"10_SD2.wav",70
Sample,11172,0,"10_BD.wav",70
Sample,11275,0,"harpsi_2_F#).wav",70
Sample,11275,0,"10_shake_w.wav",70
Sample,11379,0,"10_shake_w.wav",70
Sample,11379,0,"10_Chat.wav",70
Sample,11379,0,"harpsi_2_G#).wav",70
Sample,11379,0,"piano_in_C#D#G#.wav",70
Sample,11482,0,"harpsi_2_C#)).wav",70
Sample,11482,0,"10_shake_w.wav",70
Sample,11586,0,"10_BD.wav",70
Sample,11586,0,"10_Chat.wav",70
Sample,11586,0,"harpsi_2_G#).wav",70
Sample,11586,0,"10_shake.wav",70
Sample,11586,0,"piano_in_C#D#G#.wav",70
Sample,11586,0,"tbgm_02a.wav",70
Sample,11689,0,"10_shake_w.wav",70
Sample,11689,0,"harpsi_2_F#).wav",70
Sample,11689,0,"10_Chat.wav",70
Sample,11793,0,"harpsi_1_C#).wav",70
Sample,11793,0,"10_Chat.wav",70
Sample,11793,0,"10_shake_w.wav",70
Sample,11793,0,"piano_in_C#D#G#.wav",70
Sample,11896,0,"10_shake_w.wav",70
Sample,11896,0,"harpsi_2_F#).wav",70
Sample,12000,0,"harpsi_2_G#).wav",70
Sample,12000,0,"piano_in_C#D#G#.wav",70
Sample,12000,0,"10_BD.wav",70
Sample,12000,0,"10_Chat.wav",70
Sample,12000,0,"10_shake.wav",70
Sample,12000,0,"10_SD2.wav",70
Sample,12103,0,"10_shake_w.wav",70
Sample,12103,0,"harpsi_2_C#)).wav",70
Sample,12206,0,"10_Chat.wav",70
Sample,12206,0,"piano_in_C#EG#.wav",70
Sample,12206,0,"10_shake_w.wav",70
Sample,12206,0,"harpsi_2_G#).wav",70
Sample,12310,0,"10_shake_w.wav",70
Sample,12310,0,"harpsi_2_F#).wav",70
Sample,12413,0,"10_BD.wav",70
Sample,12413,0,"harpsi_1_C#).wav",70
Sample,12413,0,"10_SD2.wav",70
Sample,12413,0,"piano_in_C#EG#.wav",70
Sample,12413,0,"10_Chat.wav",70
Sample,12413,0,"10_shake.wav",70
Sample,12517,0,"harpsi_2_F#).wav",70
Sample,12517,0,"10_shake_w.wav",70
Sample,12517,0,"10_Chat.wav",70
Sample,12620,0,"piano_in_C#EG#.wav",70
Sample,12620,0,"10_shake_w.wav",70
Sample,12620,0,"harpsi_2_G#).wav",70
Sample,12620,0,"10_Chat.wav",70
Sample,12724,0,"harpsi_2_C#)).wav",70
Sample,12724,0,"10_shake_w.wav",70
Sample,12827,0,"10_BD.wav",70
Sample,12827,0,"10_shake.wav",70
Sample,12827,0,"piano_in_C#EG#.wav",70
Sample,12827,0,"harpsi_2_G#).wav",70
Sample,12827,0,"10_Chat.wav",70
Sample,12931,0,"10_shake_w.wav",70
Sample,12931,0,"harpsi_2_F#).wav",70
Sample,13034,0,"10_shake_w.wav",70
Sample,13034,0,"10_SD2.wav",70
Sample,13034,0,"harpsi_1_C#).wav",70
Sample,13034,0,"10_Chat.wav",70
Sample,13034,0,"piano_in_C#F#G#.wav",70
Sample,13137,0,"harpsi_2_F#).wav",70
Sample,13137,0,"10_shake_w.wav",70
Sample,13241,0,"10_shake.wav",70
Sample,13241,0,"pad2.wav",70
Sample,13241,0,"10_BD.wav",70
Sample,13241,0,"piano_in_C#F#G#.wav",70
Sample,13241,0,"tbgm_02.wav",70
Sample,13241,0,"10_Chat.wav",70
Sample,13241,0,"harpsi_1_G#.wav",70
Sample,13344,0,"harpsi_1_F#.wav",70
Sample,13344,0,"10_shake_w.wav",70
Sample,13344,0,"10_Chat.wav",70
Sample,13344,0,"pad6.wav",70
Sample,13448,0,"10_shake_w.wav",70
Sample,13448,0,"harpsi_1_G#.wav",70
Sample,13448,0,"piano_in_C#F#G#.wav",70
Sample,13448,0,"10_Chat.wav",70
Sample,13551,0,"10_shake_w.wav",70
Sample,13551,0,"harpsi_1_C#).wav",70
Sample,13655,0,"harpsi_1_G#.wav",70
Sample,13655,0,"piano_in_C#F#G#.wav",70
Sample,13655,0,"10_BD.wav",70
Sample,13655,0,"10_Chat.wav",70
Sample,13655,0,"10_SD2.wav",70
Sample,13655,0,"10_shake.wav",70
Sample,13758,0,"10_shake_w.wav",70
Sample,13758,0,"harpsi_1_F#.wav",70
Sample,13862,0,"piano_in_C#EG#.wav",70
Sample,13862,0,"10_shake_w.wav",70
Sample,13862,0,"harpsi_1_C#.wav",70
Sample,13862,0,"10_Chat.wav",70
Sample,13965,0,"harpsi_1_F#.wav",70
Sample,13965,0,"10_shake_w.wav",70
Sample,14068,0,"piano_in_C#EG#.wav",70
Sample,14068,0,"10_shake.wav",70
Sample,14068,0,"10_BD.wav",70
Sample,14068,0,"harpsi_1_G#.wav",70
Sample,14068,0,"10_Chat.wav",70
Sample,14172,0,"10_Chat.wav",70
Sample,14172,0,"harpsi_1_C#).wav",70
Sample,14172,0,"10_shake_w.wav",70
Sample,14275,0,"10_shake_w.wav",70
Sample,14275,0,"piano_in_C#EG#.wav",70
Sample,14275,0,"harpsi_1_G#.wav",70
Sample,14275,0,"10_Chat.wav",70
Sample,14379,0,"harpsi_1_F#.wav",70
Sample,14379,0,"10_shake_w.wav",70
Sample,14482,0,"10_BD.wav",70
Sample,14482,0,"10_SD2.wav",70
Sample,14482,0,"10_shake.wav",70
Sample,14482,0,"piano_in_C#EG#.wav",70
Sample,14482,0,"harpsi_1_C#.wav",70
Sample,14482,0,"10_Chat.wav",70
Sample,14586,0,"10_shake_w.wav",70
Sample,14586,0,"harpsi_1_F#.wav",70
Sample,14689,0,"10_shake_w.wav",70
Sample,14689,0,"10_Chat.wav",70
Sample,14689,0,"harpsi_1_G#.wav",70
Sample,14689,0,"piano_in_C#D#G#.wav",70
Sample,14793,0,"10_shake_w.wav",70
Sample,14793,0,"harpsi_1_C#).wav",70
Sample,14896,0,"10_Chat.wav",70
Sample,14896,0,"harpsi_1_G#.wav",70
Sample,14896,0,"10_BD.wav",70
Sample,14896,0,"piano_in_C#D#G#.wav",70
Sample,14896,0,"10_shake.wav",70
Sample,15000,0,"10_Chat.wav",70
Sample,15000,0,"harpsi_1_F#.wav",70
Sample,15000,0,"10_shake_w.wav",70
Sample,15103,0,"10_shake_w.wav",70
Sample,15103,0,"10_Chat.wav",70
Sample,15103,0,"piano_in_C#D#G#.wav",70
Sample,15103,0,"harpsi_1_C#.wav",70
Sample,15206,0,"10_shake_w.wav",70
Sample,15206,0,"harpsi_1_F#.wav",70
Sample,15310,0,"10_SD2.wav",70
Sample,15310,0,"10_Chat.wav",70
Sample,15310,0,"10_BD.wav",70
Sample,15310,0,"harpsi_1_G#.wav",70
Sample,15310,0,"piano_in_C#D#G#.wav",70
Sample,15310,0,"10_shake.wav",70
Sample,15413,0,"10_shake_w.wav",70
Sample,15413,0,"harpsi_1_C#).wav",70
Sample,15517,0,"10_shake_w.wav",70
Sample,15517,0,"piano_in_C#EG#.wav",70
Sample,15517,0,"10_Chat.wav",70
Sample,15517,0,"harpsi_1_G#.wav",70
Sample,15620,0,"10_shake_w.wav",70
Sample,15620,0,"harpsi_1_F#.wav",70
Sample,15724,0,"10_BD.wav",70
Sample,15724,0,"piano_in_C#EG#.wav",70
Sample,15724,0,"10_Chat.wav",70
Sample,15724,0,"harpsi_1_C#.wav",70
Sample,15724,0,"10_shake.wav",70
Sample,15827,0,"harpsi_1_F#.wav",70
Sample,15827,0,"10_Chat.wav",70
Sample,15827,0,"10_shake_w.wav",70
Sample,15931,0,"10_shake_w.wav",70
Sample,15931,0,"10_Chat.wav",70
Sample,15931,0,"harpsi_1_G#.wav",70
Sample,15931,0,"piano_in_C#EG#.wav",70
Sample,16034,0,"10_shake_w.wav",70
Sample,16034,0,"harpsi_1_C#).wav",70
Sample,16137,0,"10_BD.wav",70
Sample,16137,0,"10_SD2.wav",70
Sample,16137,0,"harpsi_1_G#.wav",70
Sample,16137,0,"piano_in_C#EG#.wav",70
Sample,16137,0,"10_Chat.wav",70
Sample,16137,0,"10_shake.wav",70
Sample,16241,0,"10_shake_w.wav",70
Sample,16241,0,"harpsi_1_F#.wav",70
Sample,16344,0,"10_shake_w.wav",70
Sample,16344,0,"piano_in_C#F#G#.wav",70
Sample,16344,0,"10_Chat.wav",70
Sample,16344,0,"harpsi_1_C#.wav",70
Sample,16448,0,"10_shake_w.wav",70
Sample,16448,0,"harpsi_1_F#.wav",70
Sample,16551,0,"10_Chat.wav",70
Sample,16551,0,"harpsi_2_G#).wav",70
Sample,16551,0,"10_BD.wav",70
Sample,16551,0,"piano_in_C#F#G#.wav",70
Sample,16551,0,"10_shake.wav",70
Sample,16655,0,"harpsi_2_F#).wav",70
Sample,16655,0,"10_Chat.wav",70
Sample,16655,0,"10_shake_w.wav",70
Sample,16758,0,"10_shake_w.wav",70
Sample,16758,0,"harpsi_2_G#).wav",70
Sample,16758,0,"10_Chat.wav",70
Sample,16758,0,"piano_in_C#F#G#.wav",70
Sample,16862,0,"10_shake_w.wav",70
Sample,16862,0,"harpsi_2_C#)).wav",70
Sample,16965,0,"10_BD.wav",70
Sample,16965,0,"10_SD2.wav",70
Sample,16965,0,"piano_in_C#F#G#.wav",70
Sample,16965,0,"harpsi_2_G#).wav",70
Sample,16965,0,"10_Chat.wav",70
Sample,16965,0,"10_shake.wav",70
Sample,17068,0,"10_shake_w.wav",70
Sample,17068,0,"harpsi_2_F#).wav",70
Sample,17172,0,"10_shake_w.wav",70
Sample,17172,0,"piano_in_C#EG#.wav",70
Sample,17172,0,"10_Chat.wav",70
Sample,17172,0,"harpsi_1_C#).wav",70
Sample,17275,0,"10_shake_w.wav",70
Sample,17275,0,"harpsi_2_F#).wav",70
Sample,17379,0,"10_BD.wav",70
Sample,17379,0,"10_Chat.wav",70
Sample,17379,0,"piano_in_C#EG#.wav",70
Sample,17379,0,"harpsi_2_G#).wav",70
Sample,17379,0,"10_shake.wav",70
Sample,17482,0,"harpsi_2_C#)).wav",70
Sample,17482,0,"10_Chat.wav",70
Sample,17482,0,"10_shake_w.wav",70
Sample,17586,0,"10_shake_w.wav",70
Sample,17586,0,"10_Chat.wav",70
Sample,17586,0,"harpsi_2_G#).wav",70
Sample,17586,0,"piano_in_C#EG#.wav",70
Sample,17689,0,"10_shake_w.wav",70
Sample,17689,0,"harpsi_2_F#).wav",70
Sample,17793,0,"10_SD3.wav",70
Sample,17793,0,"harpsi_1_C#).wav",70
Sample,17793,0,"piano_in_C#EG#.wav",70
Sample,17793,0,"10_BD.wav",70
Sample,17793,0,"10_Chat.wav",70
Sample,17793,0,"10_shake.wav",70
Sample,17896,0,"10_shake_w.wav",70
Sample,17896,0,"harpsi_2_F#).wav",70
Sample,18000,0,"10_SD2.wav",70
Sample,18000,0,"harpsi_2_G#).wav",70
Sample,18000,0,"piano_in_C#D#G#.wav",70
Sample,18000,0,"10_Chat.wav",70
Sample,18000,0,"10_shake_w.wav",70
Sample,18103,0,"harpsi_2_C#)).wav",70
Sample,18103,0,"10_SD2.wav",70
Sample,18103,0,"10_shake_w.wav",70
Sample,18206,0,"tbgm_02b.wav",70
Sample,18206,0,"harpsi_2_G#).wav",70
Sample,18206,0,"10_SD1.wav",70
Sample,18206,0,"guit_C#.wav",70
Sample,18310,0,"harpsi_2_F#).wav",70
Sample,18413,0,"harpsi_1_C#).wav",70
Sample,18413,0,"guit_G#(.wav",70
Sample,18413,0,"10_SD2.wav",70
Sample,18517,0,"harpsi_2_F#).wav",70
Sample,18620,0,"10_SD2.wav",70
Sample,18620,0,"guit_D#.wav",70
Sample,18620,0,"harpsi_2_G#).wav",70
Sample,18724,0,"harpsi_2_C#)).wav",70
Sample,18827,0,"harpsi_2_G#).wav",70
Sample,18827,0,"10_SD2.wav",70
Sample,18827,0,"guit_C#.wav",70
Sample,18931,0,"harpsi_2_F#).wav",70
Sample,19034,0,"guit_G#(.wav",70
Sample,19034,0,"10_SD2.wav",70
Sample,19034,0,"harpsi_1_C#).wav",70
Sample,19137,0,"10_SD1.wav",70
Sample,19137,0,"harpsi_2_F#).wav",70
Sample,19241,0,"harpsi_2_G#).wav",70
Sample,19241,0,"10_SD1.wav",70
Sample,19241,0,"guit_G#.wav",70
Sample,19344,0,"harpsi_2_C#)).wav",70
Sample,19448,0,"10_SD2.wav",70
Sample,19448,0,"guit_D#.wav",70
Sample,19448,0,"harpsi_2_G#).wav",70
Sample,19551,0,"harpsi_2_F#).wav",70
Sample,19655,0,"guit_C#.wav",70
Sample,19655,0,"harpsi_1_C#).wav",70
Sample,19655,0,"10_SD3.wav",70
Sample,19758,0,"harpsi_2_F#).wav",70
Sample,19758,0,"10_SD2.wav",70
Sample,19862,0,"tbgm_03.wav",70
Sample,19862,0,"10_BD.wav",70
Sample,19862,0,"10_shake.wav",70
Sample,19862,0,"10_Chat_w.wav",70
Sample,19965,0,"10_shake_w.wav",70
Sample,19965,0,"10_Chat.wav",70
Sample,20068,0,"10_Chat.wav",70
Sample,20068,0,"10_shake_w.wav",70
Sample,20172,0,"10_shake_w.wav",70
Sample,20275,0,"10_SD2.wav",70
Sample,20275,0,"10_shake.wav",70
Sample,20275,0,"10_Chat.wav",70
Sample,20275,0,"10_BD.wav",70
Sample,20379,0,"10_shake_w.wav",70
Sample,20482,0,"10_shake_w.wav",70
Sample,20482,0,"10_Chat.wav",70
Sample,20586,0,"10_Chat.wav",70
Sample,20586,0,"10_shake_w.wav",70
Sample,20689,0,"10_shake.wav",70
Sample,20689,0,"10_BD.wav",70
Sample,20689,0,"10_Chat_w.wav",70
Sample,20793,0,"10_shake_w.wav",70
Sample,20793,0,"10_Chat.wav",70
Sample,20896,0,"10_Chat.wav",70
Sample,20896,0,"10_shake_w.wav",70
Sample,21000,0,"10_shake_w.wav",70
Sample,21103,0,"10_shake.wav",70
Sample,21103,0,"10_SD2.wav",70
Sample,21103,0,"10_Chat.wav",70
Sample,21103,0,"10_BD.wav",70
Sample,21206,0,"10_shake_w.wav",70
Sample,21310,0,"10_shake_w.wav",70
Sample,21310,0,"10_Chat.wav",70
Sample,21413,0,"10_shake_w.wav",70
Sample,21413,0,"10_Chat.wav",70
Sample,21517,0,"10_BD.wav",70
Sample,21517,0,"10_Chat_w.wav",70
Sample,21517,0,"10_shake.wav",70
Sample,21620,0,"10_shake_w.wav",70
Sample,21620,0,"10_Chat.wav",70
Sample,21724,0,"10_Chat.wav",70
Sample,21724,0,"10_shake_w.wav",70
Sample,21827,0,"10_shake_w.wav",70
Sample,21931,0,"10_shake.wav",70
Sample,21931,0,"10_Chat.wav",70
Sample,21931,0,"10_BD.wav",70
Sample,21931,0,"10_SD2.wav",70
Sample,22034,0,"10_shake_w.wav",70
Sample,22137,0,"10_Chat.wav",70
Sample,22137,0,"10_shake_w.wav",70
Sample,22241,0,"10_shake_w.wav",70
Sample,22241,0,"10_Chat.wav",70
Sample,22344,0,"10_Chat_w.wav",70
Sample,22344,0,"10_shake.wav",70
Sample,22344,0,"10_BD.wav",70
Sample,22448,0,"10_shake_w.wav",70
Sample,22448,0,"10_Chat.wav",70
Sample,22551,0,"10_Chat.wav",70
Sample,22551,0,"10_shake_w.wav",70
Sample,22655,0,"10_shake_w.wav",70
Sample,22758,0,"10_Chat.wav",70
Sample,22758,0,"10_SD2.wav",70
Sample,22758,0,"10_BD.wav",70
Sample,22758,0,"10_shake.wav",70
Sample,22862,0,"10_shake_w.wav",70
Sample,22965,0,"10_Chat.wav",70
Sample,22965,0,"10_shake_w.wav",70
Sample,23068,0,"10_shake_w.wav",70
Sample,23068,0,"10_Chat.wav",70
Sample,23172,0,"10_BD.wav",70
Sample,23172,0,"10_Chat_w.wav",70
Sample,23172,0,"10_shake.wav",70
Sample,23275,0,"10_shake_w.wav",70
Sample,23275,0,"10_Chat.wav",70
Sample,23379,0,"10_Chat.wav",70
Sample,23379,0,"10_shake_w.wav",70
Sample,23482,0,"10_shake_w.wav",70
Sample,23586,0,"10_shake.wav",70
Sample,23586,0,"10_SD2.wav",70
Sample,23586,0,"10_BD.wav",70
Sample,23586,0,"10_Chat.wav",70
Sample,23689,0,"10_shake_w.wav",70
Sample,23793,0,"10_Chat.wav",70
Sample,23793,0,"10_shake_w.wav",70
Sample,23896,0,"10_shake_w.wav",70
Sample,23896,0,"10_Chat.wav",70
Sample,24000,0,"10_Chat_w.wav",70
Sample,24000,0,"10_shake.wav",70
Sample,24000,0,"10_BD.wav",70
Sample,24103,0,"10_shake_w.wav",70
Sample,24103,0,"10_Chat.wav",70
Sample,24206,0,"10_Chat.wav",70
Sample,24206,0,"10_shake_w.wav",70
Sample,24310,0,"10_shake_w.wav",70
Sample,24413,0,"10_SD2.wav",70
Sample,24413,0,"10_BD.wav",70
Sample,24413,0,"10_Chat.wav",70
Sample,24413,0,"10_shake.wav",70
Sample,24517,0,"10_shake_w.wav",70
Sample,24620,0,"10_Chat.wav",70
Sample,24620,0,"10_shake_w.wav",70
Sample,24724,0,"10_shake_w.wav",70
Sample,24724,0,"10_Chat.wav",70
Sample,24827,0,"10_BD.wav",70
Sample,24827,0,"10_Chat_w.wav",70
Sample,24827,0,"10_shake.wav",70
Sample,24931,0,"10_shake_w.wav",70
Sample,24931,0,"10_Chat.wav",70
Sample,25034,0,"10_Chat.wav",70
Sample,25034,0,"10_shake_w.wav",70
Sample,25137,0,"10_shake_w.wav",70
Sample,25241,0,"10_shake.wav",70
Sample,25241,0,"10_Chat.wav",70
Sample,25241,0,"10_SD2.wav",70
Sample,25241,0,"10_BD.wav",70
Sample,25344,0,"10_shake_w.wav",70
Sample,25448,0,"10_Chat.wav",70
Sample,25448,0,"10_shake_w.wav",70
Sample,25551,0,"10_shake_w.wav",70
Sample,25551,0,"10_Chat.wav",70
Sample,25655,0,"10_Chat_w.wav",70
Sample,25655,0,"10_shake.wav",70
Sample,25655,0,"10_BD.wav",70
Sample,25758,0,"10_shake_w.wav",70
Sample,25758,0,"10_Chat.wav",70
Sample,25758,0,"10_SD2.wav",70
Sample,25862,0,"10_Chat.wav",70
Sample,25862,0,"10_shake_w.wav",70
Sample,25965,0,"10_shake_w.wav",70
Sample,26068,0,"10_BD.wav",70
Sample,26068,0,"10_Chat.wav",70
Sample,26068,0,"10_shake.wav",70
Sample,26172,0,"10_shake_w.wav",70
Sample,26275,0,"10_shake_w.wav",70
Sample,26275,0,"10_SD2.wav",70
Sample,26275,0,"10_Chat.wav",70
Sample,26275,0,"10_BD.wav",70
Sample,26379,0,"10_shake_w.wav",70
Sample,26379,0,"10_Chat.wav",70
Sample,26482,0,"10_BD.wav",70
Sample,26482,0,"10_Chat_w.wav",70
Sample,26482,0,"10_shake.wav",70
Sample,26586,0,"10_shake_w.wav",70
Sample,26586,0,"10_Chat.wav",70
Sample,26689,0,"10_Chat.wav",70
Sample,26689,0,"10_shake_w.wav",70
Sample,26793,0,"10_shake_w.wav",70
Sample,26896,0,"10_shake.wav",70
Sample,26896,0,"10_SD2.wav",70
Sample,26896,0,"10_Chat.wav",70
Sample,26896,0,"10_BD.wav",70
Sample,27000,0,"10_shake_w.wav",70
Sample,27103,0,"10_Chat.wav",70
Sample,27103,0,"10_shake_w.wav",70
Sample,27206,0,"10_shake_w.wav",70
Sample,27206,0,"10_Chat.wav",70
Sample,27310,0,"10_Chat_w.wav",70
Sample,27310,0,"10_shake.wav",70
Sample,27310,0,"10_BD.wav",70
Sample,27413,0,"10_shake_w.wav",70
Sample,27413,0,"10_Chat.wav",70
Sample,27517,0,"10_Chat.wav",70
Sample,27517,0,"10_shake_w.wav",70
Sample,27620,0,"10_shake_w.wav",70
Sample,27724,0,"10_SD2.wav",70
Sample,27724,0,"10_Chat.wav",70
Sample,27724,0,"10_BD.wav",70
Sample,27724,0,"10_shake.wav",70
Sample,27827,0,"10_shake_w.wav",70
Sample,27931,0,"10_Chat.wav",70
Sample,27931,0,"10_shake_w.wav",70
Sample,28034,0,"10_shake_w.wav",70
Sample,28034,0,"10_Chat.wav",70
Sample,28137,0,"10_BD.wav",70
Sample,28137,0,"10_Chat_w.wav",70
Sample,28137,0,"10_shake.wav",70
Sample,28241,0,"10_shake_w.wav",70
Sample,28241,0,"10_Chat.wav",70
Sample,28344,0,"10_Chat.wav",70
Sample,28344,0,"10_shake_w.wav",70
Sample,28448,0,"10_shake_w.wav",70
Sample,28551,0,"10_shake.wav",70
Sample,28551,0,"10_Chat.wav",70
Sample,28551,0,"10_SD2.wav",70
Sample,28551,0,"10_BD.wav",70
Sample,28655,0,"10_shake_w.wav",70
Sample,28758,0,"10_Chat.wav",70
Sample,28758,0,"10_shake_w.wav",70
Sample,28862,0,"10_shake_w.wav",70
Sample,28862,0,"10_Chat.wav",70
Sample,28965,0,"10_BD.wav",70
Sample,28965,0,"10_shake.wav",70
Sample,28965,0,"10_Chat_w.wav",70
Sample,29068,0,"10_shake_w.wav",70
Sample,29068,0,"10_Chat.wav",70
Sample,29172,0,"10_Chat.wav",70
Sample,29172,0,"10_shake_w.wav",70
Sample,29275,0,"10_shake_w.wav",70
Sample,29379,0,"10_BD.wav",70
Sample,29379,0,"10_Chat.wav",70
Sample,29379,0,"10_SD2.wav",70
Sample,29379,0,"10_shake.wav",70
Sample,29482,0,"10_shake_w.wav",70
Sample,29586,0,"10_Chat.wav",70
Sample,29586,0,"10_shake_w.wav",70
Sample,29689,0,"10_shake_w.wav",70
Sample,29689,0,"10_Chat.wav",70
Sample,29793,0,"10_Chat_w.wav",70
Sample,29793,0,"10_shake.wav",70
Sample,29793,0,"10_BD.wav",70
Sample,29793,0,"tbgm_03a.wav",70
Sample,29896,0,"10_Chat.wav",70
Sample,29896,0,"10_shake_w.wav",70
Sample,30000,0,"10_Chat.wav",70
Sample,30000,0,"10_shake_w.wav",70
Sample,30103,0,"10_shake_w.wav",70
Sample,30206,0,"10_Chat.wav",70
Sample,30206,0,"10_SD2.wav",70
Sample,30206,0,"10_shake.wav",70
Sample,30206,0,"10_BD.wav",70
Sample,30310,0,"10_shake_w.wav",70
Sample,30413,0,"10_shake_w.wav",70
Sample,30413,0,"10_Chat.wav",70
Sample,30517,0,"10_Chat.wav",70
Sample,30517,0,"10_shake_w.wav",70
Sample,30620,0,"10_BD.wav",70
Sample,30620,0,"10_shake.wav",70
Sample,30620,0,"10_Chat_w.wav",70
Sample,30724,0,"10_Chat.wav",70
Sample,30724,0,"10_shake_w.wav",70
Sample,30827,0,"10_Chat.wav",70
Sample,30827,0,"10_shake_w.wav",70
Sample,30931,0,"10_shake_w.wav",70
Sample,31034,0,"10_Chat.wav",70
Sample,31034,0,"10_shake.wav",70
Sample,31034,0,"10_BD.wav",70
Sample,31137,0,"10_shake_w.wav",70
Sample,31241,0,"10_shake_w.wav",70
Sample,31241,0,"10_Chat.wav",70
Sample,31344,0,"10_shake_w.wav",70
Sample,31344,0,"10_Chat.wav",70
Sample,31448,0,"10_Chat_w.wav",70
Sample,31448,0,"10_BD.wav",70
Sample,31448,0,"10_shake.wav",70
Sample,31551,0,"10_shake_w.wav",70
Sample,31551,0,"10_Chat.wav",70
Sample,31655,0,"10_Chat.wav",70
Sample,31655,0,"10_shake_w.wav",70
Sample,31758,0,"10_shake_w.wav",70
Sample,31758,0,"10_Chat_w.wav",70
Sample,31862,0,"10_BD.wav",70
Sample,31862,0,"10_shake.wav",70
Sample,31862,0,"10_Chat.wav",70
Sample,31965,0,"10_shake_w.wav",70
Sample,32068,0,"10_Chat.wav",70
Sample,32068,0,"10_shake_w.wav",70
Sample,32172,0,"10_shake_w.wav",70
Sample,32172,0,"10_Chat.wav",70
Sample,32275,0,"10_Chat_w.wav",70
Sample,32275,0,"10_shake.wav",70
Sample,32275,0,"10_BD.wav",70
Sample,32379,0,"10_shake_w.wav",70
Sample,32379,0,"10_BD.wav",70
Sample,32379,0,"10_Chat.wav",70
Sample,32482,0,"10_Chat.wav",70
Sample,32482,0,"10_shake_w.wav",70
Sample,32586,0,"10_BD.wav",70
Sample,32586,0,"10_Chat_w.wav",70
Sample,32586,0,"10_shake_w.wav",70
Sample,32689,0,"10_Chat.wav",70
Sample,32689,0,"10_BD.wav",70
Sample,32689,0,"10_shake.wav",70
Sample,32793,0,"10_shake_w.wav",70
Sample,32793,0,"10_Chat_w.wav",70
Sample,32896,0,"10_Chat.wav",70
Sample,32896,0,"10_shake_w.wav",70
Sample,32896,0,"10_BD.wav",70
Sample,33000,0,"10_shake_w.wav",70
Sample,33000,0,"10_Chat_w.wav",70
Sample,33103,0,"10_Chat_w.wav",70
Sample,33103,0,"harpsi_1_G#.wav",70
Sample,33103,0,"10_BD.wav",70
Sample,33103,0,"10_shake.wav",70
Sample,33103,0,"tbgm_03.wav",70
Sample,33103,0,"pad3.wav",70
Sample,33103,0,"subvi_A_E)3.wav",70
Sample,33103,0,"piano_in_C#F#G#.wav",70
Sample,33206,0,"pad7.wav",70
Sample,33206,0,"10_Chat.wav",70
Sample,33206,0,"10_shake_w.wav",70
Sample,33206,0,"harpsi_1_F#.wav",70
Sample,33310,0,"harpsi_1_G#.wav",70
Sample,33310,0,"piano_in_C#F#G#.wav",70
Sample,33310,0,"10_Chat.wav",70
Sample,33310,0,"10_shake_w.wav",70
Sample,33413,0,"harpsi_1_C#).wav",70
Sample,33413,0,"10_shake_w.wav",70
Sample,33517,0,"10_shake.wav",70
Sample,33517,0,"10_BD.wav",70
Sample,33517,0,"10_Chat.wav",70
Sample,33517,0,"piano_in_C#F#G#.wav",70
Sample,33517,0,"10_SD2.wav",70
Sample,33517,0,"harpsi_1_G#.wav",70
Sample,33620,0,"10_shake_w.wav",70
Sample,33620,0,"harpsi_1_F#.wav",70
Sample,33724,0,"piano_in_C#EG#.wav",70
Sample,33724,0,"subvi_A_C#)8.wav",70
Sample,33724,0,"10_shake_w.wav",70
Sample,33724,0,"harpsi_1_C#.wav",70
Sample,33724,0,"10_Chat.wav",70
Sample,33827,0,"10_shake_w.wav",70
Sample,33827,0,"harpsi_1_F#.wav",70
Sample,33827,0,"10_Chat.wav",70
Sample,33931,0,"10_shake.wav",70
Sample,33931,0,"subvi_A_F#)3.wav",70
Sample,33931,0,"piano_in_C#EG#.wav",70
Sample,33931,0,"10_BD.wav",70
Sample,33931,0,"10_Chat_w.wav",70
Sample,33931,0,"harpsi_1_G#.wav",70
Sample,34034,0,"10_Chat.wav",70
Sample,34034,0,"harpsi_1_C#).wav",70
Sample,34034,0,"10_shake_w.wav",70
Sample,34137,0,"piano_in_C#EG#.wav",70
Sample,34137,0,"harpsi_1_G#.wav",70
Sample,34137,0,"10_shake_w.wav",70
Sample,34137,0,"10_Chat.wav",70
Sample,34241,0,"10_shake_w.wav",70
Sample,34241,0,"harpsi_1_F#.wav",70
Sample,34344,0,"harpsi_1_C#.wav",70
Sample,34344,0,"10_Chat.wav",70
Sample,34344,0,"10_BD.wav",70
Sample,34344,0,"10_SD2.wav",70
Sample,34344,0,"10_shake.wav",70
Sample,34344,0,"piano_in_C#EG#.wav",70
Sample,34448,0,"harpsi_1_F#.wav",70
Sample,34448,0,"10_shake_w.wav",70
Sample,34551,0,"piano_in_C#EG#.wav",70
Sample,34551,0,"subvi_A_D#)8.wav",70
Sample,34551,0,"10_Chat.wav",70
Sample,34551,0,"10_shake_w.wav",70
Sample,34551,0,"harpsi_1_G#.wav",70
Sample,34655,0,"10_Chat.wav",70
Sample,34655,0,"harpsi_1_C#).wav",70
Sample,34655,0,"10_shake_w.wav",70
Sample,34758,0,"10_BD.wav",70
Sample,34758,0,"harpsi_1_G#.wav",70
Sample,34758,0,"10_shake.wav",70
Sample,34758,0,"piano_in_C#D#G#.wav",70
Sample,34758,0,"10_Chat_w.wav",70
Sample,34758,0,"subvi_A_G#)6.wav",70
Sample,34862,0,"harpsi_1_F#.wav",70
Sample,34862,0,"10_shake_w.wav",70
Sample,34862,0,"10_Chat.wav",70
Sample,34965,0,"piano_in_C#D#G#.wav",70
Sample,34965,0,"10_Chat.wav",70
Sample,34965,0,"harpsi_1_C#.wav",70
Sample,34965,0,"10_shake_w.wav",70
Sample,35068,0,"subvi_A_A)6.wav",70
Sample,35068,0,"harpsi_1_F#.wav",70
Sample,35068,0,"10_shake_w.wav",70
Sample,35172,0,"harpsi_1_G#.wav",70
Sample,35172,0,"10_BD.wav",70
Sample,35172,0,"10_shake.wav",70
Sample,35172,0,"10_Chat.wav",70
Sample,35172,0,"10_SD2.wav",70
Sample,35172,0,"piano_in_C#D#G#.wav",70
Sample,35275,0,"harpsi_1_C#).wav",70
Sample,35275,0,"10_shake_w.wav",70
Sample,35379,0,"10_Chat.wav",70
Sample,35379,0,"subvi_A_B)8.wav",70
Sample,35379,0,"piano_in_C#EG#.wav",70
Sample,35379,0,"harpsi_1_G#.wav",70
Sample,35379,0,"10_shake_w.wav",70
Sample,35482,0,"10_Chat.wav",70
Sample,35482,0,"harpsi_1_F#.wav",70
Sample,35482,0,"10_shake_w.wav",70
Sample,35586,0,"harpsi_1_C#.wav",70
Sample,35586,0,"piano_in_C#EG#.wav",70
Sample,35586,0,"10_shake.wav",70
Sample,35586,0,"10_BD.wav",70
Sample,35586,0,"10_Chat_w.wav",70
Sample,35586,0,"subvi_A_A)6.wav",70
Sample,35689,0,"10_Chat.wav",70
Sample,35689,0,"10_shake_w.wav",70
Sample,35689,0,"harpsi_1_F#.wav",70
Sample,35793,0,"piano_in_C#EG#.wav",70
Sample,35793,0,"harpsi_1_G#.wav",70
Sample,35793,0,"10_Chat.wav",70
Sample,35793,0,"10_shake_w.wav",70
Sample,35896,0,"subvi_A_G#)6.wav",70
Sample,35896,0,"harpsi_1_C#).wav",70
Sample,35896,0,"10_shake_w.wav",70
Sample,36000,0,"harpsi_1_G#.wav",70
Sample,36000,0,"10_Chat.wav",70
Sample,36000,0,"10_shake.wav",70
Sample,36000,0,"10_BD.wav",70
Sample,36000,0,"piano_in_C#EG#.wav",70
Sample,36000,0,"10_SD2.wav",70
Sample,36103,0,"harpsi_1_F#.wav",70
Sample,36103,0,"10_shake_w.wav",70
Sample,36206,0,"subvi_A_F#)8.wav",70
Sample,36206,0,"harpsi_1_C#.wav",70
Sample,36206,0,"piano_in_C#EG#.wav",70
Sample,36206,0,"10_Chat.wav",70
Sample,36206,0,"10_shake_w.wav",70
Sample,36310,0,"10_Chat.wav",70
Sample,36310,0,"harpsi_1_F#.wav",70
Sample,36310,0,"10_shake_w.wav",70
Sample,36413,0,"harpsi_2_G#).wav",70
Sample,36413,0,"10_BD.wav",70
Sample,36413,0,"piano_in_C#F#G#.wav",70
Sample,36413,0,"10_Chat_w.wav",70
Sample,36413,0,"subvi_A_E)6.wav",70
Sample,36413,0,"10_shake.wav",70
Sample,36517,0,"10_Chat.wav",70
Sample,36517,0,"harpsi_2_F#).wav",70
Sample,36517,0,"10_shake_w.wav",70
Sample,36620,0,"10_shake_w.wav",70
Sample,36620,0,"harpsi_2_G#).wav",70
Sample,36620,0,"10_Chat.wav",70
Sample,36620,0,"piano_in_C#F#G#.wav",70
Sample,36724,0,"10_shake_w.wav",70
Sample,36724,0,"subvi_A_C#))3+.wav",70
Sample,36724,0,"harpsi_2_C#)).wav",70
Sample,36827,0,"piano_in_C#F#G#.wav",70
Sample,36827,0,"10_BD.wav",70
Sample,36827,0,"10_SD2.wav",70
Sample,36827,0,"10_Chat.wav",70
Sample,36827,0,"harpsi_2_G#).wav",70
Sample,36827,0,"10_shake.wav",70
Sample,36931,0,"10_shake_w.wav",70
Sample,36931,0,"harpsi_2_F#).wav",70
Sample,37034,0,"10_Chat.wav",70
Sample,37034,0,"harpsi_1_C#).wav",70
Sample,37034,0,"piano_in_C#EG#.wav",70
Sample,37034,0,"10_shake_w.wav",70
Sample,37137,0,"10_Chat.wav",70
Sample,37137,0,"harpsi_2_F#).wav",70
Sample,37137,0,"10_shake_w.wav",70
Sample,37241,0,"harpsi_2_G#).wav",70
Sample,37241,0,"10_BD.wav",70
Sample,37241,0,"piano_in_C#EG#.wav",70
Sample,37241,0,"10_Chat_w.wav",70
Sample,37241,0,"10_shake.wav",70
Sample,37344,0,"harpsi_2_C#)).wav",70
Sample,37344,0,"10_Chat.wav",70
Sample,37344,0,"10_shake_w.wav",70
Sample,37448,0,"piano_in_C#EG#.wav",70
Sample,37448,0,"10_Chat.wav",70
Sample,37448,0,"subvi_A_E))8.wav",70
Sample,37448,0,"harpsi_2_G#).wav",70
Sample,37448,0,"10_shake_w.wav",70
Sample,37551,0,"10_shake_w.wav",70
Sample,37551,0,"harpsi_2_F#).wav",70
Sample,37655,0,"subvi_A_D))8.wav",70
Sample,37655,0,"10_shake.wav",70
Sample,37655,0,"piano_in_C#EG#.wav",70
Sample,37655,0,"10_Chat.wav",70
Sample,37655,0,"harpsi_1_C#).wav",70
Sample,37655,0,"10_SD2.wav",70
Sample,37655,0,"10_BD.wav",70
Sample,37758,0,"10_shake_w.wav",70
Sample,37758,0,"harpsi_2_F#).wav",70
Sample,37862,0,"subvi_A_C#))2+.wav",70
Sample,37862,0,"harpsi_2_G#).wav",70
Sample,37862,0,"10_Chat.wav",70
Sample,37862,0,"piano_in_C#EG#.wav",70
Sample,37862,0,"10_shake_w.wav",70
Sample,37965,0,"harpsi_2_C#)).wav",70
Sample,37965,0,"10_Chat.wav",70
Sample,37965,0,"10_shake_w.wav",70
Sample,38068,0,"harpsi_2_G#).wav",70
Sample,38068,0,"10_Chat_w.wav",70
Sample,38068,0,"10_BD.wav",70
Sample,38068,0,"10_shake.wav",70
Sample,38068,0,"piano_in_C#D#G#.wav",70
Sample,38172,0,"harpsi_2_F#).wav",70
Sample,38172,0,"10_shake_w.wav",70
Sample,38172,0,"10_Chat.wav",70
Sample,38275,0,"piano_in_C#D#G#.wav",70
Sample,38275,0,"10_Chat.wav",70
Sample,38275,0,"harpsi_1_C#).wav",70
Sample,38275,0,"10_shake_w.wav",70
Sample,38379,0,"harpsi_2_F#).wav",70
Sample,38379,0,"10_shake_w.wav",70
Sample,38482,0,"10_SD2.wav",70
Sample,38482,0,"piano_in_C#D#G#.wav",70
Sample,38482,0,"10_shake.wav",70
Sample,38482,0,"10_Chat.wav",70
Sample,38482,0,"harpsi_2_G#).wav",70
Sample,38482,0,"10_BD.wav",70
Sample,38586,0,"harpsi_2_C#)).wav",70
Sample,38586,0,"10_shake_w.wav",70
Sample,38689,0,"harpsi_2_G#).wav",70
Sample,38689,0,"10_Chat.wav",70
Sample,38689,0,"piano_in_C#EG#.wav",70
Sample,38689,0,"10_shake_w.wav",70
Sample,38793,0,"harpsi_2_F#).wav",70
Sample,38793,0,"10_Chat.wav",70
Sample,38793,0,"10_shake_w.wav",70
Sample,38896,0,"piano_in_C#EG#.wav",70
Sample,38896,0,"subvi_A_C#))8.wav",70
Sample,38896,0,"10_shake.wav",70
Sample,38896,0,"10_Chat_w.wav",70
Sample,38896,0,"10_BD.wav",70
Sample,38896,0,"harpsi_1_C#).wav",70
Sample,39000,0,"10_SD2.wav",70
Sample,39000,0,"harpsi_2_F#).wav",70
Sample,39000,0,"10_Chat.wav",70
Sample,39000,0,"10_shake_w.wav",70
Sample,39103,0,"10_Chat.wav",70
Sample,39103,0,"harpsi_2_G#).wav",70
Sample,39103,0,"subvi_A_B)8.wav",70
Sample,39103,0,"piano_in_C#EG#.wav",70
Sample,39103,0,"10_shake_w.wav",70
Sample,39206,0,"harpsi_2_C#)).wav",70
Sample,39206,0,"10_shake_w.wav",70
Sample,39310,0,"subvi_A_A)4.wav",70
Sample,39310,0,"10_BD.wav",70
Sample,39310,0,"10_shake.wav",70
Sample,39310,0,"harpsi_2_G#).wav",70
Sample,39310,0,"piano_in_C#EG#.wav",70
Sample,39310,0,"10_Chat.wav",70
Sample,39413,0,"harpsi_2_F#).wav",70
Sample,39413,0,"10_shake_w.wav",70
Sample,39517,0,"10_BD.wav",70
Sample,39517,0,"piano_in_C#EG#.wav",70
Sample,39517,0,"10_shake_w.wav",70
Sample,39517,0,"10_Chat.wav",70
Sample,39517,0,"10_SD2.wav",70
Sample,39517,0,"harpsi_1_C#).wav",70
Sample,39620,0,"10_Chat.wav",70
Sample,39620,0,"harpsi_2_F#).wav",70
Sample,39620,0,"10_shake_w.wav",70
Sample,39724,0,"subvi_A_B)3.wav",70
Sample,39724,0,"pad6.wav",70
Sample,39724,0,"10_shake.wav",70
Sample,39724,0,"10_Chat_w.wav",70
Sample,39724,0,"piano_in_D#F#B.wav",70
Sample,39724,0,"harpsi_1_F#.wav",70
Sample,39724,0,"10_BD.wav",70
Sample,39827,0,"harpsi_3_D#.wav",70
Sample,39827,0,"10_shake_w.wav",70
Sample,39827,0,"10_Chat.wav",70
Sample,39931,0,"harpsi_1_F#.wav",70
Sample,39931,0,"10_shake_w.wav",70
Sample,39931,0,"piano_in_D#F#B.wav",70
Sample,39931,0,"10_Chat.wav",70
Sample,40034,0,"10_shake_w.wav",70
Sample,40034,0,"harpsi_3_B.wav",70
Sample,40137,0,"10_Chat.wav",70
Sample,40137,0,"harpsi_1_F#.wav",70
Sample,40137,0,"10_BD.wav",70
Sample,40137,0,"10_shake.wav",70
Sample,40137,0,"10_SD2.wav",70
Sample,40137,0,"piano_in_D#F#B.wav",70
Sample,40241,0,"10_shake_w.wav",70
Sample,40241,0,"harpsi_3_D#.wav",70
Sample,40344,0,"subvi_A_G#)8.wav",70
Sample,40344,0,"harpsi_3_B(.wav",70
Sample,40344,0,"piano_in_D#F#B.wav",70
Sample,40344,0,"10_shake_w.wav",70
Sample,40344,0,"10_Chat.wav",70
Sample,40448,0,"10_Chat.wav",70
Sample,40448,0,"harpsi_3_D#.wav",70
Sample,40448,0,"10_shake_w.wav",70
Sample,40551,0,"piano_in_D#F#B.wav",70
Sample,40551,0,"subvi_A_F#)3.wav",70
Sample,40551,0,"10_BD.wav",70
Sample,40551,0,"10_Chat_w.wav",70
Sample,40551,0,"harpsi_1_F#.wav",70
Sample,40551,0,"10_shake.wav",70
Sample,40655,0,"10_shake_w.wav",70
Sample,40655,0,"10_Chat.wav",70
Sample,40655,0,"harpsi_3_B.wav",70
Sample,40758,0,"10_Chat.wav",70
Sample,40758,0,"piano_in_D#F#B.wav",70
Sample,40758,0,"10_shake_w.wav",70
Sample,40758,0,"harpsi_1_F#.wav",70
Sample,40862,0,"10_shake_w.wav",70
Sample,40862,0,"harpsi_3_D#.wav",70
Sample,40965,0,"harpsi_3_B(.wav",70
Sample,40965,0,"10_Chat.wav",70
Sample,40965,0,"piano_in_D#F#B.wav",70
Sample,40965,0,"10_BD.wav",70
Sample,40965,0,"10_shake.wav",70
Sample,40965,0,"10_SD2.wav",70
Sample,41068,0,"harpsi_3_D#.wav",70
Sample,41068,0,"10_shake_w.wav",70
Sample,41172,0,"10_Chat.wav",70
Sample,41172,0,"harpsi_1_F#.wav",70
Sample,41172,0,"piano_in_D#F#B.wav",70
Sample,41172,0,"subvi_A_F#)16.wav",70
Sample,41172,0,"10_shake_w.wav",70
Sample,41275,0,"10_Chat.wav",70
Sample,41275,0,"harpsi_3_B.wav",70
Sample,41275,0,"subvi_A_G#)16.wav",70
Sample,41275,0,"10_shake_w.wav",70
Sample,41379,0,"10_BD.wav",70
Sample,41379,0,"harpsi_1_F#.wav",70
Sample,41379,0,"10_shake.wav",70
Sample,41379,0,"piano_in_C#EA.wav",70
Sample,41379,0,"10_Chat_w.wav",70
Sample,41379,0,"subvi_A_A)6.wav",70
Sample,41482,0,"10_Chat.wav",70
Sample,41482,0,"10_shake_w.wav",70
Sample,41482,0,"harpsi_3_D#.wav",70
Sample,41586,0,"piano_in_C#EA.wav",70
Sample,41586,0,"harpsi_3_B(.wav",70
Sample,41586,0,"10_Chat.wav",70
Sample,41586,0,"10_shake_w.wav",70
Sample,41689,0,"harpsi_3_D#.wav",70
Sample,41689,0,"subvi_A_G#)6.wav",70
Sample,41689,0,"10_shake_w.wav",70
Sample,41793,0,"piano_in_C#EA.wav",70
Sample,41793,0,"10_Chat.wav",70
Sample,41793,0,"10_shake.wav",70
Sample,41793,0,"harpsi_1_F#.wav",70
Sample,41793,0,"10_BD.wav",70
Sample,41793,0,"10_SD2.wav",70
Sample,41896,0,"harpsi_3_B.wav",70
Sample,41896,0,"10_shake_w.wav",70
Sample,42000,0,"subvi_A_E)8.wav",70
Sample,42000,0,"harpsi_1_F#.wav",70
Sample,42000,0,"piano_in_C#EA.wav",70
Sample,42000,0,"10_Chat.wav",70
Sample,42000,0,"10_shake_w.wav",70
Sample,42103,0,"harpsi_3_D#.wav",70
Sample,42103,0,"10_Chat.wav",70
Sample,42103,0,"10_shake_w.wav",70
Sample,42206,0,"10_BD.wav",70
Sample,42206,0,"subvi_A_F#)6.wav",70
Sample,42206,0,"10_shake.wav",70
Sample,42206,0,"10_Chat_w.wav",70
Sample,42206,0,"harpsi_3_B(.wav",70
Sample,42206,0,"piano_in_D#F#B.wav",70
Sample,42310,0,"harpsi_3_D#.wav",70
Sample,42310,0,"10_shake_w.wav",70
Sample,42310,0,"10_Chat.wav",70
Sample,42413,0,"10_Chat.wav",70
Sample,42413,0,"piano_in_D#F#B.wav",70
Sample,42413,0,"harpsi_1_F#.wav",70
Sample,42413,0,"10_shake_w.wav",70
Sample,42517,0,"harpsi_3_B.wav",70
Sample,42517,0,"subvi_A_D#)6.wav",70
Sample,42517,0,"10_shake_w.wav",70
Sample,42620,0,"10_shake.wav",70
Sample,42620,0,"10_Chat.wav",70
Sample,42620,0,"10_BD.wav",70
Sample,42620,0,"piano_in_D#F#B.wav",70
Sample,42620,0,"pad6.wav",70
Sample,42620,0,"harpsi_1_F#.wav",70
Sample,42620,0,"10_SD2.wav",70
Sample,42724,0,"harpsi_3_D#.wav",70
Sample,42724,0,"10_shake_w.wav",70
Sample,42827,0,"10_Chat.wav",70
Sample,42827,0,"piano_in_D#F#B.wav",70
Sample,42827,0,"harpsi_3_B(.wav",70
Sample,42827,0,"10_shake_w.wav",70
Sample,42827,0,"subvi_A_F#)8.wav",70
Sample,42931,0,"10_Chat.wav",70
Sample,42931,0,"10_shake_w.wav",70
Sample,42931,0,"harpsi_3_D#.wav",70
Sample,43034,0,"10_BD.wav",70
Sample,43034,0,"10_Chat_w.wav",70
Sample,43034,0,"tbgm_03b.wav",70
Sample,43034,0,"10_shake.wav",70
Sample,43034,0,"harpsi_1_G#.wav",70
Sample,43034,0,"subvi_A_F#)3.wav",70
Sample,43034,0,"piano_in_C#F#G#.wav",70
Sample,43137,0,"10_Chat.wav",70
Sample,43137,0,"harpsi_1_F#.wav",70
Sample,43137,0,"10_shake_w.wav",70
Sample,43241,0,"10_Chat.wav",70
Sample,43241,0,"10_shake_w.wav",70
Sample,43241,0,"piano_in_C#F#G#.wav",70
Sample,43241,0,"harpsi_1_G#.wav",70
Sample,43344,0,"harpsi_1_C#).wav",70
Sample,43344,0,"10_shake_w.wav",70
Sample,43448,0,"harpsi_1_G#.wav",70
Sample,43448,0,"10_SD2.wav",70
Sample,43448,0,"10_Chat.wav",70
Sample,43448,0,"10_shake.wav",70
Sample,43448,0,"10_BD.wav",70
Sample,43448,0,"piano_in_C#F#G#.wav",70
Sample,43551,0,"harpsi_1_F#.wav",70
Sample,43551,0,"10_shake_w.wav",70
Sample,43655,0,"10_Chat.wav",70
Sample,43655,0,"subvi_A_G#)8.wav",70
Sample,43655,0,"harpsi_1_C#.wav",70
Sample,43655,0,"10_shake_w.wav",70
Sample,43655,0,"piano_in_C#EG#.wav",70
Sample,43758,0,"10_shake_w.wav",70
Sample,43758,0,"harpsi_1_F#.wav",70
Sample,43758,0,"10_Chat.wav",70
Sample,43862,0,"piano_in_C#EG#.wav",70
Sample,43862,0,"harpsi_1_G#.wav",70
Sample,43862,0,"10_shake.wav",70
Sample,43862,0,"10_Chat_w.wav",70
Sample,43862,0,"10_BD.wav",70
Sample,43862,0,"subvi_A_G#)2.wav",70
Sample,43965,0,"harpsi_1_C#).wav",70
Sample,43965,0,"10_shake_w.wav",70
Sample,43965,0,"10_Chat.wav",70
Sample,44068,0,"piano_in_C#EG#.wav",70
Sample,44068,0,"harpsi_1_G#.wav",70
Sample,44068,0,"10_shake_w.wav",70
Sample,44068,0,"10_Chat.wav",70
Sample,44172,0,"harpsi_1_F#.wav",70
Sample,44172,0,"10_shake_w.wav",70
Sample,44275,0,"harpsi_1_C#.wav",70
Sample,44275,0,"10_SD2.wav",70
Sample,44275,0,"10_shake.wav",70
Sample,44275,0,"10_BD.wav",70
Sample,44275,0,"10_Chat.wav",70
Sample,44275,0,"piano_in_C#EG#.wav",70
Sample,44379,0,"harpsi_1_F#.wav",70
Sample,44379,0,"10_shake_w.wav",70
Sample,44482,0,"10_shake_w.wav",70
Sample,44482,0,"10_Chat.wav",70
Sample,44482,0,"harpsi_1_G#.wav",70
Sample,44482,0,"10_SD2.wav",70
Sample,44482,0,"piano_in_C#EG#.wav",70
Sample,44482,0,"pad7.wav",70
Sample,44586,0,"10_Chat.wav",70
Sample,44586,0,"harpsi_1_C#).wav",70
Sample,44586,0,"10_SD3.wav",70
Sample,44586,0,"10_shake_w.wav",70
Sample,44689,0,"10_BD.wav",70
Sample,44689,0,"piano_in_C#F#G#.wav",70
Sample,44689,0,"harpsi_1_G#.wav",70
Sample,44689,0,"10_shake.wav",70
Sample,44689,0,"10_Chat_w.wav",70
Sample,44793,0,"10_shake_w.wav",70
Sample,44793,0,"10_Chat.wav",70
Sample,44793,0,"harpsi_1_F#.wav",70
Sample,44896,0,"10_SD2.wav",70
Sample,44896,0,"10_Chat.wav",70
Sample,44896,0,"piano_in_C#F#G#.wav",70
Sample,44896,0,"10_shake_w.wav",70
Sample,44896,0,"harpsi_1_C#.wav",70
Sample,45000,0,"10_shake_w.wav",70
Sample,45000,0,"harpsi_1_F#.wav",70
Sample,45000,0,"10_Chat_w.wav",70
Sample,45103,0,"10_BD.wav",70
Sample,45103,0,"harpsi_1_G#.wav",70
Sample,45103,0,"piano_in_C#F#G#.wav",70
Sample,45103,0,"10_shake.wav",70
Sample,45103,0,"10_Chat.wav",70
Sample,45206,0,"10_shake_w.wav",70
Sample,45206,0,"harpsi_1_C#).wav",70
Sample,45310,0,"10_SD2.wav",70
Sample,45310,0,"piano_in_C#EG#.wav",70
Sample,45310,0,"10_Chat.wav",70
Sample,45310,0,"harpsi_1_G#.wav",70
Sample,45310,0,"10_shake_w.wav",70
Sample,45413,0,"harpsi_1_F#.wav",70
Sample,45413,0,"10_Chat.wav",70
Sample,45413,0,"10_shake_w.wav",70
Sample,45517,0,"10_BD.wav",70
Sample,45517,0,"piano_in_C#EG#.wav",70
Sample,45517,0,"harpsi_1_C#.wav",70
Sample,45517,0,"10_Chat_w.wav",70
Sample,45517,0,"10_shake.wav",70
Sample,45517,0,"shaku_bgms.wav",70
Sample,45620,0,"10_BD.wav",70
Sample,45620,0,"10_shake_w.wav",70
Sample,45620,0,"10_SD2.wav",70
Sample,45620,0,"10_Chat.wav",70
Sample,45620,0,"harpsi_1_F#.wav",70
Sample,45724,0,"harpsi_1_G#.wav",70
Sample,45724,0,"10_SD2.wav",70
Sample,45724,0,"piano_in_C#EG#.wav",70
Sample,45724,0,"10_shake_w.wav",70
Sample,45724,0,"10_Chat.wav",70
Sample,45827,0,"harpsi_1_C#).wav",70
Sample,45827,0,"10_shake_w.wav",70
Sample,45827,0,"10_SD1.wav",70
Sample,45827,0,"10_BD.wav",70
Sample,45827,0,"10_Chat_w.wav",70
Sample,45931,0,"10_SD2.wav",70
Sample,45931,0,"harpsi_1_G#.wav",70
Sample,45931,0,"10_BD.wav",70
Sample,45931,0,"10_shake.wav",70
Sample,45931,0,"10_Chat.wav",70
Sample,45931,0,"piano_in_C#EG#.wav",70
Sample,46034,0,"10_shake_w.wav",70
Sample,46034,0,"10_Chat_w.wav",70
Sample,46034,0,"10_SD1.wav",70
Sample,46034,0,"harpsi_1_F#.wav",70
Sample,46137,0,"10_BD.wav",70
Sample,46137,0,"harpsi_1_C#.wav",70
Sample,46137,0,"piano_in_C#EG#.wav",70
Sample,46137,0,"10_Chat.wav",70
Sample,46137,0,"10_SD3.wav",70
Sample,46137,0,"10_shake_w.wav",70
Sample,46241,0,"harpsi_1_F#.wav",70
Sample,46241,0,"10_SD3.wav",70
Sample,46241,0,"10_Chat_w.wav",70
Sample,46241,0,"10_shake_w.wav",70
Sample,46344,0,"tbgm_04.wav",70
Sample,46344,0,"10_shake.wav",70
Sample,46448,0,"10_shake_w.wav",70
Sample,46551,0,"10_shake_w.wav",70
Sample,46655,0,"10_shake_w.wav",70
Sample,46758,0,"10_shake.wav",70
Sample,46862,0,"10_shake_w.wav",70
Sample,46965,0,"10_shake_w.wav",70
Sample,47068,0,"10_shake_w.wav",70
Sample,47172,0,"10_shake.wav",70
Sample,47275,0,"10_shake_w.wav",70
Sample,47379,0,"10_shake_w.wav",70
Sample,47482,0,"10_shake_w.wav",70
Sample,47586,0,"10_shake.wav",70
Sample,47689,0,"10_shake_w.wav",70
Sample,47793,0,"10_shakeHat.wav",70
Sample,47793,0,"10_shake_w.wav",70
Sample,47793,0,"10_BD.wav",70
Sample,47896,0,"10_shake_w.wav",70
Sample,48000,0,"10_shake.wav",70
Sample,48103,0,"10_shake_w.wav",70
Sample,48206,0,"10_shake_w.wav",70
Sample,48310,0,"10_shake_w.wav",70
Sample,48413,0,"10_shake.wav",70
Sample,48517,0,"10_shake_w.wav",70
Sample,48620,0,"10_shake_w.wav",70
Sample,48724,0,"10_shake_w.wav",70
Sample,48827,0,"10_shake.wav",70
Sample,48931,0,"10_shake_w.wav",70
Sample,49034,0,"10_shake_w.wav",70
Sample,49137,0,"10_shake_w.wav",70
Sample,49241,0,"10_shake.wav",70
Sample,49344,0,"10_shake_w.wav",70
Sample,49448,0,"10_shakeHat.wav",70
Sample,49448,0,"10_BD.wav",70
Sample,49448,0,"10_shake_w.wav",70
Sample,49551,0,"10_shake_w.wav",70
Sample,49655,0,"10_shake.wav",70
Sample,49758,0,"10_shake_w.wav",70
Sample,49862,0,"10_shake_w.wav",70
Sample,49965,0,"10_shake_w.wav",70
Sample,50068,0,"10_shake.wav",70
Sample,50172,0,"10_shake_w.wav",70
Sample,50275,0,"10_shake_w.wav",70
Sample,50379,0,"10_shake_w.wav",70
Sample,50482,0,"10_shake.wav",70
Sample,50586,0,"10_shake_w.wav",70
Sample,50689,0,"10_shake_w.wav",70
Sample,50793,0,"10_shake_w.wav",70
Sample,50896,0,"10_shake.wav",70
Sample,51000,0,"10_shake_w.wav",70
Sample,51103,0,"10_shakeHat.wav",70
Sample,51103,0,"10_BD.wav",70
Sample,51103,0,"10_shake_w.wav",70
Sample,51206,0,"10_shake_w.wav",70
Sample,51310,0,"10_shake.wav",70
Sample,51413,0,"10_shake_w.wav",70
Sample,51517,0,"10_shake_w.wav",70
Sample,51620,0,"10_shake_w.wav",70
Sample,51724,0,"10_shake.wav",70
Sample,51827,0,"10_shake_w.wav",70
Sample,51931,0,"10_shake_w.wav",70
Sample,52034,0,"10_shake_w.wav",70
Sample,52137,0,"pianomelo_A_C#)8.wav",70
Sample,52137,0,"10_shake.wav",70
Sample,52241,0,"10_shake_w.wav",70
Sample,52344,0,"pianomelo_A_D#)8.wav",70
Sample,52344,0,"10_shake_w.wav",70
Sample,52448,0,"10_shake_w.wav",70
Sample,52551,0,"pianomelo_A_E)8.wav",70
Sample,52551,0,"10_shake.wav",70
Sample,52655,0,"10_shake_w.wav",70
Sample,52758,0,"pianomelo_A_G#)8.wav",70
Sample,52758,0,"10_shake_w.wav",70
Sample,52862,0,"10_shake_w.wav",70
Sample,52965,0,"10_shake.wav",70
Sample,53068,0,"10_shake_w.wav",70
Sample,53172,0,"10_shake_w.wav",70
Sample,53275,0,"10_shake_w.wav",70
Sample,53379,0,"10_shake.wav",70
Sample,53482,0,"10_shake_w.wav",70
Sample,53586,0,"10_shake_w.wav",70
Sample,53689,0,"10_shake_w.wav",70
Sample,53793,0,"10_shake.wav",70
Sample,53896,0,"10_shake_w.wav",70
Sample,54000,0,"10_shake_w.wav",70
Sample,54103,0,"10_shake_w.wav",70
Sample,54206,0,"10_shake.wav",70
Sample,54310,0,"10_shake_w.wav",70
Sample,54413,0,"10_shake_w.wav",70
Sample,54413,0,"10_BD.wav",70
Sample,54517,0,"10_shake_w.wav",70
Sample,54620,0,"10_shake.wav",70
Sample,54724,0,"10_shake_w.wav",70
Sample,54827,0,"10_shake_w.wav",70
Sample,54931,0,"10_shake_w.wav",70
Sample,55034,0,"10_shake.wav",70
Sample,55137,0,"10_shake_w.wav",70
Sample,55241,0,"10_shake_w.wav",70
Sample,55344,0,"10_shake_w.wav",70
Sample,55448,0,"10_shake.wav",70
Sample,55551,0,"10_shake_w.wav",70
Sample,55655,0,"10_shake_w.wav",70
Sample,55758,0,"10_shake_w.wav",70
Sample,55862,0,"10_shake.wav",70
Sample,55965,0,"10_shake_w.wav",70
Sample,56068,0,"10_BD.wav",70
Sample,56068,0,"10_shake_w.wav",70
Sample,56172,0,"10_shake_w.wav",70
Sample,56275,0,"pianomelo_A_C#))2+.wav",70
Sample,56275,0,"10_shake.wav",70
Sample,56482,0,"10_shakeHat.wav",70
Sample,56793,0,"10_shakeHat.wav",70
Sample,57103,0,"10_shakeHat.wav",70
Sample,57310,0,"pianomelo_A_C))8.wav",70
Sample,57413,0,"10_shakeHat.wav",70
Sample,57517,0,"pianomelo_A_C#))8.wav",70
Sample,57724,0,"10_shakeHat.wav",70
Sample,57724,0,"pianomelo_A_D#))1.wav",70
Sample,58862,0,"10_SD2.wav",70
Sample,58965,0,"bgmhighstr_01.wav",70
Sample,59172,0,"10_cym1.wav",70
Sample,59172,0,"10_SD3.wav",70
Sample,59379,0,"10_cym2.wav",70
Sample,59379,0,"10_SD3.wav",70
Sample,59482,0,"10_SD3.wav",70
Sample,59586,0,"10_shake.wav",70
Sample,59586,0,"piano_3_A#D#G#.wav",70
Sample,59586,0,"tbgm_05a.wav",70
Sample,59586,0,"10_BD.wav",70
Sample,59586,0,"10_shakeHat.wav",70
Sample,59586,0,"10_Chat_w.wav",70
Sample,59689,0,"10_shake_w.wav",70
Sample,59793,0,"10_shake.wav",70
Sample,59793,0,"piano_3_A#D#G#.wav",70
Sample,59793,0,"10_Ohat.wav",70
Sample,59896,0,"10_shake_w.wav",70
Sample,60000,0,"10_BD.wav",70
Sample,60000,0,"10_shake.wav",70
Sample,60000,0,"10_SD2.wav",70
Sample,60000,0,"piano_3_A#D#G#.wav",70
Sample,60000,0,"10_Chat_w.wav",70
Sample,60000,0,"10_shakeHat.wav",70
Sample,60103,0,"10_shake_w.wav",70
Sample,60206,0,"10_shake.wav",70
Sample,60206,0,"10_Ohat.wav",70
Sample,60206,0,"piano_3_A#D#F#.wav",70
Sample,60310,0,"10_shake_w.wav",70
Sample,60413,0,"10_shakeHat.wav",70
Sample,60413,0,"10_BD.wav",70
Sample,60413,0,"10_shake.wav",70
Sample,60413,0,"piano_3_A#D#F#.wav",70
Sample,60413,0,"10_Chat_w.wav",70
Sample,60517,0,"10_shake_w.wav",70
Sample,60620,0,"10_Ohat.wav",70
Sample,60620,0,"piano_3_A#D#F#.wav",70
Sample,60620,0,"10_shake.wav",70
Sample,60724,0,"10_shake_w.wav",70
Sample,60827,0,"10_SD2.wav",70
Sample,60827,0,"10_shake.wav",70
Sample,60827,0,"10_BD.wav",70
Sample,60827,0,"10_shakeHat.wav",70
Sample,60827,0,"piano_3_A#D#F#.wav",70
Sample,60827,0,"10_Chat_w.wav",70
Sample,60931,0,"10_shake_w.wav",70
Sample,61034,0,"10_Ohat.wav",70
Sample,61034,0,"piano_3_A#D#F#.wav",70
Sample,61034,0,"10_shake.wav",70
Sample,61137,0,"10_shake_w.wav",70
Sample,61241,0,"10_shake.wav",70
Sample,61241,0,"piano_3_A#D#F.wav",70
Sample,61241,0,"10_Chat_w.wav",70
Sample,61241,0,"10_BD.wav",70
Sample,61241,0,"10_shakeHat.wav",70
Sample,61344,0,"10_shake_w.wav",70
Sample,61448,0,"10_Ohat.wav",70
Sample,61448,0,"piano_3_A#D#F.wav",70
Sample,61448,0,"10_shake.wav",70
Sample,61551,0,"10_shake_w.wav",70
Sample,61655,0,"piano_3_A#D#F.wav",70
Sample,61655,0,"10_SD2.wav",70
Sample,61655,0,"10_shakeHat.wav",70
Sample,61655,0,"10_Chat_w.wav",70
Sample,61655,0,"10_shake.wav",70
Sample,61655,0,"10_BD.wav",70
Sample,61758,0,"10_shake_w.wav",70
Sample,61862,0,"10_Ohat.wav",70
Sample,61862,0,"10_shake.wav",70
Sample,61862,0,"piano_3_A#D#F#.wav",70
Sample,61965,0,"10_shake_w.wav",70
Sample,62068,0,"10_Chat_w.wav",70
Sample,62068,0,"piano_3_A#D#F#.wav",70
Sample,62068,0,"10_shake.wav",70
Sample,62068,0,"10_shakeHat.wav",70
Sample,62068,0,"10_BD.wav",70
Sample,62172,0,"10_shake_w.wav",70
Sample,62275,0,"10_Ohat.wav",70
Sample,62275,0,"10_shake.wav",70
Sample,62275,0,"piano_3_A#D#F#.wav",70
Sample,62379,0,"10_shake_w.wav",70
Sample,62482,0,"10_shake.wav",70
Sample,62482,0,"10_SD2.wav",70
Sample,62482,0,"10_shakeHat.wav",70
Sample,62482,0,"piano_3_A#D#F#.wav",70
Sample,62482,0,"10_BD.wav",70
Sample,62482,0,"10_Chat_w.wav",70
Sample,62586,0,"10_shake_w.wav",70
Sample,62689,0,"10_Ohat.wav",70
Sample,62689,0,"10_shake.wav",70
Sample,62689,0,"piano_3_A#D#F#.wav",70
Sample,62793,0,"10_shake_w.wav",70
Sample,62896,0,"10_shake.wav",70
Sample,62896,0,"piano_3_A#D#G#.wav",70
Sample,62896,0,"10_Chat_w.wav",70
Sample,62896,0,"10_BD.wav",70
Sample,62896,0,"10_shakeHat.wav",70
Sample,63000,0,"10_shake_w.wav",70
Sample,63103,0,"10_Ohat.wav",70
Sample,63103,0,"piano_3_A#D#G#.wav",70
Sample,63103,0,"10_shake.wav",70
Sample,63206,0,"10_shake_w.wav",70
Sample,63310,0,"piano_3_A#D#G#.wav",70
Sample,63310,0,"10_SD2.wav",70
Sample,63310,0,"10_shakeHat.wav",70
Sample,63310,0,"10_Chat_w.wav",70
Sample,63310,0,"10_shake.wav",70
Sample,63310,0,"10_BD.wav",70
Sample,63413,0,"10_shake_w.wav",70
Sample,63517,0,"10_Ohat.wav",70
Sample,63517,0,"10_shake.wav",70
Sample,63517,0,"piano_3_A#D#F#.wav",70
Sample,63620,0,"10_shake_w.wav",70
Sample,63724,0,"10_Chat_w.wav",70
Sample,63724,0,"piano_3_A#D#F#.wav",70
Sample,63724,0,"10_shake.wav",70
Sample,63724,0,"10_shakeHat.wav",70
Sample,63724,0,"10_BD.wav",70
Sample,63827,0,"10_shake_w.wav",70
Sample,63931,0,"10_Ohat.wav",70
Sample,63931,0,"10_shake.wav",70
Sample,63931,0,"piano_3_A#D#F#.wav",70
Sample,64034,0,"10_shake_w.wav",70
Sample,64137,0,"10_shake.wav",70
Sample,64137,0,"10_Chat_w.wav",70
Sample,64137,0,"10_shakeHat.wav",70
Sample,64137,0,"10_BD.wav",70
Sample,64137,0,"10_SD2.wav",70
Sample,64137,0,"piano_3_A#D#F#.wav",70
Sample,64241,0,"10_shake_w.wav",70
Sample,64344,0,"10_Ohat.wav",70
Sample,64344,0,"10_shake.wav",70
Sample,64344,0,"piano_3_A#D#F#.wav",70
Sample,64448,0,"10_shake_w.wav",70
Sample,64551,0,"10_BD.wav",70
Sample,64551,0,"10_shake.wav",70
Sample,64551,0,"10_Chat_w.wav",70
Sample,64551,0,"10_shakeHat.wav",70
Sample,64551,0,"piano_3_A#D#F.wav",70
Sample,64655,0,"10_shake_w.wav",70
Sample,64758,0,"10_shake.wav",70
Sample,64758,0,"10_Ohat.wav",70
Sample,64758,0,"piano_3_A#D#F.wav",70
Sample,64862,0,"10_shake_w.wav",70
Sample,64965,0,"10_SD2.wav",70
Sample,64965,0,"10_BD.wav",70
Sample,64965,0,"piano_3_A#D#F.wav",70
Sample,64965,0,"10_shake.wav",70
Sample,64965,0,"10_Chat_w.wav",70
Sample,64965,0,"10_shakeHat.wav",70
Sample,65068,0,"10_shake_w.wav",70
Sample,65172,0,"piano_3_A#D#F#.wav",70
Sample,65172,0,"10_Ohat.wav",70
Sample,65172,0,"10_shake.wav",70
Sample,65275,0,"10_shake_w.wav",70
Sample,65379,0,"10_shake.wav",70
Sample,65379,0,"10_BD.wav",70
Sample,65379,0,"10_Chat_w.wav",70
Sample,65379,0,"piano_3_A#D#F#.wav",70
Sample,65379,0,"10_shakeHat.wav",70
Sample,65482,0,"10_SD2.wav",70
Sample,65482,0,"10_shake_w.wav",70
Sample,65586,0,"10_Ohat.wav",70
Sample,65586,0,"10_shake.wav",70
Sample,65586,0,"piano_3_A#D#F#.wav",70
Sample,65689,0,"10_shake_w.wav",70
Sample,65793,0,"10_BD.wav",70
Sample,65793,0,"piano_3_A#D#F#.wav",70
Sample,65793,0,"10_Chat_w.wav",70
Sample,65793,0,"10_shake.wav",70
Sample,65793,0,"10_shakeHat.wav",70
Sample,65896,0,"10_shake_w.wav",70
Sample,66000,0,"10_shake.wav",70
Sample,66000,0,"10_Ohat.wav",70
Sample,66000,0,"piano_3_A#D#F#.wav",70
Sample,66000,0,"10_SD2.wav",70
Sample,66103,0,"10_shake_w.wav",70
Sample,66206,0,"10_shake.wav",70
Sample,66206,0,"piano_3_G#C#F#.wav",70
Sample,66206,0,"10_Chat_w.wav",70
Sample,66206,0,"10_BD.wav",70
Sample,66206,0,"10_shakeHat.wav",70
Sample,66310,0,"10_shake_w.wav",70
Sample,66413,0,"piano_3_G#C#F#.wav",70
Sample,66413,0,"10_Ohat.wav",70
Sample,66413,0,"10_shake.wav",70
Sample,66517,0,"10_shake_w.wav",70
Sample,66620,0,"piano_3_G#C#F#.wav",70
Sample,66620,0,"10_Chat_w.wav",70
Sample,66620,0,"10_BD.wav",70
Sample,66620,0,"10_SD2.wav",70
Sample,66620,0,"10_shake.wav",70
Sample,66620,0,"10_shakeHat.wav",70
Sample,66724,0,"10_shake_w.wav",70
Sample,66827,0,"10_Ohat.wav",70
Sample,66827,0,"piano_3_G#C#F.wav",70
Sample,66827,0,"10_shake.wav",70
Sample,66931,0,"10_shake_w.wav",70
Sample,67034,0,"10_Chat_w.wav",70
Sample,67034,0,"10_BD.wav",70
Sample,67034,0,"10_shake.wav",70
Sample,67034,0,"10_shakeHat.wav",70
Sample,67034,0,"piano_3_G#C#F.wav",70
Sample,67137,0,"10_shake_w.wav",70
Sample,67241,0,"10_Ohat.wav",70
Sample,67241,0,"10_shake.wav",70
Sample,67241,0,"piano_3_G#C#F.wav",70
Sample,67344,0,"10_shake_w.wav",70
Sample,67448,0,"piano_3_G#C#F.wav",70
Sample,67448,0,"10_SD2.wav",70
Sample,67448,0,"10_shake.wav",70
Sample,67448,0,"10_Chat_w.wav",70
Sample,67448,0,"10_BD.wav",70
Sample,67448,0,"10_shakeHat.wav",70
Sample,67551,0,"10_shake_w.wav",70
Sample,67655,0,"10_shake.wav",70
Sample,67655,0,"10_Ohat.wav",70
Sample,67655,0,"piano_3_G#C#F.wav",70
Sample,67758,0,"10_shake_w.wav",70
Sample,67862,0,"10_shake.wav",70
Sample,67862,0,"piano_3_G#C#D#.wav",70
Sample,67862,0,"10_Chat_w.wav",70
Sample,67862,0,"10_BD.wav",70
Sample,67862,0,"10_shakeHat.wav",70
Sample,67965,0,"10_shake_w.wav",70
Sample,68068,0,"10_Ohat.wav",70
Sample,68068,0,"piano_3_G#C#D#.wav",70
Sample,68068,0,"10_shake.wav",70
Sample,68172,0,"10_shake_w.wav",70
Sample,68275,0,"10_SD2.wav",70
Sample,68275,0,"piano_3_G#C#D#.wav",70
Sample,68275,0,"10_BD.wav",70
Sample,68275,0,"10_Chat_w.wav",70
Sample,68275,0,"10_shake.wav",70
Sample,68275,0,"10_shakeHat.wav",70
Sample,68379,0,"10_shake_w.wav",70
Sample,68482,0,"piano_3_G#C#F.wav",70
Sample,68482,0,"10_Ohat.wav",70
Sample,68482,0,"10_shake.wav",70
Sample,68586,0,"10_shake_w.wav",70
Sample,68689,0,"piano_3_G#C#F.wav",70
Sample,68689,0,"10_BD.wav",70
Sample,68689,0,"10_shake.wav",70
Sample,68689,0,"10_shakeHat.wav",70
Sample,68689,0,"10_Chat_w.wav",70
Sample,68793,0,"10_shake_w.wav",70
Sample,68896,0,"10_Ohat.wav",70
Sample,68896,0,"10_shake.wav",70
Sample,68896,0,"piano_3_G#C#F.wav",70
Sample,69000,0,"10_shake_w.wav",70
Sample,69103,0,"10_SD2.wav",70
Sample,69103,0,"10_Chat_w.wav",70
Sample,69103,0,"10_shake.wav",70
Sample,69103,0,"piano_3_G#C#F.wav",70
Sample,69103,0,"10_BD.wav",70
Sample,69103,0,"10_shakeHat.wav",70
Sample,69206,0,"10_shake_w.wav",70
Sample,69310,0,"10_shake.wav",70
Sample,69310,0,"10_Ohat.wav",70
Sample,69310,0,"piano_3_G#C#F.wav",70
Sample,69413,0,"10_shake_w.wav",70
Sample,69517,0,"10_shake.wav",70
Sample,69517,0,"piano_3_A#D#G#.wav",70
Sample,69517,0,"10_Chat_w.wav",70
Sample,69517,0,"10_BD.wav",70
Sample,69517,0,"10_shakeHat.wav",70
Sample,69620,0,"10_shake_w.wav",70
Sample,69724,0,"piano_3_A#D#G#.wav",70
Sample,69724,0,"10_Ohat.wav",70
Sample,69724,0,"10_shake.wav",70
Sample,69827,0,"10_shake_w.wav",70
Sample,69931,0,"piano_3_A#D#G#.wav",70
Sample,69931,0,"10_Chat_w.wav",70
Sample,69931,0,"10_SD2.wav",70
Sample,69931,0,"10_BD.wav",70
Sample,69931,0,"10_shake.wav",70
Sample,69931,0,"10_shakeHat.wav",70
Sample,70034,0,"10_shake_w.wav",70
Sample,70137,0,"10_shake.wav",70
Sample,70137,0,"10_Ohat.wav",70
Sample,70137,0,"piano_3_A#D#F#.wav",70
Sample,70241,0,"10_shake_w.wav",70
Sample,70344,0,"piano_3_A#D#F#.wav",70
Sample,70344,0,"10_BD.wav",70
Sample,70344,0,"10_Chat_w.wav",70
Sample,70344,0,"10_shakeHat.wav",70
Sample,70344,0,"10_shake.wav",70
Sample,70448,0,"10_shake_w.wav",70
Sample,70551,0,"piano_3_A#D#F#.wav",70
Sample,70551,0,"10_Ohat.wav",70
Sample,70551,0,"10_shake.wav",70
Sample,70655,0,"10_shake_w.wav",70
Sample,70758,0,"10_BD.wav",70
Sample,70758,0,"10_SD3.wav",70
Sample,70758,0,"10_shake.wav",70
Sample,70758,0,"10_Chat_w.wav",70
Sample,70758,0,"piano_3_A#D#F#.wav",70
Sample,70758,0,"10_shakeHat.wav",70
Sample,70862,0,"10_shake_w.wav",70
Sample,70965,0,"10_SD2.wav",70
Sample,70965,0,"piano_3_A#D#F#.wav",70
Sample,70965,0,"10_shake.wav",70
Sample,70965,0,"10_Ohat.wav",70
Sample,71068,0,"10_SD2.wav",70
Sample,71068,0,"10_shake_w.wav",70
Sample,71172,0,"10_BD.wav",70
Sample,71172,0,"10_shake.wav",70
Sample,71172,0,"10_Chat.wav",70
Sample,71172,0,"10_shakeHat.wav",70
Sample,71275,0,"10_Chat.wav",70
Sample,71275,0,"10_shake_w.wav",70
Sample,71379,0,"10_SD2.wav",70
Sample,71379,0,"10_shake.wav",70
Sample,71482,0,"10_shake_w.wav",70
Sample,71482,0,"10_BD.wav",70
Sample,71482,0,"10_Chat.wav",70
Sample,71586,0,"10_shake.wav",70
Sample,71586,0,"10_Chat.wav",70
Sample,71586,0,"10_BD.wav",70
Sample,71586,0,"10_shakeHat.wav",70
Sample,71689,0,"10_shake_w.wav",70
Sample,71793,0,"10_SD2.wav",70
Sample,71793,0,"10_Chat.wav",70
Sample,71793,0,"10_shake.wav",70
Sample,71896,0,"10_Chat.wav",70
Sample,71896,0,"10_shake_w.wav",70
Sample,72000,0,"10_BD.wav",70
Sample,72000,0,"10_shake.wav",70
Sample,72000,0,"10_shakeHat.wav",70
Sample,72103,0,"10_Chat.wav",70
Sample,72103,0,"10_SD2.wav",70
Sample,72103,0,"10_shake_w.wav",70
Sample,72206,0,"10_Chat.wav",70
Sample,72206,0,"10_shake.wav",70
Sample,72310,0,"10_shake_w.wav",70
Sample,72413,0,"10_SD3.wav",70
Sample,72413,0,"10_Ohat.wav",70
Sample,72413,0,"10_BD.wav",70
Sample,72413,0,"10_shake.wav",70
Sample,72413,0,"10_shakeHat.wav",70
Sample,72517,0,"10_shake_w.wav",70
Sample,72620,0,"10_shake.wav",70
Sample,72620,0,"10_SD2.wav",70
Sample,72620,0,"10_BD.wav",70
Sample,72724,0,"10_shake_w.wav",70
Sample,72724,0,"10_SD2.wav",70
Sample,72827,0,"10_shakeHat.wav",70
Sample,72827,0,"piano_3_A#D#G#.wav",70
Sample,72827,0,"10_shake.wav",70
Sample,72827,0,"10_Chat_w.wav",70
Sample,72827,0,"tbgm_05b.wav",70
Sample,72931,0,"10_shake_w.wav",70
Sample,73034,0,"10_Ohat.wav",70
Sample,73034,0,"piano_3_A#D#G#.wav",70
Sample,73034,0,"10_shake.wav",70
Sample,73137,0,"10_shake_w.wav",70
Sample,73241,0,"10_SD2.wav",70
Sample,73241,0,"10_Chat_w.wav",70
Sample,73241,0,"10_shake.wav",70
Sample,73241,0,"10_shakeHat.wav",70
Sample,73241,0,"piano_3_A#D#G#.wav",70
Sample,73344,0,"10_shake_w.wav",70
Sample,73448,0,"piano_3_A#D#F#.wav",70
Sample,73448,0,"10_Ohat.wav",70
Sample,73448,0,"10_shake.wav",70
Sample,73551,0,"10_shake_w.wav",70
Sample,73655,0,"piano_3_A#D#F#.wav",70
Sample,73655,0,"10_Chat_w.wav",70
Sample,73655,0,"10_shakeHat.wav",70
Sample,73655,0,"10_shake.wav",70
Sample,73758,0,"10_shake_w.wav",70
Sample,73862,0,"piano_3_A#D#F#.wav",70
Sample,73862,0,"10_Ohat.wav",70
Sample,73862,0,"10_shake.wav",70
Sample,73965,0,"10_shake_w.wav",70
Sample,74068,0,"10_Chat_w.wav",70
Sample,74068,0,"10_SD2.wav",70
Sample,74068,0,"10_shake.wav",70
Sample,74068,0,"piano_3_A#D#F#.wav",70
Sample,74068,0,"10_shakeHat.wav",70
Sample,74172,0,"10_shake_w.wav",70
Sample,74275,0,"10_Ohat.wav",70
Sample,74275,0,"10_shake.wav",70
Sample,74275,0,"piano_3_A#D#F#.wav",70
Sample,74379,0,"10_shake_w.wav",70
Sample,74482,0,"10_shakeHat.wav",70
Sample,74482,0,"piano_3_A#D#F.wav",70
Sample,74482,0,"10_shake.wav",70
Sample,74482,0,"10_Chat_w.wav",70
Sample,74586,0,"10_shake_w.wav",70
Sample,74689,0,"piano_3_A#D#F.wav",70
Sample,74689,0,"10_shake.wav",70
Sample,74689,0,"10_Ohat.wav",70
Sample,74793,0,"10_shake_w.wav",70
Sample,74896,0,"piano_3_A#D#F.wav",70
Sample,74896,0,"10_shake.wav",70
Sample,74896,0,"10_SD2.wav",70
Sample,74896,0,"10_Chat_w.wav",70
Sample,74896,0,"10_shakeHat.wav",70
Sample,75000,0,"10_shake_w.wav",70
Sample,75103,0,"10_shake.wav",70
Sample,75103,0,"piano_3_A#D#F#.wav",70
Sample,75103,0,"10_Ohat.wav",70
Sample,75206,0,"10_shake_w.wav",70
Sample,75310,0,"10_Chat_w.wav",70
Sample,75310,0,"10_shake.wav",70
Sample,75310,0,"piano_3_A#D#F#.wav",70
Sample,75310,0,"10_shakeHat.wav",70
Sample,75413,0,"10_shake_w.wav",70
Sample,75517,0,"10_shake.wav",70
Sample,75517,0,"10_Ohat.wav",70
Sample,75517,0,"piano_3_A#D#F#.wav",70
Sample,75620,0,"10_shake_w.wav",70
Sample,75724,0,"10_shake.wav",70
Sample,75724,0,"10_Chat_w.wav",70
Sample,75724,0,"10_SD2.wav",70
Sample,75724,0,"10_shakeHat.wav",70
Sample,75724,0,"piano_3_A#D#F#.wav",70
Sample,75827,0,"10_shake_w.wav",70
Sample,75931,0,"10_shake.wav",70
Sample,75931,0,"piano_3_A#D#F#.wav",70
Sample,75931,0,"10_Ohat.wav",70
Sample,76034,0,"10_shake_w.wav",70
Sample,76137,0,"10_shakeHat.wav",70
Sample,76137,0,"piano_3_A#D#G#.wav",70
Sample,76137,0,"10_shake.wav",70
Sample,76137,0,"10_Chat_w.wav",70
Sample,76241,0,"10_shake_w.wav",70
Sample,76344,0,"10_shake.wav",70
Sample,76344,0,"10_Ohat.wav",70
Sample,76344,0,"piano_3_A#D#G#.wav",70
Sample,76448,0,"10_shake_w.wav",70
Sample,76551,0,"piano_3_A#D#G#.wav",70
Sample,76551,0,"10_shake.wav",70
Sample,76551,0,"10_SD2.wav",70
Sample,76551,0,"10_Chat_w.wav",70
Sample,76551,0,"10_shakeHat.wav",70
Sample,76655,0,"10_shake_w.wav",70
Sample,76758,0,"10_shake.wav",70
Sample,76758,0,"piano_3_A#D#F#.wav",70
Sample,76758,0,"10_Ohat.wav",70
Sample,76862,0,"10_shake_w.wav",70
Sample,76965,0,"10_Chat_w.wav",70
Sample,76965,0,"10_shake.wav",70
Sample,76965,0,"piano_3_A#D#F#.wav",70
Sample,76965,0,"10_shakeHat.wav",70
Sample,77068,0,"10_shake_w.wav",70
Sample,77172,0,"10_shake.wav",70
Sample,77172,0,"10_Ohat.wav",70
Sample,77172,0,"piano_3_A#D#F#.wav",70
Sample,77275,0,"10_shake_w.wav",70
Sample,77379,0,"10_shake.wav",70
Sample,77379,0,"10_Chat_w.wav",70
Sample,77379,0,"10_SD2.wav",70
Sample,77379,0,"10_shakeHat.wav",70
Sample,77379,0,"piano_3_A#D#F#.wav",70
Sample,77482,0,"10_shake_w.wav",70
Sample,77586,0,"10_shake.wav",70
Sample,77586,0,"piano_3_A#D#F#.wav",70
Sample,77586,0,"10_Ohat.wav",70
Sample,77689,0,"10_shake_w.wav",70
Sample,77793,0,"10_Chat_w.wav",70
Sample,77793,0,"10_shake.wav",70
Sample,77793,0,"piano_3_A#D#F.wav",70
Sample,77793,0,"10_shakeHat.wav",70
Sample,77896,0,"10_shake_w.wav",70
Sample,78000,0,"piano_3_A#D#F.wav",70
Sample,78000,0,"10_Ohat.wav",70
Sample,78000,0,"10_shake.wav",70
Sample,78103,0,"10_shake_w.wav",70
Sample,78206,0,"10_shake.wav",70
Sample,78206,0,"10_Chat_w.wav",70
Sample,78206,0,"10_SD2.wav",70
Sample,78206,0,"10_shakeHat.wav",70
Sample,78206,0,"piano_3_A#D#F.wav",70
Sample,78310,0,"10_shake_w.wav",70
Sample,78413,0,"piano_3_A#D#F#.wav",70
Sample,78413,0,"10_Ohat.wav",70
Sample,78413,0,"10_shake.wav",70
Sample,78517,0,"10_shake_w.wav",70
Sample,78620,0,"10_shakeHat.wav",70
Sample,78620,0,"10_Chat_w.wav",70
Sample,78620,0,"10_shake.wav",70
Sample,78620,0,"piano_3_A#D#F#.wav",70
Sample,78724,0,"10_shake_w.wav",70
Sample,78724,0,"10_SD2.wav",70
Sample,78827,0,"piano_3_A#D#F#.wav",70
Sample,78827,0,"10_Ohat.wav",70
Sample,78827,0,"10_shake.wav",70
Sample,78931,0,"10_shake_w.wav",70
Sample,79034,0,"10_shake.wav",70
Sample,79034,0,"10_Chat_w.wav",70
Sample,79034,0,"piano_3_A#D#F#.wav",70
Sample,79034,0,"10_shakeHat.wav",70
Sample,79137,0,"10_shake_w.wav",70
Sample,79241,0,"10_SD2.wav",70
Sample,79241,0,"piano_3_A#D#F#.wav",70
Sample,79241,0,"10_Ohat.wav",70
Sample,79241,0,"10_shake.wav",70
Sample,79344,0,"10_shake_w.wav",70
Sample,79448,0,"10_shakeHat.wav",70
Sample,79448,0,"piano_3_G#C#F#.wav",70
Sample,79448,0,"10_shake.wav",70
Sample,79448,0,"10_Chat_w.wav",70
Sample,79551,0,"10_shake_w.wav",70
Sample,79655,0,"10_shake.wav",70
Sample,79655,0,"piano_3_G#C#F#.wav",70
Sample,79655,0,"10_Ohat.wav",70
Sample,79758,0,"10_shake_w.wav",70
Sample,79862,0,"10_Chat_w.wav",70
Sample,79862,0,"10_shake.wav",70
Sample,79862,0,"10_SD2.wav",70
Sample,79862,0,"piano_3_G#C#F#.wav",70
Sample,79862,0,"10_shakeHat.wav",70
Sample,79965,0,"10_shake_w.wav",70
Sample,80068,0,"piano_3_G#C#F.wav",70
Sample,80068,0,"10_shake.wav",70
Sample,80068,0,"10_Ohat.wav",70
Sample,80172,0,"10_shake_w.wav",70
Sample,80275,0,"10_Chat_w.wav",70
Sample,80275,0,"10_shake.wav",70
Sample,80275,0,"piano_3_G#C#F.wav",70
Sample,80275,0,"10_shakeHat.wav",70
Sample,80379,0,"10_shake_w.wav",70
Sample,80482,0,"10_Ohat.wav",70
Sample,80482,0,"10_shake.wav",70
Sample,80482,0,"piano_3_G#C#F.wav",70
Sample,80586,0,"10_shake_w.wav",70
Sample,80689,0,"10_shake.wav",70
Sample,80689,0,"piano_3_G#C#F.wav",70
Sample,80689,0,"10_Chat_w.wav",70
Sample,80689,0,"10_shakeHat.wav",70
Sample,80689,0,"10_SD2.wav",70
Sample,80793,0,"10_shake_w.wav",70
Sample,80896,0,"piano_3_G#C#F.wav",70
Sample,80896,0,"10_shake.wav",70
Sample,80896,0,"10_Ohat.wav",70
Sample,81000,0,"10_shake_w.wav",70
Sample,81103,0,"10_shakeHat.wav",70
Sample,81103,0,"piano_3_G#C#D#.wav",70
Sample,81103,0,"10_shake.wav",70
Sample,81103,0,"10_Chat_w.wav",70
Sample,81206,0,"10_shake_w.wav",70
Sample,81310,0,"10_shake.wav",70
Sample,81310,0,"10_Ohat.wav",70
Sample,81310,0,"piano_3_G#C#D#.wav",70
Sample,81413,0,"10_shake_w.wav",70
Sample,81517,0,"10_Chat_w.wav",70
Sample,81517,0,"10_shake.wav",70
Sample,81517,0,"10_SD2.wav",70
Sample,81517,0,"piano_3_G#C#D#.wav",70
Sample,81517,0,"10_shakeHat.wav",70
Sample,81620,0,"10_shake_w.wav",70
Sample,81724,0,"piano_3_G#C#F.wav",70
Sample,81724,0,"10_Ohat.wav",70
Sample,81724,0,"10_shake.wav",70
Sample,81827,0,"10_shake_w.wav",70
Sample,81931,0,"10_Chat_w.wav",70
Sample,81931,0,"10_shake.wav",70
Sample,81931,0,"piano_3_G#C#F.wav",70
Sample,81931,0,"10_shakeHat.wav",70
Sample,82034,0,"10_shake_w.wav",70
Sample,82137,0,"piano_3_G#C#F.wav",70
Sample,82137,0,"10_shake.wav",70
Sample,82137,0,"10_Ohat.wav",70
Sample,82241,0,"10_shake_w.wav",70
Sample,82344,0,"10_SD2.wav",70
Sample,82344,0,"piano_3_G#C#F.wav",70
Sample,82344,0,"10_Chat_w.wav",70
Sample,82344,0,"10_shakeHat.wav",70
Sample,82344,0,"10_shake.wav",70
Sample,82448,0,"10_shake_w.wav",70
Sample,82551,0,"piano_3_G#C#F.wav",70
Sample,82551,0,"10_shake.wav",70
Sample,82551,0,"10_Ohat.wav",70
Sample,82655,0,"10_shake_w.wav",70
Sample,82758,0,"10_shakeHat.wav",70
Sample,82758,0,"piano_3_A#D#G#.wav",70
Sample,82758,0,"10_shake.wav",70
Sample,82758,0,"10_Chat_w.wav",70
Sample,82862,0,"10_shake_w.wav",70
Sample,82965,0,"10_shake.wav",70
Sample,82965,0,"piano_3_A#D#G#.wav",70
Sample,82965,0,"10_Ohat.wav",70
Sample,83068,0,"10_shakeHat.wav",70
Sample,83068,0,"10_shake_w.wav",70
Sample,83172,0,"piano_3_A#D#G#.wav",70
Sample,83172,0,"10_Chat_w.wav",70
Sample,83172,0,"10_shake.wav",70
Sample,83172,0,"10_SD2.wav",70
Sample,83275,0,"10_shake_w.wav",70
Sample,83379,0,"10_Ohat.wav",70
Sample,83379,0,"10_shake.wav",70
Sample,83379,0,"piano_3_A#D#F#.wav",70
Sample,83379,0,"10_shakeHat.wav",70
Sample,83482,0,"10_shake_w.wav",70
Sample,83586,0,"piano_3_A#D#F#.wav",70
Sample,83586,0,"10_shake.wav",70
Sample,83586,0,"10_Chat_w.wav",70
Sample,83586,0,"10_shakeHat.wav",70
Sample,83689,0,"10_shake_w.wav",70
Sample,83793,0,"piano_3_A#D#F#.wav",70
Sample,83793,0,"10_shake.wav",70
Sample,83793,0,"10_Ohat.wav",70
Sample,83896,0,"10_shake_w.wav",70
Sample,83896,0,"10_shakeHat.wav",70
Sample,84000,0,"10_Chat_w.wav",70
Sample,84000,0,"10_SD3.wav",70
Sample,84000,0,"piano_3_A#D#F#.wav",70
Sample,84000,0,"10_shake.wav",70
Sample,84103,0,"10_shake_w.wav",70
Sample,84206,0,"10_Ohat.wav",70
Sample,84206,0,"10_shake.wav",70
Sample,84206,0,"piano_3_A#D#F#.wav",70
Sample,84206,0,"10_SD2.wav",70
Sample,84206,0,"10_shakeHat.wav",70
Sample,84310,0,"10_shake_w.wav",70
Sample,84310,0,"10_SD2.wav",70
Sample,84413,0,"10_shakeHat.wav",70
Sample,84413,0,"10_Chat.wav",70
Sample,84413,0,"10_shake.wav",70
Sample,84413,0,"piano_3_A#D#G#.wav",70
Sample,84517,0,"10_Chat.wav",70
Sample,84517,0,"10_shake_w.wav",70
Sample,84620,0,"piano_3_A#D#G#.wav",70
Sample,84620,0,"10_SD2.wav",70
Sample,84620,0,"10_shake.wav",70
Sample,84724,0,"10_Chat.wav",70
Sample,84724,0,"10_shake_w.wav",70
Sample,84724,0,"10_shakeHat.wav",70
Sample,84827,0,"10_Chat.wav",70
Sample,84827,0,"piano_3_A#D#G#.wav",70
Sample,84827,0,"10_SD2.wav",70
Sample,84827,0,"10_shake.wav",70
Sample,84931,0,"10_shake_w.wav",70
Sample,85034,0,"10_Chat.wav",70
Sample,85034,0,"10_SD2.wav",70
Sample,85034,0,"piano_3_A#D#F#.wav",70
Sample,85034,0,"10_shakeHat.wav",70
Sample,85034,0,"10_shake.wav",70
Sample,85137,0,"10_Chat.wav",70
Sample,85137,0,"10_shake_w.wav",70
Sample,85241,0,"10_shake.wav",70
Sample,85241,0,"10_SD2.wav",70
Sample,85241,0,"piano_3_A#D#F#.wav",70
Sample,85241,0,"10_shakeHat.wav",70
Sample,85344,0,"10_Chat.wav",70
Sample,85344,0,"10_shake_w.wav",70
Sample,85448,0,"10_SD3.wav",70
Sample,85448,0,"10_shake.wav",70
Sample,85448,0,"vios_1_A#8.wav",70
Sample,85448,0,"10_Chat.wav",70
Sample,85448,0,"piano_3_A#D#F#.wav",70
Sample,85448,0,"bgmhighstr_01.wav",70
Sample,85551,0,"10_shakeHat.wav",70
Sample,85551,0,"10_shake_w.wav",70
Sample,85655,0,"vios_1_F)8.wav",70
Sample,85655,0,"10_shake.wav",70
Sample,85655,0,"piano_3_A#D#F#.wav",70
Sample,85655,0,"10_Ohat.wav",70
Sample,85655,0,"10_SD3.wav",70
Sample,85758,0,"10_shake_w.wav",70
Sample,85862,0,"10_SD3.wav",70
Sample,85862,0,"10_shakeHat.wav",70
Sample,85862,0,"vios_1_F#)8.wav",70
Sample,85862,0,"10_shake.wav",70
Sample,85862,0,"piano_3_A#D#F#.wav",70
Sample,85965,0,"10_SD3.wav",70
Sample,85965,0,"10_shake_w.wav",70
Sample,86068,0,"10_shake.wav",70
Sample,86068,0,"piano_3_A#D#G#.wav",70
Sample,86068,0,"tbgm_05a.wav",70
Sample,86068,0,"vios_1_F)4.wav",70
Sample,86068,0,"10_shakeHat.wav",70
Sample,86068,0,"10_Chat_w.wav",70
Sample,86172,0,"10_shake_w.wav",70
Sample,86275,0,"piano_3_A#D#G#.wav",70
Sample,86275,0,"10_Ohat.wav",70
Sample,86275,0,"10_shake.wav",70
Sample,86379,0,"10_shake_w.wav",70
Sample,86482,0,"10_shakeHat.wav",70
Sample,86482,0,"10_Chat_w.wav",70
Sample,86482,0,"10_shake.wav",70
Sample,86482,0,"piano_3_A#D#G#.wav",70
Sample,86482,0,"vios_1_D#)8.wav",70
Sample,86586,0,"10_shake_w.wav",70
Sample,86689,0,"vios_1_A#4.wav",70
Sample,86689,0,"10_Ohat.wav",70
Sample,86689,0,"piano_3_A#D#F#.wav",70
Sample,86689,0,"10_shake.wav",70
Sample,86793,0,"10_shake_w.wav",70
Sample,86896,0,"10_Chat_w.wav",70
Sample,86896,0,"piano_3_A#D#F#.wav",70
Sample,86896,0,"10_shakeHat.wav",70
Sample,86896,0,"10_shake.wav",70
Sample,87000,0,"10_shake_w.wav",70
Sample,87103,0,"vios_1_G#8.wav",70
Sample,87103,0,"10_shake.wav",70
Sample,87103,0,"10_Ohat.wav",70
Sample,87103,0,"piano_3_A#D#F#.wav",70
Sample,87206,0,"10_shake_w.wav",70
Sample,87310,0,"vios_1_F#8.wav",70
Sample,87310,0,"10_Chat_w.wav",70
Sample,87310,0,"10_shake.wav",70
Sample,87310,0,"10_shakeHat.wav",70
Sample,87310,0,"piano_3_A#D#F#.wav",70
Sample,87413,0,"10_shake_w.wav",70
Sample,87517,0,"10_Ohat.wav",70
Sample,87517,0,"10_shake.wav",70
Sample,87517,0,"vios_1_A#2+.wav",70
Sample,87517,0,"piano_3_A#D#F#.wav",70
Sample,87620,0,"10_shake_w.wav",70
Sample,87724,0,"10_Chat_w.wav",70
Sample,87724,0,"10_shake.wav",70
Sample,87724,0,"piano_3_A#D#F.wav",70
Sample,87724,0,"10_shakeHat.wav",70
Sample,87827,0,"10_shake_w.wav",70
Sample,87931,0,"10_shake.wav",70
Sample,87931,0,"piano_3_A#D#F.wav",70
Sample,87931,0,"10_Ohat.wav",70
Sample,88034,0,"10_shake_w.wav",70
Sample,88137,0,"10_shake.wav",70
Sample,88137,0,"piano_3_A#D#F.wav",70
Sample,88137,0,"10_Chat_w.wav",70
Sample,88137,0,"10_shakeHat.wav",70
Sample,88241,0,"10_shake_w.wav",70
Sample,88344,0,"piano_3_A#D#F#.wav",70
Sample,88344,0,"10_Ohat.wav",70
Sample,88344,0,"10_shake.wav",70
Sample,88448,0,"10_shake_w.wav",70
Sample,88551,0,"10_shake.wav",70
Sample,88551,0,"piano_3_A#D#F#.wav",70
Sample,88551,0,"10_Chat_w.wav",70
Sample,88551,0,"10_shakeHat.wav",70
Sample,88655,0,"10_shake_w.wav",70
Sample,88758,0,"piano_3_A#D#F#.wav",70
Sample,88758,0,"10_Ohat.wav",70
Sample,88758,0,"vios_1_A#8.wav",70
Sample,88758,0,"10_shake.wav",70
Sample,88862,0,"10_shake_w.wav",70
Sample,88965,0,"10_shake.wav",70
Sample,88965,0,"vios_1_F)8.wav",70
Sample,88965,0,"10_Chat_w.wav",70
Sample,88965,0,"piano_3_A#D#F#.wav",70
Sample,88965,0,"10_shakeHat.wav",70
Sample,89068,0,"10_shake_w.wav",70
Sample,89172,0,"10_Ohat.wav",70
Sample,89172,0,"piano_3_A#D#F#.wav",70
Sample,89172,0,"10_shake.wav",70
Sample,89172,0,"vios_1_F#)8.wav",70
Sample,89275,0,"10_shake_w.wav",70
Sample,89379,0,"10_shake.wav",70
Sample,89379,0,"piano_3_A#D#G#.wav",70
Sample,89379,0,"10_Chat_w.wav",70
Sample,89379,0,"vios_1_F)4.wav",70
Sample,89379,0,"10_shakeHat.wav",70
Sample,89482,0,"10_shake_w.wav",70
Sample,89586,0,"10_shake.wav",70
Sample,89586,0,"10_Ohat.wav",70
Sample,89586,0,"piano_3_A#D#G#.wav",70
Sample,89689,0,"10_shake_w.wav",70
Sample,89793,0,"10_shake.wav",70
Sample,89793,0,"vios_1_D#)8.wav",70
Sample,89793,0,"piano_3_A#D#G#.wav",70
Sample,89793,0,"10_shakeHat.wav",70
Sample,89793,0,"10_Chat_w.wav",70
Sample,89896,0,"10_shake_w.wav",70
Sample,90000,0,"10_shake.wav",70
Sample,90000,0,"piano_3_A#D#F#.wav",70
Sample,90000,0,"10_Ohat.wav",70
Sample,90000,0,"vios_1_A#4.wav",70
Sample,90103,0,"10_shake_w.wav",70
Sample,90206,0,"piano_3_A#D#F#.wav",70
Sample,90206,0,"10_Chat_w.wav",70
Sample,90206,0,"10_shake.wav",70
Sample,90206,0,"10_shakeHat.wav",70
Sample,90310,0,"10_shake_w.wav",70
Sample,90413,0,"piano_3_A#D#F#.wav",70
Sample,90413,0,"vios_1_G#8.wav",70
Sample,90413,0,"10_Ohat.wav",70
Sample,90413,0,"10_shake.wav",70
Sample,90517,0,"10_shake_w.wav",70
Sample,90620,0,"10_Chat_w.wav",70
Sample,90620,0,"10_shake.wav",70
Sample,90620,0,"piano_3_A#D#F#.wav",70
Sample,90620,0,"vios_1_A#8_2.wav",70
Sample,90620,0,"10_shakeHat.wav",70
Sample,90724,0,"10_shake_w.wav",70
Sample,90827,0,"10_Ohat.wav",70
Sample,90827,0,"piano_3_A#D#F#.wav",70
Sample,90827,0,"10_shake.wav",70
Sample,90827,0,"vios_1_D#2+.wav",70
Sample,90931,0,"10_shake_w.wav",70
Sample,91034,0,"10_Chat_w.wav",70
Sample,91034,0,"10_shake.wav",70
Sample,91034,0,"piano_3_A#D#F.wav",70
Sample,91034,0,"10_shakeHat.wav",70
Sample,91137,0,"10_shake_w.wav",70
Sample,91241,0,"piano_3_A#D#F.wav",70
Sample,91241,0,"10_shake.wav",70
Sample,91241,0,"10_Ohat.wav",70
Sample,91344,0,"10_shake_w.wav",70
Sample,91448,0,"piano_3_A#D#F.wav",70
Sample,91448,0,"10_Chat_w.wav",70
Sample,91448,0,"10_shake.wav",70
Sample,91448,0,"10_shakeHat.wav",70
Sample,91551,0,"10_shake_w.wav",70
Sample,91655,0,"piano_3_A#D#F#.wav",70
Sample,91655,0,"10_Ohat.wav",70
Sample,91655,0,"10_shake.wav",70
Sample,91758,0,"10_shake_w.wav",70
Sample,91862,0,"10_shake.wav",70
Sample,91862,0,"piano_3_A#D#F#.wav",70
Sample,91862,0,"10_Chat_w.wav",70
Sample,91862,0,"10_shakeHat.wav",70
Sample,91965,0,"10_shake_w.wav",70
Sample,92068,0,"vios_1_D#8.wav",70
Sample,92068,0,"10_Ohat.wav",70
Sample,92068,0,"piano_3_A#D#F#.wav",70
Sample,92068,0,"10_shake.wav",70
Sample,92172,0,"10_shake_w.wav",70
Sample,92275,0,"10_shake.wav",70
Sample,92275,0,"piano_3_A#D#F#.wav",70
Sample,92275,0,"10_Chat_w.wav",70
Sample,92275,0,"vios_1_F#8.wav",70
Sample,92275,0,"10_shakeHat.wav",70
Sample,92379,0,"10_shake_w.wav",70
Sample,92482,0,"10_Ohat.wav",70
Sample,92482,0,"piano_3_A#D#F#.wav",70
Sample,92482,0,"10_shake.wav",70
Sample,92482,0,"vios_1_G#8.wav",70
Sample,92586,0,"10_shake_w.wav",70
Sample,92689,0,"vios_1_A#3.wav",70
Sample,92689,0,"10_shake.wav",70
Sample,92689,0,"10_Chat_w.wav",70
Sample,92689,0,"10_shakeHat.wav",70
Sample,92689,0,"piano_3_G#C#F#.wav",70
Sample,92793,0,"10_shake_w.wav",70
Sample,92896,0,"10_Ohat.wav",70
Sample,92896,0,"10_shake.wav",70
Sample,92896,0,"piano_3_G#C#F#.wav",70
Sample,93000,0,"10_shake_w.wav",70
Sample,93103,0,"10_shakeHat.wav",70
Sample,93103,0,"10_shake.wav",70
Sample,93103,0,"10_Chat_w.wav",70
Sample,93103,0,"piano_3_G#C#F#.wav",70
Sample,93206,0,"10_shake_w.wav",70
Sample,93310,0,"piano_3_G#C#F.wav",70
Sample,93310,0,"vios_1_G#8.wav",70
Sample,93310,0,"10_shake.wav",70
Sample,93310,0,"10_Ohat.wav",70
Sample,93413,0,"10_shake_w.wav",70
Sample,93517,0,"vios_1_G#3_2.wav",70
Sample,93517,0,"piano_3_G#C#F.wav",70
Sample,93517,0,"10_Chat_w.wav",70
Sample,93517,0,"10_shakeHat.wav",70
Sample,93517,0,"10_shake.wav",70
Sample,93620,0,"10_shake_w.wav",70
Sample,93724,0,"10_shake.wav",70
Sample,93724,0,"10_Ohat.wav",70
Sample,93724,0,"piano_3_G#C#F.wav",70
Sample,93827,0,"10_shake_w.wav",70
Sample,93931,0,"10_shakeHat.wav",70
Sample,93931,0,"piano_3_G#C#F.wav",70
Sample,93931,0,"10_shake.wav",70
Sample,93931,0,"10_Chat_w.wav",70
Sample,94034,0,"10_shake_w.wav",70
Sample,94137,0,"10_Ohat.wav",70
Sample,94137,0,"vios_1_F#16.wav",70
Sample,94137,0,"piano_3_G#C#F.wav",70
Sample,94137,0,"10_shake.wav",70
Sample,94241,0,"vios_1_G#16.wav",70
Sample,94241,0,"10_shake_w.wav",70
Sample,94344,0,"vios_1_A#6.wav",70
Sample,94344,0,"10_shake.wav",70
Sample,94344,0,"10_Chat_w.wav",70
Sample,94344,0,"10_shakeHat.wav",70
Sample,94344,0,"piano_3_G#C#D#.wav",70
Sample,94448,0,"10_shake_w.wav",70
Sample,94551,0,"10_shake.wav",70
Sample,94551,0,"piano_3_G#C#D#.wav",70
Sample,94551,0,"10_Ohat.wav",70
Sample,94655,0,"10_shake_w.wav",70
Sample,94655,0,"vios_1_B6.wav",70
Sample,94758,0,"10_shake.wav",70
Sample,94758,0,"piano_3_G#C#D#.wav",70
Sample,94758,0,"10_Chat_w.wav",70
Sample,94758,0,"10_shakeHat.wav",70
Sample,94862,0,"10_shake_w.wav",70
Sample,94965,0,"10_Ohat.wav",70
Sample,94965,0,"10_shake.wav",70
Sample,94965,0,"vios_1_A#8.wav",70
Sample,94965,0,"piano_3_G#C#F.wav",70
Sample,95068,0,"10_shake_w.wav",70
Sample,95172,0,"vios_1_G#4.wav",70
Sample,95172,0,"piano_3_G#C#F.wav",70
Sample,95172,0,"10_Chat_w.wav",70
Sample,95172,0,"10_shake.wav",70
Sample,95172,0,"10_shakeHat.wav",70
Sample,95275,0,"10_shake_w.wav",70
Sample,95379,0,"10_Ohat.wav",70
Sample,95379,0,"10_shake.wav",70
Sample,95379,0,"piano_3_G#C#F.wav",70
Sample,95482,0,"10_shake_w.wav",70
Sample,95586,0,"piano_3_G#C#F.wav",70
Sample,95586,0,"10_shake.wav",70
Sample,95586,0,"10_Chat_w.wav",70
Sample,95586,0,"10_shakeHat.wav",70
Sample,95586,0,"vios_1_F4.wav",70
Sample,95689,0,"10_shake_w.wav",70
Sample,95793,0,"piano_3_G#C#F.wav",70
Sample,95793,0,"10_shake.wav",70
Sample,95793,0,"10_Ohat.wav",70
Sample,95896,0,"10_shake_w.wav",70
Sample,96000,0,"vios_1_G#3_2.wav",70
Sample,96000,0,"10_shake.wav",70
Sample,96000,0,"10_Chat_w.wav",70
Sample,96000,0,"10_shakeHat.wav",70
Sample,96000,0,"piano_3_A#D#G#.wav",70
Sample,96103,0,"10_shake_w.wav",70
Sample,96206,0,"piano_3_A#D#G#.wav",70
Sample,96206,0,"10_shake.wav",70
Sample,96206,0,"10_Ohat.wav",70
Sample,96310,0,"10_shake_w.wav",70
Sample,96413,0,"10_shakeHat.wav",70
Sample,96413,0,"piano_3_A#D#G#.wav",70
Sample,96413,0,"10_Chat_w.wav",70
Sample,96413,0,"10_shake.wav",70
Sample,96517,0,"10_shake_w.wav",70
Sample,96620,0,"10_Ohat.wav",70
Sample,96620,0,"vios_1_F#8.wav",70
Sample,96620,0,"10_shake.wav",70
Sample,96620,0,"piano_3_A#D#F#.wav",70
Sample,96724,0,"10_shake_w.wav",70
Sample,96827,0,"10_Chat_w.wav",70
Sample,96827,0,"vios_1_A#2++.wav",70
Sample,96827,0,"piano_3_A#D#F#.wav",70
Sample,96827,0,"10_shakeHat.wav",70
Sample,96827,0,"10_shake.wav",70
Sample,96931,0,"10_shake_w.wav",70
Sample,97034,0,"10_Ohat.wav",70
Sample,97034,0,"10_shake.wav",70
Sample,97034,0,"piano_3_A#D#F#.wav",70
Sample,97137,0,"10_shake_w.wav",70
Sample,97241,0,"10_shakeHat.wav",70
Sample,97241,0,"piano_3_A#D#F#.wav",70
Sample,97241,0,"10_Chat_w.wav",70
Sample,97241,0,"10_shake.wav",70
Sample,97344,0,"10_shake_w.wav",70
Sample,97448,0,"10_shake.wav",70
Sample,97448,0,"piano_3_A#D#F#.wav",70
Sample,97448,0,"10_Ohat.wav",70
Sample,97551,0,"10_shake_w.wav",70
Sample,97655,0,"10_shake.wav",70
Sample,97655,0,"10_shakeHat.wav",70
Sample,97655,0,"10_Chat.wav",70
Sample,97758,0,"10_Chat.wav",70
Sample,97758,0,"10_shake_w.wav",70
Sample,97862,0,"10_shake.wav",70
Sample,97862,0,"10_SD2.wav",70
Sample,97965,0,"10_Chat.wav",70
Sample,97965,0,"10_shake_w.wav",70
Sample,97965,0,"10_BD.wav",70
Sample,98068,0,"10_shakeHat.wav",70
Sample,98068,0,"10_BD.wav",70
Sample,98068,0,"10_Chat.wav",70
Sample,98068,0,"10_shake.wav",70
Sample,98172,0,"10_shake_w.wav",70
Sample,98275,0,"10_Chat.wav",70
Sample,98275,0,"10_SD2.wav",70
Sample,98275,0,"10_shake.wav",70
Sample,98379,0,"10_shake_w.wav",70
Sample,98379,0,"10_Chat.wav",70
Sample,98482,0,"10_shake.wav",70
Sample,98482,0,"10_shakeHat.wav",70
Sample,98482,0,"10_BD.wav",70
Sample,98586,0,"10_SD2.wav",70
Sample,98586,0,"10_Chat.wav",70
Sample,98586,0,"10_shake_w.wav",70
Sample,98689,0,"10_shake.wav",70
Sample,98689,0,"10_Chat.wav",70
Sample,98689,0,"pianomelo_B_A#)8.wav",70
Sample,98793,0,"10_shake_w.wav",70
Sample,98896,0,"10_Ohat.wav",70
Sample,98896,0,"pianomelo_B_F))8.wav",70
Sample,98896,0,"10_shakeHat.wav",70
Sample,98896,0,"10_BD.wav",70
Sample,98896,0,"10_SD3.wav",70
Sample,98896,0,"10_shake.wav",70
Sample,99000,0,"10_shake_w.wav",70
Sample,99103,0,"pianomelo_B_F#))8.wav",70
Sample,99103,0,"10_BD.wav",70
Sample,99103,0,"10_SD2.wav",70
Sample,99103,0,"10_shake.wav",70
Sample,99206,0,"10_shake_w.wav",70
Sample,99206,0,"10_SD2.wav",70
Sample,99310,0,"10_shakeHat.wav",70
Sample,99310,0,"vios_1_F)4.wav",70
Sample,99310,0,"10_shake.wav",70
Sample,99310,0,"10_Chat_w.wav",70
Sample,99310,0,"tbgm_05b.wav",70
Sample,99413,0,"10_shake_w.wav",70
Sample,99517,0,"10_shake.wav",70
Sample,99517,0,"10_Ohat.wav",70
Sample,99620,0,"10_shake_w.wav",70
Sample,99724,0,"10_shakeHat.wav",70
Sample,99724,0,"10_shake.wav",70
Sample,99724,0,"vios_1_D#)8.wav",70
Sample,99724,0,"10_Chat_w.wav",70
Sample,99724,0,"10_SD2.wav",70
Sample,99827,0,"10_shake_w.wav",70
Sample,99931,0,"10_Ohat.wav",70
Sample,99931,0,"10_shake.wav",70
Sample,99931,0,"vios_1_A#4.wav",70
Sample,100034,0,"10_shake_w.wav",70
Sample,100137,0,"10_shakeHat.wav",70
Sample,100137,0,"10_shake.wav",70
Sample,100137,0,"10_Chat_w.wav",70
Sample,100241,0,"10_shake_w.wav",70
Sample,100344,0,"10_shake.wav",70
Sample,100344,0,"10_Ohat.wav",70
Sample,100344,0,"vios_1_G#8.wav",70
Sample,100448,0,"10_shake_w.wav",70
Sample,100551,0,"vios_1_F#8.wav",70
Sample,100551,0,"10_SD2.wav",70
Sample,100551,0,"10_Chat_w.wav",70
Sample,100551,0,"10_shakeHat.wav",70
Sample,100551,0,"10_shake.wav",70
Sample,100655,0,"10_shake_w.wav",70
Sample,100758,0,"10_Ohat.wav",70
Sample,100758,0,"10_shake.wav",70
Sample,100758,0,"vios_1_A#2+.wav",70
Sample,100862,0,"10_shake_w.wav",70
Sample,100965,0,"10_shake.wav",70
Sample,100965,0,"10_shakeHat.wav",70
Sample,100965,0,"10_Chat_w.wav",70
Sample,101068,0,"10_shake_w.wav",70
Sample,101172,0,"10_shake.wav",70
Sample,101172,0,"10_Ohat.wav",70
Sample,101275,0,"10_shake_w.wav",70
Sample,101379,0,"10_shake.wav",70
Sample,101379,0,"10_Chat_w.wav",70
Sample,101379,0,"10_SD2.wav",70
Sample,101379,0,"10_shakeHat.wav",70
Sample,101482,0,"10_shake_w.wav",70
Sample,101586,0,"10_shake.wav",70
Sample,101586,0,"10_Ohat.wav",70
Sample,101689,0,"10_shake_w.wav",70
Sample,101793,0,"10_Chat_w.wav",70
Sample,101793,0,"10_shake.wav",70
Sample,101793,0,"10_shakeHat.wav",70
Sample,101896,0,"10_shake_w.wav",70
Sample,102000,0,"10_Ohat.wav",70
Sample,102000,0,"vios_1_A#8.wav",70
Sample,102000,0,"10_shake.wav",70
Sample,102103,0,"10_shake_w.wav",70
Sample,102206,0,"vios_1_F)8.wav",70
Sample,102206,0,"10_SD2.wav",70
Sample,102206,0,"10_shake.wav",70
Sample,102206,0,"10_shakeHat.wav",70
Sample,102206,0,"10_Chat_w.wav",70
Sample,102310,0,"10_shake_w.wav",70
Sample,102413,0,"vios_1_F#)8.wav",70
Sample,102413,0,"10_shake.wav",70
Sample,102413,0,"10_Ohat.wav",70
Sample,102517,0,"10_shake_w.wav",70
Sample,102620,0,"10_shakeHat.wav",70
Sample,102620,0,"vios_2_G#)4.wav",70
Sample,102620,0,"10_shake.wav",70
Sample,102620,0,"10_Chat_w.wav",70
Sample,102724,0,"10_shake_w.wav",70
Sample,102827,0,"10_Ohat.wav",70
Sample,102827,0,"10_shake.wav",70
Sample,102931,0,"10_shake_w.wav",70
Sample,103034,0,"10_shake.wav",70
Sample,103034,0,"10_SD2.wav",70
Sample,103034,0,"vios_2_F#)8.wav",70
Sample,103034,0,"10_shakeHat.wav",70
Sample,103034,0,"10_Chat_w.wav",70
Sample,103137,0,"10_shake_w.wav",70
Sample,103241,0,"vios_2_F)4.wav",70
Sample,103241,0,"10_Ohat.wav",70
Sample,103241,0,"10_shake.wav",70
Sample,103344,0,"10_shake_w.wav",70
Sample,103448,0,"10_Chat_w.wav",70
Sample,103448,0,"10_shake.wav",70
Sample,103448,0,"10_shakeHat.wav",70
Sample,103551,0,"10_shake_w.wav",70
Sample,103655,0,"10_shake.wav",70
Sample,103655,0,"10_Ohat.wav",70
Sample,103655,0,"vios_2_F#)8.wav",70
Sample,103758,0,"10_shake_w.wav",70
Sample,103862,0,"10_Chat_w.wav",70
Sample,103862,0,"vios_2_G#)8.wav",70
Sample,103862,0,"10_shake.wav",70
Sample,103862,0,"10_shakeHat.wav",70
Sample,103862,0,"10_SD2.wav",70
Sample,103965,0,"10_shake_w.wav",70
Sample,104068,0,"vios_2_A#)2+.wav",70
Sample,104068,0,"10_Ohat.wav",70
Sample,104068,0,"10_shake.wav",70
Sample,104172,0,"10_shake_w.wav",70
Sample,104275,0,"10_Chat_w.wav",70
Sample,104275,0,"10_shake.wav",70
Sample,104275,0,"10_shakeHat.wav",70
Sample,104379,0,"10_shake_w.wav",70
Sample,104482,0,"10_shake.wav",70
Sample,104482,0,"10_Ohat.wav",70
Sample,104586,0,"10_shake_w.wav",70
Sample,104689,0,"10_shakeHat.wav",70
Sample,104689,0,"10_SD2.wav",70
Sample,104689,0,"10_Chat_w.wav",70
Sample,104689,0,"10_shake.wav",70
Sample,104793,0,"10_shake_w.wav",70
Sample,104896,0,"10_Ohat.wav",70
Sample,104896,0,"10_shake.wav",70
Sample,105000,0,"10_shake_w.wav",70
Sample,105103,0,"10_Chat_w.wav",70
Sample,105103,0,"10_shakeHat.wav",70
Sample,105103,0,"10_shake.wav",70
Sample,105206,0,"10_SD2.wav",70
Sample,105206,0,"10_shake_w.wav",70
Sample,105310,0,"10_shake.wav",70
Sample,105310,0,"10_Ohat.wav",70
Sample,105310,0,"vios_2_D#)8.wav",70
Sample,105413,0,"10_shake_w.wav",70
Sample,105517,0,"10_shake.wav",70
Sample,105517,0,"vios_2_F#)8.wav",70
Sample,105517,0,"10_Chat_w.wav",70
Sample,105517,0,"10_shakeHat.wav",70
Sample,105620,0,"10_shake_w.wav",70
Sample,105724,0,"vios_2_G#)8.wav",70
Sample,105724,0,"10_shake.wav",70
Sample,105724,0,"10_SD2.wav",70
Sample,105724,0,"10_Ohat.wav",70
Sample,105827,0,"10_shake_w.wav",70
Sample,105931,0,"10_Chat_w.wav",70
Sample,105931,0,"10_shake.wav",70
Sample,105931,0,"vios_2_A#)3.wav",70
Sample,105931,0,"10_shakeHat.wav",70
Sample,106034,0,"10_shake_w.wav",70
Sample,106137,0,"10_shake.wav",70
Sample,106137,0,"10_Ohat.wav",70
Sample,106241,0,"10_shake_w.wav",70
Sample,106344,0,"10_shakeHat.wav",70
Sample,106344,0,"10_shake.wav",70
Sample,106344,0,"10_Chat_w.wav",70
Sample,106344,0,"10_SD2.wav",70
Sample,106448,0,"10_shake_w.wav",70
Sample,106551,0,"10_Ohat.wav",70
Sample,106551,0,"vios_2_G#)8.wav",70
Sample,106551,0,"10_shake.wav",70
Sample,106655,0,"10_shake_w.wav",70
Sample,106758,0,"10_shakeHat.wav",70
Sample,106758,0,"10_Chat_w.wav",70
Sample,106758,0,"10_shake.wav",70
Sample,106758,0,"vios_2_G#)3.wav",70
Sample,106862,0,"10_shake_w.wav",70
Sample,106965,0,"10_shake.wav",70
Sample,106965,0,"10_Ohat.wav",70
Sample,107068,0,"10_shake_w.wav",70
Sample,107172,0,"10_Chat_w.wav",70
Sample,107172,0,"10_SD2.wav",70
Sample,107172,0,"10_shake.wav",70
Sample,107172,0,"10_shakeHat.wav",70
Sample,107275,0,"10_shake_w.wav",70
Sample,107379,0,"vios_2_F#)16.wav",70
Sample,107379,0,"10_shake.wav",70
Sample,107379,0,"10_Ohat.wav",70
Sample,107482,0,"vios_2_G#)16.wav",70
Sample,107482,0,"10_shake_w.wav",70
Sample,107586,0,"10_Chat_w.wav",70
Sample,107586,0,"10_shake.wav",70
Sample,107586,0,"vios_2_A#)6.wav",70
Sample,107586,0,"10_shakeHat.wav",70
Sample,107689,0,"10_shake_w.wav",70
Sample,107793,0,"10_shake.wav",70
Sample,107793,0,"10_Ohat.wav",70
Sample,107896,0,"10_shake_w.wav",70
Sample,107896,0,"vios_2_B)6.wav",70
Sample,108000,0,"10_SD2.wav",70
Sample,108000,0,"10_Chat_w.wav",70
Sample,108000,0,"10_shake.wav",70
Sample,108000,0,"10_shakeHat.wav",70
Sample,108103,0,"10_shake_w.wav",70
Sample,108206,0,"vios_2_A#)8.wav",70
Sample,108206,0,"10_shake.wav",70
Sample,108206,0,"10_Ohat.wav",70
Sample,108310,0,"10_shake_w.wav",70
Sample,108413,0,"10_Chat_w.wav",70
Sample,108413,0,"10_shake.wav",70
Sample,108413,0,"vios_2_G#)4s.wav",70
Sample,108413,0,"10_shakeHat.wav",70
Sample,108517,0,"10_shake_w.wav",70
Sample,108620,0,"10_Ohat.wav",70
Sample,108620,0,"10_shake.wav",70
Sample,108724,0,"10_shake_w.wav",70
Sample,108827,0,"vios_2_F)4.wav",70
Sample,108827,0,"10_SD2.wav",70
Sample,108827,0,"10_shake.wav",70
Sample,108827,0,"10_Chat_w.wav",70
Sample,108827,0,"10_shakeHat.wav",70
Sample,108931,0,"10_shake_w.wav",70
Sample,109034,0,"10_Ohat.wav",70
Sample,109034,0,"10_shake.wav",70
Sample,109137,0,"10_shake_w.wav",70
Sample,109241,0,"10_Chat_w.wav",70
Sample,109241,0,"10_shake.wav",70
Sample,109241,0,"vios_2_F)3.wav",70
Sample,109241,0,"10_shakeHat.wav",70
Sample,109344,0,"10_shake_w.wav",70
Sample,109448,0,"10_shake.wav",70
Sample,109448,0,"10_Ohat.wav",70
Sample,109551,0,"10_shake_w.wav",70
Sample,109551,0,"10_shakeHat.wav",70
Sample,109655,0,"10_shake.wav",70
Sample,109655,0,"10_SD2.wav",70
Sample,109655,0,"10_Chat_w.wav",70
Sample,109758,0,"10_shake_w.wav",70
Sample,109862,0,"10_shakeHat.wav",70
Sample,109862,0,"vios_2_F#)8.wav",70
Sample,109862,0,"10_shake.wav",70
Sample,109862,0,"10_Ohat.wav",70
Sample,109965,0,"10_shake_w.wav",70
Sample,110068,0,"10_shakeHat.wav",70
Sample,110068,0,"vios_2_D#)L.wav",70
Sample,110068,0,"10_Chat_w.wav",70
Sample,110068,0,"10_shake.wav",70
Sample,110172,0,"10_shake_w.wav",70
Sample,110275,0,"10_Ohat.wav",70
Sample,110275,0,"10_shake.wav",70
Sample,110379,0,"10_shakeHat.wav",70
Sample,110379,0,"10_shake_w.wav",70
Sample,110482,0,"10_shake.wav",70
Sample,110482,0,"10_Chat_w.wav",70
Sample,110482,0,"10_SD3.wav",70
Sample,110586,0,"10_shake_w.wav",70
Sample,110689,0,"10_SD2.wav",70
Sample,110689,0,"10_Ohat.wav",70
Sample,110689,0,"10_shake.wav",70
Sample,110689,0,"10_shakeHat.wav",70
Sample,110793,0,"10_SD2.wav",70
Sample,110793,0,"10_shake_w.wav",70
Sample,110896,0,"10_shakeHat.wav",70
Sample,110896,0,"10_BD.wav",70
Sample,110896,0,"10_shake.wav",70
Sample,110896,0,"10_Chat.wav",70
Sample,111000,0,"10_shake_w.wav",70
Sample,111000,0,"10_Chat.wav",70
Sample,111103,0,"10_shake.wav",70
Sample,111103,0,"10_Chat_w.wav",70
Sample,111103,0,"10_SD2.wav",70
Sample,111206,0,"10_shake_w.wav",70
Sample,111206,0,"10_Chat.wav",70
Sample,111206,0,"10_shakeHat.wav",70
Sample,111310,0,"10_Chat.wav",70
Sample,111310,0,"10_SD2.wav",70
Sample,111310,0,"10_shake.wav",70
Sample,111310,0,"10_BD.wav",70
Sample,111413,0,"10_Chat.wav",70
Sample,111413,0,"10_shake_w.wav",70
Sample,111517,0,"10_shakeHat.wav",70
Sample,111517,0,"10_SD2.wav",70
Sample,111517,0,"10_shake.wav",70
Sample,111517,0,"10_Chat_w.wav",70
Sample,111620,0,"10_shake_w.wav",70
Sample,111620,0,"10_Chat.wav",70
Sample,111724,0,"10_shake.wav",70
Sample,111724,0,"10_BD.wav",70
Sample,111724,0,"10_Chat.wav",70
Sample,111724,0,"10_shakeHat.wav",70
Sample,111827,0,"10_shake_w.wav",70
Sample,111827,0,"10_Chat.wav",70
Sample,111827,0,"10_BD.wav",70
Sample,111931,0,"10_Chat_w.wav",70
Sample,111931,0,"10_shake.wav",70
Sample,112034,0,"10_shakeHat.wav",70
Sample,112034,0,"10_Chat.wav",70
Sample,112034,0,"10_shake_w.wav",70
Sample,112137,0,"10_BD.wav",70
Sample,112137,0,"10_Chat.wav",70
Sample,112137,0,"10_shake.wav",70
Sample,112241,0,"10_shake_w.wav",70
Sample,112241,0,"10_Chat.wav",70
Sample,112344,0,"10_shakeHat.wav",70
Sample,112344,0,"10_BD.wav",70
Sample,112344,0,"10_shake.wav",70
Sample,112344,0,"10_Chat_w.wav",70
Sample,112448,0,"10_shake_w.wav",70
Sample,112448,0,"10_BD.wav",70
Sample,112448,0,"10_Chat.wav",70
Sample,112551,0,"10_shakeHat.wav",70
Sample,112551,0,"10_Chat.wav",70
Sample,112551,0,"tbgm_06.wav",70
Sample,112655,0,"10_Chat.wav",70
Sample,112758,0,"10_Chat_w.wav",70
Sample,112862,0,"10_shakeHat.wav",70
Sample,112862,0,"10_Chat.wav",70
Sample,112965,0,"10_Chat.wav",70
Sample,113068,0,"10_Chat.wav",70
Sample,113172,0,"10_Chat_w.wav",70
Sample,113172,0,"10_shakeHat.wav",70
Sample,113275,0,"10_Chat.wav",70
Sample,113379,0,"10_Chat.wav",70
Sample,113379,0,"10_shakeHat.wav",70
Sample,113482,0,"10_Chat.wav",70
Sample,113586,0,"10_Chat_w.wav",70
Sample,113689,0,"10_Chat.wav",70
Sample,113689,0,"10_shakeHat.wav",70
Sample,113793,0,"10_Chat.wav",70
Sample,113896,0,"10_Chat.wav",70
Sample,114000,0,"10_shakeHat.wav",70
Sample,114000,0,"10_Chat_w.wav",70
Sample,114103,0,"10_Chat.wav",70
Sample,114206,0,"10_Chat.wav",70
Sample,114206,0,"10_shakeHat.wav",70
Sample,114310,0,"10_Chat.wav",70
Sample,114413,0,"10_shakeHat.wav",70
Sample,114413,0,"10_Chat_w.wav",70
Sample,114517,0,"10_Chat.wav",70
Sample,114620,0,"10_Chat.wav",70
Sample,114620,0,"10_shakeHat.wav",70
Sample,114724,0,"10_Chat.wav",70
Sample,114827,0,"10_shakeHat.wav",70
Sample,114827,0,"10_Chat_w.wav",70
Sample,114931,0,"10_Chat.wav",70
Sample,115034,0,"10_Chat.wav",70
Sample,115034,0,"10_shakeHat.wav",70
Sample,115137,0,"10_Chat.wav",70
Sample,115241,0,"10_shakeHat.wav",70
Sample,115241,0,"10_Chat_w.wav",70
Sample,115344,0,"10_Chat.wav",70
Sample,115448,0,"10_Chat.wav",70
Sample,115448,0,"10_shakeHat.wav",70
Sample,115551,0,"10_Chat.wav",70
Sample,115655,0,"10_shakeHat.wav",70
Sample,115655,0,"10_Chat_w.wav",70
Sample,115758,0,"10_Chat.wav",70
Sample,115862,0,"10_Chat.wav",70
Sample,115862,0,"harpsi_1_G#.wav",70
Sample,115862,0,"10_BD.wav",70
Sample,115862,0,"piano_in_C#F#G#.wav",70
Sample,115862,0,"10_shake.wav",70
Sample,115862,0,"tbgm_02.wav",70
Sample,115965,0,"10_Chat.wav",70
Sample,115965,0,"10_shake_w.wav",70
Sample,115965,0,"harpsi_1_F#.wav",70
Sample,116068,0,"piano_in_C#F#G#.wav",70
Sample,116068,0,"10_shake_w.wav",70
Sample,116068,0,"harpsi_1_G#.wav",70
Sample,116068,0,"10_Chat.wav",70
Sample,116172,0,"10_shake_w.wav",70
Sample,116172,0,"harpsi_1_C#).wav",70
Sample,116275,0,"10_SD2.wav",70
Sample,116275,0,"10_BD.wav",70
Sample,116275,0,"piano_in_C#F#G#.wav",70
Sample,116275,0,"10_shake.wav",70
Sample,116275,0,"10_Chat.wav",70
Sample,116275,0,"harpsi_1_G#.wav",70
Sample,116379,0,"10_shake_w.wav",70
Sample,116379,0,"harpsi_1_F#.wav",70
Sample,116482,0,"piano_in_C#EG#.wav",70
Sample,116482,0,"10_shake_w.wav",70
Sample,116482,0,"harpsi_1_C#.wav",70
Sample,116482,0,"10_Chat.wav",70
Sample,116586,0,"10_shake_w.wav",70
Sample,116586,0,"harpsi_1_F#.wav",70
Sample,116689,0,"piano_in_C#EG#.wav",70
Sample,116689,0,"10_shake.wav",70
Sample,116689,0,"harpsi_1_G#.wav",70
Sample,116689,0,"10_Chat.wav",70
Sample,116689,0,"10_BD.wav",70
Sample,116793,0,"harpsi_1_C#).wav",70
Sample,116793,0,"10_shake_w.wav",70
Sample,116793,0,"10_Chat.wav",70
Sample,116896,0,"harpsi_1_G#.wav",70
Sample,116896,0,"10_shake_w.wav",70
Sample,116896,0,"10_Chat.wav",70
Sample,116896,0,"piano_in_C#EG#.wav",70
Sample,117000,0,"10_shake_w.wav",70
Sample,117000,0,"harpsi_1_F#.wav",70
Sample,117103,0,"10_BD.wav",70
Sample,117103,0,"10_SD2.wav",70
Sample,117103,0,"10_Chat.wav",70
Sample,117103,0,"piano_in_C#EG#.wav",70
Sample,117103,0,"harpsi_1_C#.wav",70
Sample,117103,0,"10_shake.wav",70
Sample,117206,0,"harpsi_1_F#.wav",70
Sample,117206,0,"10_shake_w.wav",70
Sample,117310,0,"harpsi_1_G#.wav",70
Sample,117310,0,"10_shake_w.wav",70
Sample,117310,0,"10_Chat.wav",70
Sample,117310,0,"piano_in_C#D#G#.wav",70
Sample,117413,0,"harpsi_1_C#).wav",70
Sample,117413,0,"10_shake_w.wav",70
Sample,117517,0,"10_Chat.wav",70
Sample,117517,0,"harpsi_1_G#.wav",70
Sample,117517,0,"10_BD.wav",70
Sample,117517,0,"piano_in_C#D#G#.wav",70
Sample,117517,0,"10_shake.wav",70
Sample,117620,0,"10_Chat.wav",70
Sample,117620,0,"harpsi_1_F#.wav",70
Sample,117620,0,"10_shake_w.wav",70
Sample,117724,0,"10_shake_w.wav",70
Sample,117724,0,"piano_in_C#D#G#.wav",70
Sample,117724,0,"10_Chat.wav",70
Sample,117724,0,"harpsi_1_C#.wav",70
Sample,117827,0,"harpsi_1_F#.wav",70
Sample,117827,0,"10_shake_w.wav",70
Sample,117931,0,"10_BD.wav",70
Sample,117931,0,"10_SD2.wav",70
Sample,117931,0,"10_shake.wav",70
Sample,117931,0,"10_Chat.wav",70
Sample,117931,0,"piano_in_C#D#G#.wav",70
Sample,117931,0,"harpsi_1_G#.wav",70
Sample,118034,0,"harpsi_1_C#).wav",70
Sample,118034,0,"10_shake_w.wav",70
Sample,118137,0,"10_shake_w.wav",70
Sample,118137,0,"10_Chat.wav",70
Sample,118137,0,"harpsi_1_G#.wav",70
Sample,118137,0,"piano_in_C#EG#.wav",70
Sample,118241,0,"harpsi_1_F#.wav",70
Sample,118241,0,"10_shake_w.wav",70
Sample,118344,0,"harpsi_1_C#.wav",70
Sample,118344,0,"10_BD.wav",70
Sample,118344,0,"10_Chat.wav",70
Sample,118344,0,"piano_in_C#EG#.wav",70
Sample,118344,0,"10_shake.wav",70
Sample,118448,0,"10_Chat.wav",70
Sample,118448,0,"harpsi_1_F#.wav",70
Sample,118448,0,"10_shake_w.wav",70
Sample,118551,0,"10_shake_w.wav",70
Sample,118551,0,"piano_in_C#EG#.wav",70
Sample,118551,0,"harpsi_1_G#.wav",70
Sample,118551,0,"10_Chat.wav",70
Sample,118655,0,"harpsi_1_C#).wav",70
Sample,118655,0,"10_shake_w.wav",70
Sample,118758,0,"10_BD.wav",70
Sample,118758,0,"10_SD2.wav",70
Sample,118758,0,"10_shake.wav",70
Sample,118758,0,"piano_in_C#EG#.wav",70
Sample,118758,0,"harpsi_1_G#.wav",70
Sample,118758,0,"10_Chat.wav",70
Sample,118862,0,"harpsi_1_F#.wav",70
Sample,118862,0,"10_shake_w.wav",70
Sample,118965,0,"10_shake_w.wav",70
Sample,118965,0,"10_Chat.wav",70
Sample,118965,0,"harpsi_1_C#.wav",70
Sample,118965,0,"piano_in_C#F#G#.wav",70
Sample,119068,0,"harpsi_1_F#.wav",70
Sample,119068,0,"10_shake_w.wav",70
Sample,119172,0,"10_Chat.wav",70
Sample,119172,0,"harpsi_2_G#).wav",70
Sample,119172,0,"10_BD.wav",70
Sample,119172,0,"piano_in_C#F#G#.wav",70
Sample,119172,0,"10_shake.wav",70
Sample,119275,0,"10_Chat.wav",70
Sample,119275,0,"harpsi_2_F#).wav",70
Sample,119275,0,"10_shake_w.wav",70
Sample,119379,0,"10_shake_w.wav",70
Sample,119379,0,"piano_in_C#F#G#.wav",70
Sample,119379,0,"10_Chat.wav",70
Sample,119379,0,"harpsi_2_G#).wav",70
Sample,119482,0,"harpsi_2_C#)).wav",70
Sample,119482,0,"10_shake_w.wav",70
Sample,119586,0,"10_BD.wav",70
Sample,119586,0,"10_SD2.wav",70
Sample,119586,0,"10_shake.wav",70
Sample,119586,0,"10_Chat.wav",70
Sample,119586,0,"piano_in_C#F#G#.wav",70
Sample,119586,0,"harpsi_2_G#).wav",70
Sample,119689,0,"harpsi_2_F#).wav",70
Sample,119689,0,"10_shake_w.wav",70
Sample,119793,0,"10_shake_w.wav",70
Sample,119793,0,"piano_in_C#EG#.wav",70
Sample,119793,0,"10_Chat.wav",70
Sample,119793,0,"harpsi_1_C#).wav",70
Sample,119896,0,"harpsi_2_F#).wav",70
Sample,119896,0,"10_shake_w.wav",70
Sample,120000,0,"harpsi_2_G#).wav",70
Sample,120000,0,"10_Chat.wav",70
Sample,120000,0,"piano_in_C#EG#.wav",70
Sample,120000,0,"10_BD.wav",70
Sample,120000,0,"10_shake.wav",70
Sample,120103,0,"10_Chat.wav",70
Sample,120103,0,"harpsi_2_C#)).wav",70
Sample,120103,0,"10_shake_w.wav",70
Sample,120206,0,"10_shake_w.wav",70
Sample,120206,0,"harpsi_2_G#).wav",70
Sample,120206,0,"piano_in_C#EG#.wav",70
Sample,120206,0,"10_Chat.wav",70
Sample,120310,0,"harpsi_2_F#).wav",70
Sample,120310,0,"10_shake_w.wav",70
Sample,120413,0,"piano_in_C#EG#.wav",70
Sample,120413,0,"10_SD2.wav",70
Sample,120413,0,"10_shake.wav",70
Sample,120413,0,"10_BD.wav",70
Sample,120413,0,"harpsi_1_C#).wav",70
Sample,120413,0,"10_Chat.wav",70
Sample,120517,0,"harpsi_2_F#).wav",70
Sample,120517,0,"10_shake_w.wav",70
Sample,120620,0,"10_shake_w.wav",70
Sample,120620,0,"10_Chat.wav",70
Sample,120620,0,"piano_in_C#D#G#.wav",70
Sample,120620,0,"harpsi_2_G#).wav",70
Sample,120724,0,"harpsi_2_C#)).wav",70
Sample,120724,0,"10_shake_w.wav",70
Sample,120827,0,"10_BD.wav",70
Sample,120827,0,"10_Chat.wav",70
Sample,120827,0,"harpsi_2_G#).wav",70
Sample,120827,0,"10_shake.wav",70
Sample,120827,0,"piano_in_C#D#G#.wav",70
Sample,120827,0,"tbgm_02a.wav",70
Sample,120931,0,"10_Chat.wav",70
Sample,120931,0,"harpsi_2_F#).wav",70
Sample,120931,0,"10_shake_w.wav",70
Sample,121034,0,"10_Chat.wav",70
Sample,121034,0,"harpsi_1_C#).wav",70
Sample,121034,0,"10_shake_w.wav",70
Sample,121034,0,"piano_in_C#D#G#.wav",70
Sample,121137,0,"harpsi_2_F#).wav",70
Sample,121137,0,"10_shake_w.wav",70
Sample,121241,0,"10_SD2.wav",70
Sample,121241,0,"10_BD.wav",70
Sample,121241,0,"harpsi_2_G#).wav",70
Sample,121241,0,"piano_in_C#D#G#.wav",70
Sample,121241,0,"10_shake.wav",70
Sample,121241,0,"10_Chat.wav",70
Sample,121344,0,"10_shake_w.wav",70
Sample,121344,0,"harpsi_2_C#)).wav",70
Sample,121448,0,"harpsi_2_G#).wav",70
Sample,121448,0,"10_Chat.wav",70
Sample,121448,0,"10_shake_w.wav",70
Sample,121448,0,"piano_in_C#EG#.wav",70
Sample,121551,0,"10_shake_w.wav",70
Sample,121551,0,"harpsi_2_F#).wav",70
Sample,121655,0,"10_BD.wav",70
Sample,121655,0,"harpsi_1_C#).wav",70
Sample,121655,0,"piano_in_C#EG#.wav",70
Sample,121655,0,"10_Chat.wav",70
Sample,121655,0,"10_SD2.wav",70
Sample,121655,0,"10_shake.wav",70
Sample,121758,0,"harpsi_2_F#).wav",70
Sample,121758,0,"10_Chat.wav",70
Sample,121758,0,"10_shake_w.wav",70
Sample,121862,0,"10_Chat.wav",70
Sample,121862,0,"10_shake_w.wav",70
Sample,121862,0,"harpsi_2_G#).wav",70
Sample,121862,0,"piano_in_C#EG#.wav",70
Sample,121965,0,"10_shake_w.wav",70
Sample,121965,0,"harpsi_2_C#)).wav",70
Sample,122068,0,"10_Chat.wav",70
Sample,122068,0,"10_shake.wav",70
Sample,122068,0,"10_BD.wav",70
Sample,122068,0,"harpsi_2_G#).wav",70
Sample,122068,0,"piano_in_C#EG#.wav",70
Sample,122172,0,"harpsi_2_F#).wav",70
Sample,122172,0,"10_shake_w.wav",70
Sample,122275,0,"harpsi_1_C#).wav",70
Sample,122275,0,"10_Chat.wav",70
Sample,122275,0,"piano_in_C#F#G#.wav",70
Sample,122275,0,"10_SD2.wav",70
Sample,122275,0,"10_shake_w.wav",70
Sample,122379,0,"harpsi_2_F#).wav",70
Sample,122379,0,"10_shake_w.wav",70
Sample,122482,0,"10_shake.wav",70
Sample,122482,0,"pad2.wav",70
Sample,122482,0,"10_BD.wav",70
Sample,122482,0,"piano_in_C#F#G#.wav",70
Sample,122482,0,"tbgm_02.wav",70
Sample,122482,0,"10_Chat.wav",70
Sample,122482,0,"harpsi_1_G#.wav",70
Sample,122586,0,"harpsi_1_F#.wav",70
Sample,122586,0,"10_shake_w.wav",70
Sample,122586,0,"10_Chat.wav",70
Sample,122586,0,"pad6.wav",70
Sample,122689,0,"10_shake_w.wav",70
Sample,122689,0,"10_Chat.wav",70
Sample,122689,0,"piano_in_C#F#G#.wav",70
Sample,122689,0,"harpsi_1_G#.wav",70
Sample,122793,0,"harpsi_1_C#).wav",70
Sample,122793,0,"10_shake_w.wav",70
Sample,122896,0,"10_Chat.wav",70
Sample,122896,0,"10_shake.wav",70
Sample,122896,0,"harpsi_1_G#.wav",70
Sample,122896,0,"piano_in_C#F#G#.wav",70
Sample,122896,0,"10_BD.wav",70
Sample,122896,0,"10_SD2.wav",70
Sample,123000,0,"10_shake_w.wav",70
Sample,123000,0,"harpsi_1_F#.wav",70
Sample,123103,0,"10_shake_w.wav",70
Sample,123103,0,"harpsi_1_C#.wav",70
Sample,123103,0,"10_Chat.wav",70
Sample,123103,0,"piano_in_C#EG#.wav",70
Sample,123206,0,"10_shake_w.wav",70
Sample,123206,0,"harpsi_1_F#.wav",70
Sample,123310,0,"piano_in_C#EG#.wav",70
Sample,123310,0,"10_shake.wav",70
Sample,123310,0,"10_Chat.wav",70
Sample,123310,0,"harpsi_1_G#.wav",70
Sample,123310,0,"10_BD.wav",70
Sample,123413,0,"10_Chat.wav",70
Sample,123413,0,"harpsi_1_C#).wav",70
Sample,123413,0,"10_shake_w.wav",70
Sample,123517,0,"10_Chat.wav",70
Sample,123517,0,"piano_in_C#EG#.wav",70
Sample,123517,0,"10_shake_w.wav",70
Sample,123517,0,"harpsi_1_G#.wav",70
Sample,123620,0,"harpsi_1_F#.wav",70
Sample,123620,0,"10_shake_w.wav",70
Sample,123724,0,"harpsi_1_C#.wav",70
Sample,123724,0,"piano_in_C#EG#.wav",70
Sample,123724,0,"10_shake.wav",70
Sample,123724,0,"10_SD2.wav",70
Sample,123724,0,"10_BD.wav",70
Sample,123724,0,"10_Chat.wav",70
Sample,123827,0,"10_shake_w.wav",70
Sample,123827,0,"harpsi_1_F#.wav",70
Sample,123931,0,"10_shake_w.wav",70
Sample,123931,0,"harpsi_1_G#.wav",70
Sample,123931,0,"10_Chat.wav",70
Sample,123931,0,"piano_in_C#D#G#.wav",70
Sample,124034,0,"10_shake_w.wav",70
Sample,124034,0,"harpsi_1_C#).wav",70
Sample,124137,0,"10_Chat.wav",70
Sample,124137,0,"harpsi_1_G#.wav",70
Sample,124137,0,"10_BD.wav",70
Sample,124137,0,"piano_in_C#D#G#.wav",70
Sample,124137,0,"10_shake.wav",70
Sample,124241,0,"10_Chat.wav",70
Sample,124241,0,"harpsi_1_F#.wav",70
Sample,124241,0,"10_shake_w.wav",70
Sample,124344,0,"10_shake_w.wav",70
Sample,124344,0,"10_Chat.wav",70
Sample,124344,0,"piano_in_C#D#G#.wav",70
Sample,124344,0,"harpsi_1_C#.wav",70
Sample,124448,0,"10_shake_w.wav",70
Sample,124448,0,"harpsi_1_F#.wav",70
Sample,124551,0,"10_BD.wav",70
Sample,124551,0,"10_SD2.wav",70
Sample,124551,0,"piano_in_C#D#G#.wav",70
Sample,124551,0,"harpsi_1_G#.wav",70
Sample,124551,0,"10_Chat.wav",70
Sample,124551,0,"10_shake.wav",70
Sample,124655,0,"10_shake_w.wav",70
Sample,124655,0,"harpsi_1_C#).wav",70
Sample,124758,0,"10_shake_w.wav",70
Sample,124758,0,"harpsi_1_G#.wav",70
Sample,124758,0,"10_Chat.wav",70
Sample,124758,0,"piano_in_C#EG#.wav",70
Sample,124862,0,"10_shake_w.wav",70
Sample,124862,0,"harpsi_1_F#.wav",70
Sample,124965,0,"10_BD.wav",70
Sample,124965,0,"harpsi_1_C#.wav",70
Sample,124965,0,"10_Chat.wav",70
Sample,124965,0,"piano_in_C#EG#.wav",70
Sample,124965,0,"10_shake.wav",70
Sample,125068,0,"harpsi_1_F#.wav",70
Sample,125068,0,"10_Chat.wav",70
Sample,125068,0,"10_shake_w.wav",70
Sample,125172,0,"10_shake_w.wav",70
Sample,125172,0,"10_Chat.wav",70
Sample,125172,0,"harpsi_1_G#.wav",70
Sample,125172,0,"piano_in_C#EG#.wav",70
Sample,125275,0,"10_shake_w.wav",70
Sample,125275,0,"harpsi_1_C#).wav",70
Sample,125379,0,"10_BD.wav",70
Sample,125379,0,"10_SD2.wav",70
Sample,125379,0,"10_Chat.wav",70
Sample,125379,0,"harpsi_1_G#.wav",70
Sample,125379,0,"piano_in_C#EG#.wav",70
Sample,125379,0,"10_shake.wav",70
Sample,125482,0,"10_shake_w.wav",70
Sample,125482,0,"harpsi_1_F#.wav",70
Sample,125586,0,"10_shake_w.wav",70
Sample,125586,0,"10_Chat.wav",70
Sample,125586,0,"piano_in_C#F#G#.wav",70
Sample,125586,0,"harpsi_1_C#.wav",70
Sample,125689,0,"10_shake_w.wav",70
Sample,125689,0,"harpsi_1_F#.wav",70
Sample,125793,0,"10_Chat.wav",70
Sample,125793,0,"harpsi_2_G#).wav",70
Sample,125793,0,"10_BD.wav",70
Sample,125793,0,"piano_in_C#F#G#.wav",70
Sample,125793,0,"10_shake.wav",70
Sample,125896,0,"harpsi_2_F#).wav",70
Sample,125896,0,"10_Chat.wav",70
Sample,125896,0,"10_shake_w.wav",70
Sample,126000,0,"10_shake_w.wav",70
Sample,126000,0,"piano_in_C#F#G#.wav",70
Sample,126000,0,"10_Chat.wav",70
Sample,126000,0,"harpsi_2_G#).wav",70
Sample,126103,0,"10_shake_w.wav",70
Sample,126103,0,"harpsi_2_C#)).wav",70
Sample,126206,0,"piano_in_C#F#G#.wav",70
Sample,126206,0,"10_BD.wav",70
Sample,126206,0,"10_SD2.wav",70
Sample,126206,0,"10_Chat.wav",70
Sample,126206,0,"harpsi_2_G#).wav",70
Sample,126206,0,"10_shake.wav",70
Sample,126310,0,"10_shake_w.wav",70
Sample,126310,0,"harpsi_2_F#).wav",70
Sample,126413,0,"10_shake_w.wav",70
Sample,126413,0,"piano_in_C#EG#.wav",70
Sample,126413,0,"harpsi_1_C#).wav",70
Sample,126413,0,"10_Chat.wav",70
Sample,126517,0,"10_shake_w.wav",70
Sample,126517,0,"harpsi_2_F#).wav",70
Sample,126620,0,"piano_in_C#EG#.wav",70
Sample,126620,0,"10_BD.wav",70
Sample,126620,0,"10_Chat.wav",70
Sample,126620,0,"harpsi_2_G#).wav",70
Sample,126620,0,"10_shake.wav",70
Sample,126724,0,"harpsi_2_C#)).wav",70
Sample,126724,0,"10_Chat.wav",70
Sample,126724,0,"10_shake_w.wav",70
Sample,126827,0,"10_shake_w.wav",70
Sample,126827,0,"piano_in_C#EG#.wav",70
Sample,126827,0,"harpsi_2_G#).wav",70
Sample,126827,0,"10_Chat.wav",70
Sample,126931,0,"10_shake_w.wav",70
Sample,126931,0,"harpsi_2_F#).wav",70
Sample,127034,0,"piano_in_C#EG#.wav",70
Sample,127034,0,"10_Chat.wav",70
Sample,127034,0,"10_SD3.wav",70
Sample,127034,0,"10_BD.wav",70
Sample,127034,0,"harpsi_1_C#).wav",70
Sample,127034,0,"10_shake.wav",70
Sample,127137,0,"10_shake_w.wav",70
Sample,127137,0,"harpsi_2_F#).wav",70
Sample,127241,0,"10_SD2.wav",70
Sample,127241,0,"harpsi_2_G#).wav",70
Sample,127241,0,"piano_in_C#D#G#.wav",70
Sample,127241,0,"10_Chat.wav",70
Sample,127241,0,"10_shake_w.wav",70
Sample,127344,0,"harpsi_2_C#)).wav",70
Sample,127344,0,"10_SD2.wav",70
Sample,127344,0,"10_shake_w.wav",70
Sample,127448,0,"tbgm_02b.wav",70
Sample,127448,0,"harpsi_2_G#).wav",70
Sample,127448,0,"10_SD1.wav",70
Sample,127448,0,"guit_C#.wav",70
Sample,127551,0,"harpsi_2_F#).wav",70
Sample,127655,0,"guit_G#(.wav",70
Sample,127655,0,"harpsi_1_C#).wav",70
Sample,127655,0,"10_SD2.wav",70
Sample,127758,0,"harpsi_2_F#).wav",70
Sample,127862,0,"harpsi_2_G#).wav",70
Sample,127862,0,"10_SD2.wav",70
Sample,127862,0,"guit_D#.wav",70
Sample,127965,0,"harpsi_2_C#)).wav",70
Sample,128068,0,"guit_C#.wav",70
Sample,128068,0,"harpsi_2_G#).wav",70
Sample,128068,0,"10_SD2.wav",70
Sample,128172,0,"harpsi_2_F#).wav",70
Sample,128275,0,"guit_G#(.wav",70
Sample,128275,0,"10_SD2.wav",70
Sample,128275,0,"harpsi_1_C#).wav",70
Sample,128379,0,"10_SD1.wav",70
Sample,128379,0,"harpsi_2_F#).wav",70
Sample,128482,0,"guit_G#.wav",70
Sample,128482,0,"10_SD1.wav",70
Sample,128482,0,"harpsi_2_G#).wav",70
Sample,128586,0,"harpsi_2_C#)).wav",70
Sample,128689,0,"10_SD2.wav",70
Sample,128689,0,"harpsi_2_G#).wav",70
Sample,128689,0,"guit_D#.wav",70
Sample,128793,0,"harpsi_2_F#).wav",70
Sample,128896,0,"guit_C#.wav",70
Sample,128896,0,"10_SD3.wav",70
Sample,128896,0,"harpsi_1_C#).wav",70
Sample,129000,0,"harpsi_2_F#).wav",70
Sample,129000,0,"10_SD2.wav",70
Sample,129103,0,"_fadeout.wav",70
//Background Colour Transformations
3,100,163,162,255

[TimingPoints]
0,413.793103448276,4,2,0,70,1,0
0,-100,1,2,0,70,0,0
1655,-100,4,2,0,70,0,0

[HitObjects]
96,192,3310,128,0,6413:0:0:0:0:piano_in1.wav
480,192,5896,1,0,0:0:0:0:10_SD2.wav
480,192,6103,1,0,0:0:0:0:10_SD2.wav
480,192,6413,1,0,0:0:0:0:10_SD2.wav
480,192,6517,1,0,0:0:0:0:10_SD2.wav
224,192,6620,1,0,0:0:0:0:intbr_01.wav
288,192,6620,1,0,0:0:0:0:guit_C#1.wav
224,192,6827,1,0,0:0:0:0:intbr_01.wav
352,192,6827,1,0,0:0:0:0:guit_G#(.wav
224,192,7034,1,0,0:0:0:0:intbr_01.wav
416,192,7034,1,0,0:0:0:0:guit_C#.wav
160,192,7241,1,0,0:0:0:0:intbr_02.wav
352,192,7241,1,0,0:0:0:0:guit_G#(.wav
160,192,7448,1,0,0:0:0:0:intbr_02.wav
416,192,7448,1,0,0:0:0:0:guit_D#.wav
160,192,7655,1,0,0:0:0:0:intbr_02.wav
352,192,7655,1,0,0:0:0:0:guit_C#.wav
160,192,7862,1,0,0:0:0:0:intbr_02.wav
288,192,7862,1,0,0:0:0:0:guit_G#(.wav
96,192,8068,1,0,0:0:0:0:intbr_03.wav
480,192,8068,1,0,0:0:0:0:guit_G#.wav
96,192,8275,1,0,0:0:0:0:intbr_03.wav
352,192,8275,1,0,0:0:0:0:guit_C#.wav
96,192,8482,1,0,0:0:0:0:intbr_03.wav
224,192,8482,1,0,0:0:0:0:guit_G#(.wav
96,192,8689,1,0,0:0:0:0:intbr_03.wav
416,192,8689,1,0,0:0:0:0:guit_D#.wav
160,192,8896,1,0,0:0:0:0:intbr_02.wav
352,192,8896,1,0,0:0:0:0:guit_C#.wav
160,192,9103,1,0,0:0:0:0:intbr_02.wav
288,192,9103,1,0,0:0:0:0:guit_G#(.wav
160,192,9310,1,0,0:0:0:0:intbr_02.wav
480,192,9310,1,0,0:0:0:0:guit_G#.wav
160,192,9517,1,0,0:0:0:0:intbr_02.wav
416,192,9517,1,0,0:0:0:0:guit_D#.wav
224,192,9724,1,0,0:0:0:0:intbr_01.wav
352,192,9724,1,0,0:0:0:0:guit_C#.wav
224,192,9931,1,0,0:0:0:0:intbr_01.wav
288,192,9931,1,0,0:0:0:0:guit_C#1.wav
224,192,10137,1,0,0:0:0:0:intbr_01.wav
352,192,10137,1,0,0:0:0:0:guit_G#(.wav
224,192,10344,1,0,0:0:0:0:intbr_01.wav
416,192,10344,1,0,0:0:0:0:guit_C#.wav
160,192,10551,1,0,0:0:0:0:intbr_02.wav
352,192,10551,1,0,0:0:0:0:guit_G#(.wav
160,192,10758,1,0,0:0:0:0:intbr_02.wav
416,192,10758,1,0,0:0:0:0:guit_D#.wav
160,192,10965,1,0,0:0:0:0:intbr_02.wav
352,192,10965,1,0,0:0:0:0:guit_C#.wav
160,192,11172,1,0,0:0:0:0:intbr_02.wav
288,192,11172,1,0,0:0:0:0:guit_G#(.wav
96,192,11379,1,0,0:0:0:0:intbr_03.wav
480,192,11379,1,0,0:0:0:0:guit_G#.wav
96,192,11586,1,0,0:0:0:0:intbr_03.wav
352,192,11586,1,0,0:0:0:0:guit_C#.wav
96,192,11793,1,0,0:0:0:0:intbr_03.wav
224,192,11793,1,0,0:0:0:0:guit_G#(.wav
96,192,12000,1,0,0:0:0:0:intbr_03.wav
416,192,12000,1,0,0:0:0:0:guit_D#.wav
160,192,12206,1,0,0:0:0:0:intbr_02.wav
352,192,12206,1,0,0:0:0:0:guit_C#.wav
160,192,12413,1,0,0:0:0:0:intbr_02.wav
288,192,12413,1,0,0:0:0:0:guit_G#(.wav
160,192,12620,1,0,0:0:0:0:intbr_02.wav
480,192,12620,1,0,0:0:0:0:guit_G#.wav
160,192,12827,1,0,0:0:0:0:intbr_02.wav
416,192,12827,1,0,0:0:0:0:guit_D#.wav
224,192,13034,1,0,0:0:0:0:intbr_01.wav
352,192,13034,1,0,0:0:0:0:guit_C#.wav
224,192,13241,1,0,0:0:0:0:intbr_01.wav
288,192,13241,1,0,0:0:0:0:guit_C#1.wav
224,192,13448,1,0,0:0:0:0:intbr_01.wav
352,192,13448,1,0,0:0:0:0:guit_G#(.wav
224,192,13655,1,0,0:0:0:0:intbr_01.wav
416,192,13655,1,0,0:0:0:0:guit_C#.wav
160,192,13862,1,0,0:0:0:0:intbr_02.wav
352,192,13862,1,0,0:0:0:0:guit_G#(.wav
160,192,14068,1,0,0:0:0:0:intbr_02.wav
416,192,14068,1,0,0:0:0:0:guit_D#.wav
160,192,14275,1,0,0:0:0:0:intbr_02.wav
352,192,14275,1,0,0:0:0:0:guit_C#.wav
160,192,14482,1,0,0:0:0:0:intbr_02.wav
288,192,14482,1,0,0:0:0:0:guit_G#(.wav
96,192,14689,1,0,0:0:0:0:intbr_03.wav
480,192,14689,1,0,0:0:0:0:guit_G#.wav
96,192,14896,1,0,0:0:0:0:intbr_03.wav
352,192,14896,1,0,0:0:0:0:guit_C#.wav
96,192,15103,1,0,0:0:0:0:intbr_03.wav
224,192,15103,1,0,0:0:0:0:guit_G#(.wav
96,192,15310,1,0,0:0:0:0:intbr_03.wav
416,192,15310,1,0,0:0:0:0:guit_D#.wav
160,192,15517,1,0,0:0:0:0:intbr_02.wav
352,192,15517,1,0,0:0:0:0:guit_C#.wav
160,192,15724,1,0,0:0:0:0:intbr_02.wav
288,192,15724,1,0,0:0:0:0:guit_G#(.wav
160,192,15931,1,0,0:0:0:0:intbr_02.wav
480,192,15931,1,0,0:0:0:0:guit_G#.wav
160,192,16137,1,0,0:0:0:0:intbr_02.wav
416,192,16137,1,0,0:0:0:0:guit_D#.wav
224,192,16344,1,0,0:0:0:0:intbr_01.wav
352,192,16344,1,0,0:0:0:0:guit_C#.wav
224,192,16551,1,0,0:0:0:0:intbr_01.wav
288,192,16551,1,0,0:0:0:0:guit_C#1.wav
224,192,16758,1,0,0:0:0:0:intbr_01.wav
352,192,16758,1,0,0:0:0:0:guit_G#(.wav
224,192,16965,1,0,0:0:0:0:intbr_01.wav
416,192,16965,1,0,0:0:0:0:guit_C#.wav
160,192,17172,1,0,0:0:0:0:intbr_02.wav
352,192,17172,1,0,0:0:0:0:guit_G#(.wav
160,192,17379,1,0,0:0:0:0:intbr_02.wav
416,192,17379,1,0,0:0:0:0:guit_D#.wav
160,192,17586,1,0,0:0:0:0:intbr_02.wav
352,192,17586,1,0,0:0:0:0:guit_C#.wav
160,192,17793,1,0,0:0:0:0:intbr_02.wav
288,192,17793,1,0,0:0:0:0:guit_G#(.wav
224,192,18000,1,0,0:0:0:0:intbr_03.wav
480,192,18000,1,0,0:0:0:0:guit_G#.wav
96,192,18206,1,0,0:0:0:0:10_BD.wav
352,192,18206,1,0,0:0:0:0:vio_s1.wav
416,192,18310,1,0,0:0:0:0:vio_s2.wav
352,192,18413,1,0,0:0:0:0:vio_s3.wav
416,192,18517,1,0,0:0:0:0:vio_s4.wav
96,192,18620,1,0,0:0:0:0:10_BD.wav
352,192,18620,1,0,0:0:0:0:vio_s3.wav
416,192,18724,1,0,0:0:0:0:vio_s4.wav
352,192,18827,1,0,0:0:0:0:vio_s3.wav
416,192,18931,1,0,0:0:0:0:vio_s4.wav
96,192,19034,1,0,0:0:0:0:10_BD.wav
288,192,19034,1,0,0:0:0:0:vio_s5.wav
416,192,19137,1,0,0:0:0:0:vio_s6.wav
288,192,19241,1,0,0:0:0:0:vio_s5.wav
416,192,19344,1,0,0:0:0:0:vio_s6.wav
96,192,19448,1,0,0:0:0:0:10_BD.wav
224,192,19448,1,0,0:0:0:0:vio_s7.wav
416,192,19551,1,0,0:0:0:0:vio_s8.wav
96,192,19655,1,0,0:0:0:0:10_BD.wav
224,192,19655,1,0,0:0:0:0:vio_s7.wav
416,192,19758,1,0,0:0:0:0:vio_s8.wav
288,192,19862,1,0,0:0:0:0:vio_m01.wav
480,192,19862,1,0,0:0:0:0:piano_in_C#F#G#.wav
480,192,20068,1,0,0:0:0:0:piano_in_C#F#G#.wav
480,192,20275,1,0,0:0:0:0:piano_in_C#F#G#.wav
160,192,20482,1,0,0:0:0:0:vio_m02.wav
416,192,20482,1,0,0:0:0:0:piano_in_C#EG#.wav
352,192,20689,1,0,0:0:0:0:vio_m03.wav
416,192,20689,1,0,0:0:0:0:piano_in_C#EG#.wav
416,192,20896,1,0,0:0:0:0:piano_in_C#EG#.wav
416,192,21103,1,0,0:0:0:0:piano_in_C#EG#.wav
224,192,21310,1,0,0:0:0:0:vio_m04.wav
416,192,21310,1,0,0:0:0:0:piano_in_C#EG#.wav
160,192,21517,1,0,0:0:0:0:vio_m05.wav
352,192,21517,1,0,0:0:0:0:piano_in_C#D#G#.wav
352,192,21724,1,0,0:0:0:0:piano_in_C#D#G#.wav
288,192,21827,1,0,0:0:0:0:vio_m06.wav
352,192,21931,1,0,0:0:0:0:piano_in_C#D#G#.wav
352,192,22137,1,0,0:0:0:0:vio_m07.wav
416,192,22137,1,0,0:0:0:0:piano_in_C#EG#.wav
288,192,22344,1,0,0:0:0:0:vio_m08.wav
416,192,22344,1,0,0:0:0:0:piano_in_C#EG#.wav
416,192,22551,1,0,0:0:0:0:piano_in_C#EG#.wav
160,192,22655,1,0,0:0:0:0:vio_m09.wav
416,192,22758,1,0,0:0:0:0:piano_in_C#EG#.wav
96,192,22965,1,0,0:0:0:0:vio_m10.wav
416,192,22965,1,0,0:0:0:0:piano_in_C#EG#.wav
160,192,23172,1,0,0:0:0:0:vio_m11.wav
480,192,23172,1,0,0:0:0:0:piano_in_C#F#G#.wav
480,192,23379,1,0,0:0:0:0:piano_in_C#F#G#.wav
288,192,23482,1,0,0:0:0:0:vio_m12.wav
480,192,23586,1,0,0:0:0:0:piano_in_C#F#G#.wav
416,192,23793,1,0,0:0:0:0:piano_in_C#EG#.wav
416,192,24000,1,0,0:0:0:0:piano_in_C#EG#.wav
352,192,24206,1,0,0:0:0:0:vio_m13.wav
416,192,24206,1,0,0:0:0:0:piano_in_C#EG#.wav
224,192,24413,1,0,0:0:0:0:vio_m14.wav
416,192,24413,1,0,0:0:0:0:piano_in_C#EG#.wav
160,192,24620,1,0,0:0:0:0:vio_m15.wav
416,192,24620,1,0,0:0:0:0:piano_in_C#EG#.wav
352,192,24827,1,0,0:0:0:0:piano_in_C#D#G#.wav
352,192,25034,1,0,0:0:0:0:piano_in_C#D#G#.wav
352,192,25241,1,0,0:0:0:0:piano_in_C#D#G#.wav
416,192,25448,1,0,0:0:0:0:piano_in_C#EG#.wav
288,192,25655,1,0,0:0:0:0:vio_m16.wav
416,192,25655,1,0,0:0:0:0:piano_in_C#EG#.wav
160,192,25862,1,0,0:0:0:0:vio_m17.wav
416,192,25862,1,0,0:0:0:0:piano_in_C#EG#.wav
96,192,26068,1,0,0:0:0:0:vio_m18.wav
416,192,26068,1,0,0:0:0:0:piano_in_C#EG#.wav
416,192,26275,1,0,0:0:0:0:piano_in_C#EG#.wav
224,192,26482,1,0,0:0:0:0:vio_m19.wav
480,192,26482,1,0,0:0:0:0:piano_in_D#F#B.wav
480,192,26689,1,0,0:0:0:0:piano_in_D#F#B.wav
480,192,26896,1,0,0:0:0:0:piano_in_D#F#B.wav
160,192,27103,1,0,0:0:0:0:vio_m20.wav
480,192,27103,1,0,0:0:0:0:piano_in_D#F#B.wav
96,192,27310,1,0,0:0:0:0:vio_m21.wav
480,192,27310,1,0,0:0:0:0:piano_in_D#F#B.wav
480,192,27517,1,0,0:0:0:0:piano_in_D#F#B.wav
480,192,27724,1,0,0:0:0:0:piano_in_D#F#B.wav
160,192,27931,1,0,0:0:0:0:vio_m22.wav
480,192,27931,1,0,0:0:0:0:piano_in_D#F#B.wav
224,192,28034,1,0,0:0:0:0:vio_m23.wav
288,192,28137,1,0,0:0:0:0:vio_m24.wav
416,192,28137,1,0,0:0:0:0:piano_in_C#EA.wav
416,192,28344,1,0,0:0:0:0:piano_in_C#EA.wav
224,192,28448,1,0,0:0:0:0:vio_m25.wav
416,192,28551,1,0,0:0:0:0:piano_in_C#EA.wav
160,192,28758,1,0,0:0:0:0:vio_m26.wav
416,192,28758,1,0,0:0:0:0:piano_in_C#EA.wav
224,192,28965,1,0,0:0:0:0:vio_m27.wav
480,192,28965,1,0,0:0:0:0:piano_in_D#F#B.wav
480,192,29172,1,0,0:0:0:0:piano_in_D#F#B.wav
96,192,29275,1,0,0:0:0:0:vio_m28.wav
480,192,29379,1,0,0:0:0:0:piano_in_D#F#B.wav
160,192,29586,1,0,0:0:0:0:vio_m29.wav
480,192,29586,1,0,0:0:0:0:piano_in_D#F#B.wav
160,192,29793,1,0,0:0:0:0:vio_m30.wav
352,192,29793,1,0,0:0:0:0:piano_in_C#EG#.wav
352,192,30000,1,0,0:0:0:0:piano_in_C#EG#.wav
352,192,30206,1,0,0:0:0:0:piano_in_C#EG#.wav
224,192,30413,1,0,0:0:0:0:vio_m31.wav
352,192,30413,1,0,0:0:0:0:piano_in_C#EG#.wav
224,192,30620,1,0,0:0:0:0:vio_m32.wav
352,192,30620,1,0,0:0:0:0:piano_in_C#EG#.wav
352,192,30827,1,0,0:0:0:0:piano_in_C#EG#.wav
96,192,31034,1,0,0:0:0:0:10_SD2.wav
352,192,31034,1,0,0:0:0:0:piano_in_C#EG#.wav
96,192,31241,1,0,0:0:0:0:10_SD2.wav
352,192,31241,1,0,0:0:0:0:piano_in_C#EG#.wav
96,192,31344,1,0,0:0:0:0:10_SD3.wav
480,192,31448,1,0,0:0:0:0:piano_in_F#A#C#.wav
96,192,31655,1,0,0:0:0:0:10_SD2.wav
480,192,31655,1,0,0:0:0:0:piano_in_F#A#C#.wav
480,192,31862,1,0,0:0:0:0:piano_in_F#A#C#.wav
96,192,32068,1,0,0:0:0:0:10_SD3.wav
480,192,32068,1,0,0:0:0:0:piano_in_F#A#C#.wav
416,192,32275,1,0,0:0:0:0:piano_in_D#G#C.wav
96,192,32379,1,0,0:0:0:0:10_SD2.wav
96,192,32482,1,0,0:0:0:0:10_SD1.wav
416,192,32482,1,0,0:0:0:0:piano_in_D#G#C.wav
96,192,32689,1,0,0:0:0:0:10_SD3.wav
416,192,32689,1,0,0:0:0:0:piano_in_D#G#C.wav
96,192,32896,1,0,0:0:0:0:10_SD3.wav
416,192,32896,1,0,0:0:0:0:piano_in_D#G#C.wav
96,192,33000,1,0,0:0:0:0:10_SD2.wav
160,192,33103,1,0,0:0:0:0:vio_m01.wav
288,192,33103,1,0,0:0:0:0:guit_C#1.wav
32,192,33103,1,0,0:0:0:1:
352,192,33310,1,0,0:0:0:0:guit_G#(.wav
416,192,33517,1,0,0:0:0:0:guit_C#.wav
96,192,33724,1,0,0:0:0:0:vio_m02.wav
352,192,33724,1,0,0:0:0:0:guit_G#(.wav
288,192,33931,1,0,0:0:0:0:vio_m03.wav
416,192,33931,1,0,0:0:0:0:guit_D#.wav
352,192,34137,1,0,0:0:0:0:guit_C#.wav
288,192,34344,1,0,0:0:0:0:guit_G#(.wav
224,192,34551,1,0,0:0:0:0:vio_m04.wav
480,192,34551,1,0,0:0:0:0:guit_G#.wav
160,192,34758,1,0,0:0:0:0:vio_m05.wav
352,192,34758,1,0,0:0:0:0:guit_C#.wav
288,192,34965,1,0,0:0:0:0:guit_G#(.wav
224,192,35068,1,0,0:0:0:0:vio_m06.wav
352,192,35172,1,0,0:0:0:0:guit_D#.wav
288,192,35379,1,0,0:0:0:0:vio_m07.wav
416,192,35379,1,0,0:0:0:0:guit_C#.wav
224,192,35586,1,0,0:0:0:0:vio_m08.wav
352,192,35586,1,0,0:0:0:0:guit_G#(.wav
480,192,35793,1,0,0:0:0:0:guit_G#.wav
160,192,35896,1,0,0:0:0:0:vio_m09.wav
416,192,36000,1,0,0:0:0:0:guit_D#.wav
96,192,36206,1,0,0:0:0:0:vio_m10.wav
352,192,36206,1,0,0:0:0:0:guit_C#.wav
160,192,36413,1,0,0:0:0:0:vio_m11.wav
288,192,36413,1,0,0:0:0:0:guit_C#1.wav
352,192,36620,1,0,0:0:0:0:guit_G#(.wav
288,192,36724,1,0,0:0:0:0:vio_m12.wav
416,192,36827,1,0,0:0:0:0:guit_C#.wav
352,192,37034,1,0,0:0:0:0:guit_G#(.wav
416,192,37241,1,0,0:0:0:0:guit_D#.wav
224,192,37448,1,0,0:0:0:0:vio_m13.wav
352,192,37448,1,0,0:0:0:0:guit_C#.wav
160,192,37655,1,0,0:0:0:0:vio_m14.wav
288,192,37655,1,0,0:0:0:0:guit_G#(.wav
96,192,37862,1,0,0:0:0:0:vio_m15.wav
480,192,37862,1,0,0:0:0:0:guit_G#.wav
352,192,38068,1,0,0:0:0:0:guit_C#.wav
288,192,38275,1,0,0:0:0:0:guit_G#(.wav
416,192,38482,1,0,0:0:0:0:guit_D#.wav
352,192,38689,1,0,0:0:0:0:guit_C#.wav
224,192,38896,1,0,0:0:0:0:vio_m16.wav
288,192,38896,1,0,0:0:0:0:guit_G#(.wav
160,192,39103,1,0,0:0:0:0:vio_m17.wav
480,192,39103,1,0,0:0:0:0:guit_G#.wav
96,192,39310,1,0,0:0:0:0:vio_m18.wav
416,192,39310,1,0,0:0:0:0:guit_D#.wav
352,192,39517,1,0,0:0:0:0:guit_C#.wav
160,192,39724,1,0,0:0:0:0:vio_m19.wav
288,192,39724,1,0,0:0:0:0:guit_B1.wav
352,192,39931,1,0,0:0:0:0:guit_D#(.wav
416,192,40137,1,0,0:0:0:0:guit_G#(.wav
224,192,40344,1,0,0:0:0:0:vio_m20.wav
480,192,40344,1,0,0:0:0:0:guit_G#.wav
160,192,40551,1,0,0:0:0:0:vio_m21.wav
416,192,40551,1,0,0:0:0:0:guit_B(.wav
352,192,40758,1,0,0:0:0:0:guit_G#(.wav
416,192,40965,1,0,0:0:0:0:guit_B(.wav
96,192,41172,1,0,0:0:0:0:vio_m22.wav
480,192,41172,1,0,0:0:0:0:guit_G#.wav
160,192,41275,1,0,0:0:0:0:vio_m23.wav
224,192,41379,1,0,0:0:0:0:vio_m24.wav
352,192,41379,1,0,0:0:0:0:guit_E(.wav
288,192,41586,1,0,0:0:0:0:guit_C#(.wav
160,192,41689,1,0,0:0:0:0:vio_m25.wav
352,192,41793,1,0,0:0:0:0:guit_A(.wav
96,192,42000,1,0,0:0:0:0:vio_m26.wav
480,192,42000,1,0,0:0:0:0:guit_G#.wav
224,192,42206,1,0,0:0:0:0:vio_m27.wav
416,192,42206,1,0,0:0:0:0:guit_B(.wav
288,192,42413,1,0,0:0:0:0:guit_F#(.wav
160,192,42517,1,0,0:0:0:0:vio_m28.wav
480,192,42620,1,0,0:0:0:0:guit_G#.wav
96,192,42827,1,0,0:0:0:0:vio_m29.wav
416,192,42827,1,0,0:0:0:0:guit_D#.wav
96,192,43034,1,0,0:0:0:0:vio_m30.wav
288,192,43034,1,0,0:0:0:0:guit_C#1.wav
352,192,43241,1,0,0:0:0:0:guit_G#(.wav
416,192,43448,1,0,0:0:0:0:guit_C#.wav
224,192,43655,1,0,0:0:0:0:vio_m31.wav
352,192,43655,1,0,0:0:0:0:guit_G#(.wav
224,192,43862,1,0,0:0:0:0:vio_m32.wav
416,192,43862,1,0,0:0:0:0:guit_D#.wav
352,192,44068,1,0,0:0:0:0:guit_C#.wav
288,192,44275,1,0,0:0:0:0:guit_G#(.wav
480,192,44482,1,0,0:0:0:0:guit_G#.wav
352,192,44689,1,0,0:0:0:0:guit_C#.wav
288,192,44896,1,0,0:0:0:0:guit_G#(.wav
416,192,45103,1,0,0:0:0:0:guit_D#.wav
352,192,45310,1,0,0:0:0:0:guit_C#.wav
96,192,45517,1,0,0:0:0:0:pianomelo_A_C#)8.wav
160,192,45724,1,0,0:0:0:0:pianomelo_A_D#)8.wav
288,192,45931,1,0,0:0:0:0:pianomelo_A_E)8.wav
416,192,46137,1,0,0:0:0:0:pianomelo_A_G#)8.wav
96,192,46344,1,0,0:0:0:0:10_BD.wav
224,192,46344,1,0,0:0:0:0:pianomelo_A_B)2+.wav
352,192,46344,1,0,0:0:0:0:10_SD3.wav
480,192,46344,1,0,0:0:0:0:10_shakeHat.wav
96,192,46655,1,0,0:0:0:0:10_BD.wav
352,192,46655,1,0,0:0:0:0:10_SD3.wav
480,192,46655,1,0,0:0:0:0:10_shakeHat.wav
96,192,46965,1,0,0:0:0:0:10_BD.wav
352,192,46965,1,0,0:0:0:0:10_SD3.wav
480,192,46965,1,0,0:0:0:0:10_shakeHat.wav
288,192,47379,1,0,0:0:0:0:pianomelo_A_C#))8.wav
224,192,47586,1,0,0:0:0:0:pianomelo_A_B)8.wav
352,192,47586,1,0,0:0:0:0:10_SD3.wav
32,192,47586,1,0,0:0:0:0:10_Ohat.wav
160,192,47793,1,0,0:0:0:0:pianomelo_A_E)8.wav
416,192,47793,1,0,0:0:0:0:10_SD1.wav
96,192,48000,1,0,0:0:0:0:10_BD.wav
224,192,48000,1,0,0:0:0:0:pianomelo_A_G#)2.wav
352,192,48000,1,0,0:0:0:0:10_SD3.wav
480,192,48000,1,0,0:0:0:0:10_shakeHat.wav
96,192,48310,1,0,0:0:0:0:10_BD.wav
352,192,48310,1,0,0:0:0:0:10_SD3.wav
480,192,48310,1,0,0:0:0:0:10_shakeHat.wav
96,192,48620,1,0,0:0:0:0:10_BD.wav
352,192,48620,1,0,0:0:0:0:10_SD3.wav
480,192,48620,1,0,0:0:0:0:10_shakeHat.wav
416,192,48827,1,0,0:0:0:0:pianomelo_A_G#)8.wav
288,192,49034,1,0,0:0:0:0:pianomelo_A_F#)8.wav
224,192,49241,1,0,0:0:0:0:pianomelo_A_E)4.wav
352,192,49241,1,0,0:0:0:0:10_SD3.wav
32,192,49241,1,0,0:0:0:0:10_Ohat.wav
352,192,49448,1,0,0:0:0:0:10_SD1.wav
96,192,49655,1,0,0:0:0:0:10_BD.wav
224,192,49655,1,0,0:0:0:0:pianomelo_A_F#)2+.wav
352,192,49655,1,0,0:0:0:0:10_SD3.wav
480,192,49655,1,0,0:0:0:0:10_shakeHat.wav
96,192,49965,1,0,0:0:0:0:10_BD.wav
352,192,49965,1,0,0:0:0:0:10_SD3.wav
480,192,49965,1,0,0:0:0:0:10_shakeHat.wav
96,192,50275,1,0,0:0:0:0:10_BD.wav
352,192,50275,1,0,0:0:0:0:10_SD3.wav
480,192,50275,1,0,0:0:0:0:10_shakeHat.wav
288,192,50689,1,0,0:0:0:0:pianomelo_A_B)8.wav
224,192,50896,1,0,0:0:0:0:pianomelo_A_F#)8.wav
352,192,50896,1,0,0:0:0:0:10_SD3.wav
32,192,50896,1,0,0:0:0:0:10_Ohat.wav
160,192,51103,1,0,0:0:0:0:pianomelo_A_D#)8.wav
416,192,51103,1,0,0:0:0:0:10_SD1.wav
96,192,51310,1,0,0:0:0:0:10_BD.wav
224,192,51310,1,0,0:0:0:0:pianomelo_A_E)2.wav
352,192,51310,1,0,0:0:0:0:10_SD3.wav
480,192,51310,1,0,0:0:0:0:10_shakeHat.wav
96,192,51620,1,0,0:0:0:0:10_BD.wav
352,192,51620,1,0,0:0:0:0:10_SD3.wav
480,192,51620,1,0,0:0:0:0:10_shakeHat.wav
96,192,51931,1,0,0:0:0:0:10_BD.wav
352,192,51931,1,0,0:0:0:0:10_SD3.wav
480,192,51931,1,0,0:0:0:0:10_shakeHat.wav
96,192,52137,1,0,0:0:0:0:10_BD.wav
224,192,52137,1,0,0:0:0:0:10_SD3.wav
480,192,52137,1,0,0:0:0:0:10_shakeHat.wav
96,192,52448,1,0,0:0:0:0:10_BD.wav
224,192,52448,1,0,0:0:0:0:10_SD3.wav
480,192,52448,1,0,0:0:0:0:10_shakeHat.wav
96,192,52758,1,0,0:0:0:0:10_BD.wav
224,192,52758,1,0,0:0:0:0:10_SD3.wav
480,192,52758,1,0,0:0:0:0:10_shakeHat.wav
96,192,52965,1,0,0:0:0:0:10_BD.wav
224,192,52965,1,0,0:0:0:0:10_SD3.wav
352,192,52965,1,0,0:0:0:0:pianomelo_A_C#))1.wav
480,192,52965,1,0,0:0:0:0:10_shakeHat.wav
96,192,53275,1,0,0:0:0:0:10_BD.wav
224,192,53275,1,0,0:0:0:0:10_SD3.wav
480,192,53275,1,0,0:0:0:0:10_shakeHat.wav
96,192,53586,1,0,0:0:0:0:10_BD.wav
224,192,53586,1,0,0:0:0:0:10_SD3.wav
480,192,53586,1,0,0:0:0:0:10_shakeHat.wav
224,192,54206,1,0,0:0:0:0:10_SD3.wav
32,192,54206,1,0,0:0:0:0:10_Ohat.wav
224,192,54413,1,0,0:0:0:0:10_SD1.wav
480,192,54413,1,0,0:0:0:0:10_shakeHat.wav
96,192,54620,1,0,0:0:0:0:10_BD.wav
224,192,54620,1,0,0:0:0:0:10_SD3.wav
352,192,54620,1,0,0:0:0:0:pianomelo_A_D#))1.wav
480,192,54620,1,0,0:0:0:0:10_shakeHat.wav
96,192,54931,1,0,0:0:0:0:10_BD.wav
224,192,54931,1,0,0:0:0:0:10_SD3.wav
480,192,54931,1,0,0:0:0:0:10_shakeHat.wav
96,192,55241,1,0,0:0:0:0:10_BD.wav
224,192,55241,1,0,0:0:0:0:10_SD3.wav
480,192,55241,1,0,0:0:0:0:10_shakeHat.wav
288,192,55448,1,0,0:0:0:0:pianomelo_A_A#)4.wav
224,192,55862,1,0,0:0:0:0:10_SD3.wav
352,192,55862,1,0,0:0:0:0:pianomelo_A_C#))4.wav
32,192,55862,1,0,0:0:0:0:10_Ohat.wav
224,192,56068,1,0,0:0:0:0:10_SD1.wav
480,192,56068,1,0,0:0:0:0:10_shakeHat.wav
96,192,56275,1,0,0:0:0:0:10_BD.wav
352,192,56275,1,0,0:0:0:0:10_SD3.wav
480,192,56275,1,0,0:0:0:0:10_Ohat.wav
96,192,56586,1,0,0:0:0:0:10_BD.wav
352,192,56586,1,0,0:0:0:0:10_SD3.wav
480,192,56586,1,0,0:0:0:0:10_Ohat.wav
96,192,56896,1,0,0:0:0:0:10_BD.wav
352,192,56896,1,0,0:0:0:0:10_SD3.wav
480,192,56896,1,0,0:0:0:0:10_Ohat.wav
96,192,57103,1,0,0:0:0:0:10_BD.wav
224,192,57103,1,0,0:0:0:0:10_SD3.wav
480,192,57103,1,0,0:0:0:0:10_Ohat.wav
96,192,57413,1,0,0:0:0:0:10_BD.wav
224,192,57413,1,0,0:0:0:0:10_SD3.wav
480,192,57413,1,0,0:0:0:0:10_Ohat.wav
96,192,57724,1,0,0:0:0:0:10_BD.wav
224,192,57724,1,0,0:0:0:0:10_SD3.wav
480,192,57724,1,0,0:0:0:0:10_Ohat.wav
96,192,57931,1,0,0:0:0:0:10_BD.wav
32,192,57931,1,0,0:0:0:0:10_cym1.wav
480,192,57931,1,0,0:0:0:0:10_SD3.wav
96,192,58241,1,0,0:0:0:0:10_BD.wav
32,192,58241,1,0,0:0:0:0:10_cym2.wav
480,192,58241,1,0,0:0:0:0:10_SD3.wav
96,192,58551,1,0,0:0:0:0:10_BD.wav
32,192,58551,1,0,0:0:0:0:10_cym1.wav
480,192,58551,1,0,0:0:0:0:10_SD3.wav
480,192,58758,1,0,0:0:0:0:10_SD3.wav
96,192,58862,1,0,0:0:0:0:10_BD.wav
32,192,58862,1,0,0:0:0:0:10_cym2.wav
288,192,58965,1,0,0:0:0:0:vios_1_A#8.wav
96,192,59172,1,0,0:0:0:0:10_BD.wav
352,192,59172,1,0,0:0:0:0:vios_1_F)8.wav
96,192,59379,1,0,0:0:0:0:10_BD.wav
416,192,59379,1,0,0:0:0:0:vios_1_F#)8.wav
352,192,59586,128,0,59896:0:0:0:0:vios_1_F)4.wav
288,192,60000,1,0,0:0:0:0:vios_1_D#)8.wav
224,192,60206,128,0,60517:0:0:0:0:vios_1_A#4.wav
160,192,60620,1,0,0:0:0:0:vios_1_G#8.wav
96,192,60827,1,0,0:0:0:0:vios_1_F#8.wav
224,192,61034,128,0,62068:0:0:0:0:vios_1_A#2+.wav
288,192,62275,1,0,0:0:0:0:vios_1_A#8.wav
352,192,62482,1,0,0:0:0:0:vios_1_F)8.wav
416,192,62689,1,0,0:0:0:0:vios_1_F#)8.wav
352,192,62896,128,0,63206:0:0:0:0:vios_1_F)4.wav
288,192,63310,1,0,0:0:0:0:vios_1_D#)8.wav
224,192,63517,128,0,63827:0:0:0:0:vios_1_A#4.wav
160,192,63931,1,0,0:0:0:0:vios_1_G#8.wav
288,192,64137,1,0,0:0:0:0:vios_1_A#8_2.wav
96,192,64344,128,0,65379:0:0:0:0:vios_1_D#2+.wav
96,192,65586,1,0,0:0:0:0:vios_1_D#8.wav
224,192,65793,1,0,0:0:0:0:vios_1_F#8.wav
352,192,66000,1,0,0:0:0:0:vios_1_G#8.wav
416,192,66206,128,0,66724:0:0:0:0:vios_1_A#3.wav
160,192,66827,1,0,0:0:0:0:vios_1_G#8.wav
160,192,67034,128,0,67551:0:0:0:0:vios_1_G#3_2.wav
96,192,67655,1,0,0:0:0:0:vios_1_F#16.wav
160,192,67758,1,0,0:0:0:0:vios_1_G#16.wav
224,192,67862,128,0,68068:0:0:0:0:vios_1_A#6.wav
416,192,68172,128,0,68379:0:0:0:0:vios_1_B6.wav
288,192,68482,1,0,0:0:0:0:vios_1_A#8.wav
224,192,68689,128,0,69000:0:0:0:0:vios_1_G#4.wav
160,192,69103,128,0,69413:0:0:0:0:vios_1_F4.wav
224,192,69517,128,0,70086:0:0:0:0:vios_1_G#3_2.wav
96,192,70137,1,0,0:0:0:0:vios_1_F#8.wav
288,192,70344,128,0,71586:0:0:0:0:vios_1_A#2++.wav
352,192,71172,1,0,0:0:0:0:piano_3_L1.wav
352,192,71379,1,0,0:0:0:0:piano_3_L1.wav
352,192,71586,1,0,0:0:0:0:piano_3_L1.wav
416,192,71793,1,0,0:0:0:0:piano_3_L2.wav
416,192,72000,1,0,0:0:0:0:piano_3_L2.wav
96,192,72206,1,0,0:0:0:0:vios_1_A#8.wav
416,192,72206,1,0,0:0:0:0:piano_3_L2.wav
160,192,72413,1,0,0:0:0:0:vios_1_F)8.wav
416,192,72413,1,0,0:0:0:0:piano_3_L2.wav
224,192,72620,1,0,0:0:0:0:vios_1_F#)8.wav
416,192,72620,1,0,0:0:0:0:piano_3_L2.wav
96,192,72827,1,0,0:0:0:0:10_BD.wav
480,192,72827,128,0,73137:0:0:0:0:vios_1_F)4.wav
96,192,73241,1,0,0:0:0:0:10_BD.wav
352,192,73241,1,0,0:0:0:0:vios_1_D#)8.wav
224,192,73448,128,0,73758:0:0:0:0:vios_1_A#4.wav
96,192,73655,1,0,0:0:0:0:10_BD.wav
288,192,73862,1,0,0:0:0:0:vios_1_G#8.wav
96,192,74068,1,0,0:0:0:0:10_BD.wav
224,192,74068,1,0,0:0:0:0:vios_1_F#8.wav
352,192,74275,128,0,75310:0:0:0:0:vios_1_A#2+.wav
96,192,74482,1,0,0:0:0:0:10_BD.wav
96,192,74896,1,0,0:0:0:0:10_BD.wav
96,192,75310,1,0,0:0:0:0:10_BD.wav
224,192,75517,1,0,0:0:0:0:vios_1_A#8.wav
96,192,75724,1,0,0:0:0:0:10_BD.wav
288,192,75724,1,0,0:0:0:0:vios_1_F)8.wav
352,192,75931,1,0,0:0:0:0:vios_1_F#)8.wav
96,192,76137,1,0,0:0:0:0:10_BD.wav
416,192,76137,128,0,76448:0:0:0:0:vios_2_G#)4.wav
96,192,76551,1,0,0:0:0:0:10_BD.wav
288,192,76551,1,0,0:0:0:0:vios_2_F#)8.wav
224,192,76758,128,0,77068:0:0:0:0:vios_2_F)4.wav
96,192,76965,1,0,0:0:0:0:10_BD.wav
288,192,77172,1,0,0:0:0:0:vios_2_F#)8.wav
96,192,77379,1,0,0:0:0:0:10_BD.wav
352,192,77379,1,0,0:0:0:0:vios_2_G#)8.wav
416,192,77586,128,0,78724:0:0:0:0:vios_2_A#)2+.wav
96,192,77793,1,0,0:0:0:0:10_BD.wav
96,192,78206,1,0,0:0:0:0:10_BD.wav
96,192,78620,1,0,0:0:0:0:10_BD.wav
224,192,78827,1,0,0:0:0:0:vios_2_D#)8.wav
96,192,79034,1,0,0:0:0:0:10_BD.wav
288,192,79034,1,0,0:0:0:0:vios_2_F#)8.wav
416,192,79241,1,0,0:0:0:0:vios_2_G#)8.wav
96,192,79448,1,0,0:0:0:0:10_BD.wav
480,192,79448,128,0,79965:0:0:0:0:vios_2_A#)3.wav
96,192,79862,1,0,0:0:0:0:10_BD.wav
352,192,80068,1,0,0:0:0:0:vios_2_G#)8.wav
96,192,80275,1,0,0:0:0:0:10_BD.wav
352,192,80275,128,0,80689:0:0:0:0:vios_2_G#)3.wav
96,192,80689,1,0,0:0:0:0:10_BD.wav
288,192,80896,1,0,0:0:0:0:vios_2_F#)16.wav
352,192,81000,1,0,0:0:0:0:vios_2_G#)16.wav
96,192,81103,1,0,0:0:0:0:10_BD.wav
416,192,81103,128,0,81258:0:0:0:0:vios_2_A#)6.wav
480,192,81413,128,0,81568:0:0:0:0:vios_2_B)6.wav
96,192,81517,1,0,0:0:0:0:10_BD.wav
416,192,81724,1,0,0:0:0:0:vios_2_A#)8.wav
96,192,81931,1,0,0:0:0:0:10_BD.wav
352,192,81931,128,0,82241:0:0:0:0:vios_2_G#)4s.wav
96,192,82344,1,0,0:0:0:0:10_BD.wav
288,192,82344,128,0,82655:0:0:0:0:vios_2_F)4.wav
96,192,82758,1,0,0:0:0:0:10_BD.wav
288,192,82758,128,0,83275:0:0:0:0:vios_2_F)3.wav
96,192,83172,1,0,0:0:0:0:10_BD.wav
480,192,83379,1,0,0:0:0:0:vios_2_F#)8.wav
96,192,83586,1,0,0:0:0:0:10_BD.wav
352,192,83586,128,0,85137:0:0:0:0:vios_2_D#)L.wav
96,192,84000,1,0,0:0:0:0:10_BD.wav
96,192,84413,1,0,0:0:0:0:10_BD.wav
96,192,84827,1,0,0:0:0:0:10_BD.wav
96,192,85241,1,0,0:0:0:0:10_BD.wav
224,192,85344,1,0,0:0:0:0:10_BD.wav
288,192,85448,1,0,0:0:0:0:pianomelo_B_A#)8.wav
96,192,85655,1,0,0:0:0:0:10_BD.wav
416,192,85655,1,0,0:0:0:0:pianomelo_B_F))8.wav
96,192,85862,1,0,0:0:0:0:10_BD.wav
480,192,85862,1,0,0:0:0:0:pianomelo_B_F#))8.wav
224,192,85965,1,0,0:0:0:0:10_BD.wav
96,192,86068,1,0,0:0:0:0:10_BD.wav
416,192,86068,1,0,0:0:0:0:pianomelo_B_F))8.wav
96,192,86482,1,0,0:0:0:0:10_BD.wav
352,192,86482,1,0,0:0:0:0:pianomelo_B_D#))8.wav
480,192,86482,1,0,0:0:0:0:10_SD2.wav
288,192,86689,1,0,0:0:0:0:pianomelo_A_A#)4.wav
96,192,86896,1,0,0:0:0:0:10_BD.wav
160,192,87103,1,0,0:0:0:0:pianomelo_A_G#)8.wav
96,192,87310,1,0,0:0:0:0:10_BD.wav
224,192,87310,1,0,0:0:0:0:pianomelo_A_F#)8.wav
480,192,87310,1,0,0:0:0:0:10_SD2.wav
288,192,87517,1,0,0:0:0:0:pianomelo_B_A#)1.wav
96,192,87724,1,0,0:0:0:0:10_BD.wav
96,192,88137,1,0,0:0:0:0:10_BD.wav
480,192,88137,1,0,0:0:0:0:10_SD2.wav
96,192,88551,1,0,0:0:0:0:10_BD.wav
160,192,88758,1,0,0:0:0:0:pianomelo_B_A#)8.wav
96,192,88965,1,0,0:0:0:0:10_BD.wav
288,192,88965,1,0,0:0:0:0:pianomelo_B_F))8.wav
480,192,88965,1,0,0:0:0:0:10_SD2.wav
416,192,89172,1,0,0:0:0:0:pianomelo_B_F#))8.wav
96,192,89379,1,0,0:0:0:0:10_BD.wav
288,192,89379,1,0,0:0:0:0:pianomelo_B_F))8.wav
96,192,89793,1,0,0:0:0:0:10_BD.wav
352,192,89793,1,0,0:0:0:0:pianomelo_B_D#))8.wav
480,192,89793,1,0,0:0:0:0:10_SD2.wav
288,192,90000,1,0,0:0:0:0:pianomelo_A_A#)4.wav
96,192,90206,1,0,0:0:0:0:10_BD.wav
224,192,90413,1,0,0:0:0:0:pianomelo_A_G#)8.wav
96,192,90620,1,0,0:0:0:0:10_BD.wav
288,192,90620,1,0,0:0:0:0:pianomelo_B_A#)8.wav
480,192,90620,1,0,0:0:0:0:10_SD2.wav
160,192,90827,1,0,0:0:0:0:pianomelo_B_D#)2.wav
96,192,91034,1,0,0:0:0:0:10_BD.wav
96,192,91448,1,0,0:0:0:0:10_BD.wav
480,192,91448,1,0,0:0:0:0:10_SD2.wav
96,192,91862,1,0,0:0:0:0:10_BD.wav
480,192,91965,1,0,0:0:0:0:10_SD2.wav
160,192,92068,1,0,0:0:0:0:pianomelo_A_D#)8.wav
96,192,92275,1,0,0:0:0:0:10_BD.wav
224,192,92275,1,0,0:0:0:0:pianomelo_A_F#)8.wav
288,192,92482,1,0,0:0:0:0:pianomelo_A_G#)8.wav
480,192,92482,1,0,0:0:0:0:10_SD2.wav
96,192,92689,1,0,0:0:0:0:10_BD.wav
416,192,92689,1,0,0:0:0:0:pianomelo_A_A#)4.wav
96,192,93103,1,0,0:0:0:0:10_BD.wav
480,192,93103,1,0,0:0:0:0:10_SD2.wav
352,192,93310,1,0,0:0:0:0:pianomelo_A_G#)8.wav
96,192,93517,1,0,0:0:0:0:10_BD.wav
352,192,93517,1,0,0:0:0:0:pianomelo_A_G#)2.wav
96,192,93931,1,0,0:0:0:0:10_BD.wav
480,192,93931,1,0,0:0:0:0:10_SD2.wav
160,192,94137,1,0,0:0:0:0:pianomelo_A_F#)8.wav
224,192,94241,1,0,0:0:0:0:pianomelo_A_G#)8.wav
96,192,94344,1,0,0:0:0:0:10_BD.wav
416,192,94344,1,0,0:0:0:0:pianomelo_A_A#)4.wav
288,192,94655,1,0,0:0:0:0:pianomelo_A_B)8.wav
96,192,94758,1,0,0:0:0:0:10_BD.wav
480,192,94758,1,0,0:0:0:0:10_SD2.wav
416,192,94965,1,0,0:0:0:0:pianomelo_B_A#)8.wav
96,192,95172,1,0,0:0:0:0:10_BD.wav
352,192,95172,1,0,0:0:0:0:pianomelo_B_G#)4.wav
96,192,95586,1,0,0:0:0:0:10_BD.wav
224,192,95586,1,0,0:0:0:0:pianomelo_B_F)4.wav
480,192,95586,1,0,0:0:0:0:10_SD2.wav
96,192,96000,1,0,0:0:0:0:10_BD.wav
352,192,96000,1,0,0:0:0:0:pianomelo_A_G#)2.wav
96,192,96413,1,0,0:0:0:0:10_BD.wav
480,192,96413,1,0,0:0:0:0:10_SD2.wav
224,192,96620,1,0,0:0:0:0:pianomelo_A_F#)8.wav
96,192,96827,1,0,0:0:0:0:10_BD.wav
416,192,96827,1,0,0:0:0:0:pianomelo_B_A#)1.wav
96,192,97241,1,0,0:0:0:0:10_BD.wav
480,192,97241,1,0,0:0:0:0:10_SD3.wav
480,192,97448,1,0,0:0:0:0:10_SD2.wav
480,192,97551,1,0,0:0:0:0:10_SD2.wav
96,192,97655,1,0,0:0:0:0:10_BD.wav
288,192,97655,1,0,0:0:0:0:piano_3_L1.wav
288,192,97862,1,0,0:0:0:0:piano_3_L1.wav
288,192,98068,1,0,0:0:0:0:piano_3_L1.wav
480,192,98275,1,0,0:0:0:0:piano_3_L2.wav
480,192,98482,1,0,0:0:0:0:piano_3_L2.wav
96,192,98689,1,0,0:0:0:0:vios_1_A#8.wav
480,192,98689,1,0,0:0:0:0:piano_3_L2.wav
160,192,98896,1,0,0:0:0:0:vios_1_F)8.wav
480,192,98896,1,0,0:0:0:0:piano_3_L2.wav
224,192,99103,1,0,0:0:0:0:vios_1_F#)8.wav
480,192,99103,1,0,0:0:0:0:piano_3_L2.wav
96,192,99310,1,0,0:0:0:0:10_BD.wav
288,192,99310,1,0,0:0:0:0:pianomelo_B_F))8.wav
416,192,99310,1,0,0:0:0:0:piano_3_A#D#G#.wav
416,192,99517,1,0,0:0:0:0:piano_3_A#D#G#.wav
96,192,99724,1,0,0:0:0:0:10_BD.wav
224,192,99724,1,0,0:0:0:0:pianomelo_B_D#))8.wav
416,192,99724,1,0,0:0:0:0:piano_3_A#D#G#.wav
160,192,99931,1,0,0:0:0:0:pianomelo_A_A#)4.wav
480,192,99931,1,0,0:0:0:0:piano_3_A#D#F#.wav
96,192,100137,1,0,0:0:0:0:10_BD.wav
480,192,100137,1,0,0:0:0:0:piano_3_A#D#F#.wav
288,192,100344,1,0,0:0:0:0:pianomelo_A_G#)8.wav
480,192,100344,1,0,0:0:0:0:piano_3_A#D#F#.wav
96,192,100551,1,0,0:0:0:0:10_BD.wav
224,192,100551,1,0,0:0:0:0:pianomelo_A_F#)8.wav
480,192,100551,1,0,0:0:0:0:piano_3_A#D#F#.wav
352,192,100758,1,0,0:0:0:0:pianomelo_B_A#)1.wav
480,192,100758,1,0,0:0:0:0:piano_3_A#D#F#.wav
96,192,100965,1,0,0:0:0:0:10_BD.wav
416,192,100965,1,0,0:0:0:0:piano_3_A#D#F.wav
416,192,101172,1,0,0:0:0:0:piano_3_A#D#F.wav
96,192,101379,1,0,0:0:0:0:10_BD.wav
416,192,101379,1,0,0:0:0:0:piano_3_A#D#F.wav
480,192,101586,1,0,0:0:0:0:piano_3_A#D#F#.wav
96,192,101793,1,0,0:0:0:0:10_BD.wav
480,192,101793,1,0,0:0:0:0:piano_3_A#D#F#.wav
160,192,102000,1,0,0:0:0:0:pianomelo_B_A#)8.wav
480,192,102000,1,0,0:0:0:0:piano_3_A#D#F#.wav
96,192,102206,1,0,0:0:0:0:10_BD.wav
224,192,102206,1,0,0:0:0:0:pianomelo_B_F))8.wav
480,192,102206,1,0,0:0:0:0:piano_3_A#D#F#.wav
288,192,102413,1,0,0:0:0:0:pianomelo_B_F#))8.wav
480,192,102413,1,0,0:0:0:0:piano_3_A#D#F#.wav
96,192,102620,1,0,0:0:0:0:10_BD.wav
352,192,102620,1,0,0:0:0:0:pianomelo_B_G#))8.wav
416,192,102620,1,0,0:0:0:0:piano_3_A#D#G#.wav
416,192,102827,1,0,0:0:0:0:piano_3_A#D#G#.wav
96,192,103034,1,0,0:0:0:0:10_BD.wav
288,192,103034,1,0,0:0:0:0:pianomelo_B_F#))8.wav
416,192,103034,1,0,0:0:0:0:piano_3_A#D#G#.wav
224,192,103241,1,0,0:0:0:0:pianomelo_B_F))8.wav
480,192,103241,1,0,0:0:0:0:piano_3_A#D#F#.wav
96,192,103448,1,0,0:0:0:0:10_BD.wav
480,192,103448,1,0,0:0:0:0:piano_3_A#D#F#.wav
160,192,103655,1,0,0:0:0:0:pianomelo_B_F#))8.wav
480,192,103655,1,0,0:0:0:0:piano_3_A#D#F#.wav
96,192,103862,1,0,0:0:0:0:10_BD.wav
288,192,103862,1,0,0:0:0:0:pianomelo_B_G#))8.wav
480,192,103862,1,0,0:0:0:0:piano_3_A#D#F#.wav
352,192,104068,1,0,0:0:0:0:pianomelo_B_A#))6.wav
480,192,104068,1,0,0:0:0:0:piano_3_A#D#F#.wav
96,192,104275,1,0,0:0:0:0:10_BD.wav
416,192,104275,1,0,0:0:0:0:piano_3_A#D#F.wav
416,192,104482,1,0,0:0:0:0:piano_3_A#D#F.wav
96,192,104689,1,0,0:0:0:0:10_BD.wav
416,192,104689,1,0,0:0:0:0:piano_3_A#D#F.wav
480,192,104896,1,0,0:0:0:0:piano_3_A#D#F#.wav
96,192,105103,1,0,0:0:0:0:10_BD.wav
480,192,105103,1,0,0:0:0:0:piano_3_A#D#F#.wav
160,192,105310,1,0,0:0:0:0:pianomelo_B_D#))8.wav
480,192,105310,1,0,0:0:0:0:piano_3_A#D#F#.wav
96,192,105517,1,0,0:0:0:0:10_BD.wav
224,192,105517,1,0,0:0:0:0:pianomelo_B_F#))8.wav
480,192,105517,1,0,0:0:0:0:piano_3_A#D#F#.wav
288,192,105724,1,0,0:0:0:0:pianomelo_B_G#))8.wav
480,192,105724,1,0,0:0:0:0:piano_3_A#D#F#.wav
96,192,105931,1,0,0:0:0:0:10_BD.wav
352,192,105931,1,0,0:0:0:0:pianomelo_B_A#))6.wav
416,192,105931,1,0,0:0:0:0:piano_3_G#C#F#.wav
416,192,106137,1,0,0:0:0:0:piano_3_G#C#F#.wav
96,192,106344,1,0,0:0:0:0:10_BD.wav
416,192,106344,1,0,0:0:0:0:piano_3_G#C#F#.wav
288,192,106551,1,0,0:0:0:0:pianomelo_B_G#))8.wav
480,192,106551,1,0,0:0:0:0:piano_3_G#C#F.wav
96,192,106758,1,0,0:0:0:0:10_BD.wav
288,192,106758,1,0,0:0:0:0:pianomelo_B_G#))8.wav
480,192,106758,1,0,0:0:0:0:piano_3_G#C#F.wav
480,192,106965,1,0,0:0:0:0:piano_3_G#C#F.wav
96,192,107172,1,0,0:0:0:0:10_BD.wav
480,192,107172,1,0,0:0:0:0:piano_3_G#C#F.wav
160,192,107379,1,0,0:0:0:0:pianomelo_B_F#))8.wav
480,192,107379,1,0,0:0:0:0:piano_3_G#C#F.wav
224,192,107482,1,0,0:0:0:0:pianomelo_B_G#))8.wav
96,192,107586,1,0,0:0:0:0:10_BD.wav
288,192,107586,1,0,0:0:0:0:pianomelo_B_A#))6.wav
416,192,107586,1,0,0:0:0:0:piano_3_G#C#D#.wav
416,192,107793,1,0,0:0:0:0:piano_3_G#C#D#.wav
352,192,107896,1,0,0:0:0:0:pianomelo_B_B))6.wav
96,192,108000,1,0,0:0:0:0:10_BD.wav
416,192,108000,1,0,0:0:0:0:piano_3_G#C#D#.wav
288,192,108206,1,0,0:0:0:0:pianomelo_B_A#))6.wav
480,192,108206,1,0,0:0:0:0:piano_3_G#C#F.wav
96,192,108413,1,0,0:0:0:0:10_BD.wav
352,192,108413,1,0,0:0:0:0:pianomelo_B_G#))8.wav
480,192,108413,1,0,0:0:0:0:piano_3_G#C#F.wav
480,192,108620,1,0,0:0:0:0:piano_3_G#C#F.wav
96,192,108827,1,0,0:0:0:0:10_BD.wav
224,192,108827,1,0,0:0:0:0:pianomelo_B_F))8.wav
480,192,108827,1,0,0:0:0:0:piano_3_G#C#F.wav
480,192,109034,1,0,0:0:0:0:piano_3_G#C#F.wav
96,192,109241,1,0,0:0:0:0:10_BD.wav
224,192,109241,1,0,0:0:0:0:pianomelo_B_F))8.wav
416,192,109241,1,0,0:0:0:0:piano_3_A#D#G#.wav
416,192,109448,1,0,0:0:0:0:piano_3_A#D#G#.wav
96,192,109655,1,0,0:0:0:0:10_BD.wav
416,192,109655,1,0,0:0:0:0:piano_3_A#D#G#.wav
352,192,109862,1,0,0:0:0:0:pianomelo_B_F#))8.wav
480,192,109862,1,0,0:0:0:0:piano_3_A#D#F#.wav
96,192,110068,1,0,0:0:0:0:10_BD.wav
288,192,110068,1,0,0:0:0:0:pianomelo_A_D#))1.wav
480,192,110068,1,0,0:0:0:0:piano_3_A#D#F#.wav
480,192,110275,1,0,0:0:0:0:piano_3_A#D#F#.wav
96,192,110482,1,0,0:0:0:0:10_BD.wav
480,192,110482,1,0,0:0:0:0:piano_3_A#D#F#.wav
480,192,110689,1,0,0:0:0:0:piano_3_A#D#F#.wav
224,192,110896,1,0,0:0:0:0:piano_3_A#D#G#.wav
224,192,111103,1,0,0:0:0:0:piano_3_A#D#G#.wav
224,192,111310,1,0,0:0:0:0:piano_3_A#D#G#.wav
160,192,111517,1,0,0:0:0:0:piano_3_A#D#F#.wav
160,192,111724,1,0,0:0:0:0:piano_3_A#D#F#.wav
352,192,111724,1,0,0:0:0:0:10_SD2.wav
160,192,111931,1,0,0:0:0:0:piano_3_A#D#F#.wav
352,192,111931,1,0,0:0:0:0:10_SD3.wav
160,192,112137,1,0,0:0:0:0:piano_3_A#D#F#.wav
352,192,112137,1,0,0:0:0:0:10_SD3.wav
160,192,112344,1,0,0:0:0:0:piano_3_A#D#F#.wav
352,192,112344,1,0,0:0:0:0:10_SD3.wav
352,192,112448,1,0,0:0:0:0:10_SD3.wav
224,192,112551,1,0,0:0:0:0:10_BD.wav
480,192,112551,1,0,0:0:0:0:piano_t1.wav
96,192,112551,128,0,114931:0:0:0:0:piano_tbass.wav
480,192,112758,1,0,0:0:0:0:piano_t1.wav
480,192,112965,1,0,0:0:0:0:piano_t1.wav
416,192,113172,1,0,0:0:0:0:piano_t2.wav
416,192,113379,1,0,0:0:0:0:piano_t2.wav
416,192,113586,1,0,0:0:0:0:piano_t2.wav
416,192,113793,1,0,0:0:0:0:piano_t2.wav
416,192,114000,1,0,0:0:0:0:piano_t2.wav
480,192,114206,1,0,0:0:0:0:piano_t1.wav
480,192,114413,1,0,0:0:0:0:piano_t1.wav
480,192,114620,1,0,0:0:0:0:piano_t1.wav
416,192,114827,1,0,0:0:0:0:piano_t2.wav
288,192,115034,1,0,0:0:0:0:10_SD3.wav
416,192,115034,1,0,0:0:0:0:piano_t2.wav
352,192,115137,1,0,0:0:0:0:10_SD2.wav
288,192,115241,1,0,0:0:0:0:10_SD2.wav
416,192,115241,1,0,0:0:0:0:piano_t2.wav
288,192,115448,1,0,0:0:0:0:10_SD3.wav
416,192,115448,1,0,0:0:0:0:piano_t2.wav
288,192,115655,1,0,0:0:0:0:10_SD2.wav
416,192,115655,1,0,0:0:0:0:piano_t2.wav
352,192,115758,1,0,0:0:0:0:10_SD2.wav
224,192,115862,1,0,0:0:0:0:intbr_01.wav
288,192,115862,1,0,0:0:0:0:guit_C#1.wav
224,192,116068,1,0,0:0:0:0:intbr_01.wav
352,192,116068,1,0,0:0:0:0:guit_G#(.wav
224,192,116275,1,0,0:0:0:0:intbr_01.wav
416,192,116275,1,0,0:0:0:0:guit_C#.wav
160,192,116482,1,0,0:0:0:0:intbr_02.wav
352,192,116482,1,0,0:0:0:0:guit_G#(.wav
160,192,116689,1,0,0:0:0:0:intbr_02.wav
416,192,116689,1,0,0:0:0:0:guit_D#.wav
160,192,116896,1,0,0:0:0:0:intbr_02.wav
352,192,116896,1,0,0:0:0:0:guit_C#.wav
160,192,117103,1,0,0:0:0:0:intbr_02.wav
288,192,117103,1,0,0:0:0:0:guit_G#(.wav
96,192,117310,1,0,0:0:0:0:intbr_03.wav
480,192,117310,1,0,0:0:0:0:guit_G#.wav
96,192,117517,1,0,0:0:0:0:intbr_03.wav
352,192,117517,1,0,0:0:0:0:guit_C#.wav
96,192,117724,1,0,0:0:0:0:intbr_03.wav
224,192,117724,1,0,0:0:0:0:guit_G#(.wav
96,192,117931,1,0,0:0:0:0:intbr_03.wav
416,192,117931,1,0,0:0:0:0:guit_D#.wav
160,192,118137,1,0,0:0:0:0:intbr_02.wav
352,192,118137,1,0,0:0:0:0:guit_C#.wav
160,192,118344,1,0,0:0:0:0:intbr_02.wav
288,192,118344,1,0,0:0:0:0:guit_G#(.wav
160,192,118551,1,0,0:0:0:0:intbr_02.wav
480,192,118551,1,0,0:0:0:0:guit_G#.wav
160,192,118758,1,0,0:0:0:0:intbr_02.wav
416,192,118758,1,0,0:0:0:0:guit_D#.wav
224,192,118965,1,0,0:0:0:0:intbr_01.wav
352,192,118965,1,0,0:0:0:0:guit_C#.wav
224,192,119172,1,0,0:0:0:0:intbr_01.wav
288,192,119172,1,0,0:0:0:0:guit_C#1.wav
224,192,119379,1,0,0:0:0:0:intbr_01.wav
352,192,119379,1,0,0:0:0:0:guit_G#(.wav
224,192,119586,1,0,0:0:0:0:intbr_01.wav
416,192,119586,1,0,0:0:0:0:guit_C#.wav
160,192,119793,1,0,0:0:0:0:intbr_02.wav
352,192,119793,1,0,0:0:0:0:guit_G#(.wav
160,192,120000,1,0,0:0:0:0:intbr_02.wav
416,192,120000,1,0,0:0:0:0:guit_D#.wav
160,192,120206,1,0,0:0:0:0:intbr_02.wav
352,192,120206,1,0,0:0:0:0:guit_C#.wav
160,192,120413,1,0,0:0:0:0:intbr_02.wav
288,192,120413,1,0,0:0:0:0:guit_G#(.wav
96,192,120620,1,0,0:0:0:0:intbr_03.wav
480,192,120620,1,0,0:0:0:0:guit_G#.wav
96,192,120827,1,0,0:0:0:0:intbr_03.wav
352,192,120827,1,0,0:0:0:0:guit_C#.wav
96,192,121034,1,0,0:0:0:0:intbr_03.wav
224,192,121034,1,0,0:0:0:0:guit_G#(.wav
96,192,121241,1,0,0:0:0:0:intbr_03.wav
416,192,121241,1,0,0:0:0:0:guit_D#.wav
160,192,121448,1,0,0:0:0:0:intbr_02.wav
352,192,121448,1,0,0:0:0:0:guit_C#.wav
160,192,121655,1,0,0:0:0:0:intbr_02.wav
288,192,121655,1,0,0:0:0:0:guit_G#(.wav
160,192,121862,1,0,0:0:0:0:intbr_02.wav
480,192,121862,1,0,0:0:0:0:guit_G#.wav
160,192,122068,1,0,0:0:0:0:intbr_02.wav
416,192,122068,1,0,0:0:0:0:guit_D#.wav
224,192,122275,1,0,0:0:0:0:intbr_01.wav
352,192,122275,1,0,0:0:0:0:guit_C#.wav
224,192,122482,1,0,0:0:0:0:intbr_01.wav
288,192,122482,1,0,0:0:0:0:guit_C#1.wav
224,192,122689,1,0,0:0:0:0:intbr_01.wav
352,192,122689,1,0,0:0:0:0:guit_G#(.wav
224,192,122896,1,0,0:0:0:0:intbr_01.wav
416,192,122896,1,0,0:0:0:0:guit_C#.wav
160,192,123103,1,0,0:0:0:0:intbr_02.wav
352,192,123103,1,0,0:0:0:0:guit_G#(.wav
160,192,123310,1,0,0:0:0:0:intbr_02.wav
416,192,123310,1,0,0:0:0:0:guit_D#.wav
160,192,123517,1,0,0:0:0:0:intbr_02.wav
352,192,123517,1,0,0:0:0:0:guit_C#.wav
160,192,123724,1,0,0:0:0:0:intbr_02.wav
288,192,123724,1,0,0:0:0:0:guit_G#(.wav
96,192,123931,1,0,0:0:0:0:intbr_03.wav
480,192,123931,1,0,0:0:0:0:guit_G#.wav
96,192,124137,1,0,0:0:0:0:intbr_03.wav
352,192,124137,1,0,0:0:0:0:guit_C#.wav
96,192,124344,1,0,0:0:0:0:intbr_03.wav
224,192,124344,1,0,0:0:0:0:guit_G#(.wav
96,192,124551,1,0,0:0:0:0:intbr_03.wav
416,192,124551,1,0,0:0:0:0:guit_D#.wav
160,192,124758,1,0,0:0:0:0:intbr_02.wav
352,192,124758,1,0,0:0:0:0:guit_C#.wav
160,192,124965,1,0,0:0:0:0:intbr_02.wav
288,192,124965,1,0,0:0:0:0:guit_G#(.wav
160,192,125172,1,0,0:0:0:0:intbr_02.wav
480,192,125172,1,0,0:0:0:0:guit_G#.wav
160,192,125379,1,0,0:0:0:0:intbr_02.wav
416,192,125379,1,0,0:0:0:0:guit_D#.wav
224,192,125586,1,0,0:0:0:0:intbr_01.wav
352,192,125586,1,0,0:0:0:0:guit_C#.wav
224,192,125793,1,0,0:0:0:0:intbr_01.wav
288,192,125793,1,0,0:0:0:0:guit_C#1.wav
224,192,126000,1,0,0:0:0:0:intbr_01.wav
352,192,126000,1,0,0:0:0:0:guit_G#(.wav
224,192,126206,1,0,0:0:0:0:intbr_01.wav
416,192,126206,1,0,0:0:0:0:guit_C#.wav
160,192,126413,1,0,0:0:0:0:intbr_02.wav
352,192,126413,1,0,0:0:0:0:guit_G#(.wav
160,192,126620,1,0,0:0:0:0:intbr_02.wav
416,192,126620,1,0,0:0:0:0:guit_D#.wav
160,192,126827,1,0,0:0:0:0:intbr_02.wav
352,192,126827,1,0,0:0:0:0:guit_C#.wav
160,192,127034,1,0,0:0:0:0:intbr_02.wav
288,192,127034,1,0,0:0:0:0:guit_G#(.wav
224,192,127241,1,0,0:0:0:0:intbr_03.wav
480,192,127241,1,0,0:0:0:0:guit_G#.wav
96,192,127448,1,0,0:0:0:0:10_BD.wav
352,192,127448,1,0,0:0:0:0:vio_s1.wav
416,192,127551,1,0,0:0:0:0:vio_s2.wav
352,192,127655,1,0,0:0:0:0:vio_s3.wav
416,192,127758,1,0,0:0:0:0:vio_s4.wav
96,192,127862,1,0,0:0:0:0:10_BD.wav
352,192,127862,1,0,0:0:0:0:vio_s3.wav
416,192,127965,1,0,0:0:0:0:vio_s4.wav
352,192,128068,1,0,0:0:0:0:vio_s3.wav
416,192,128172,1,0,0:0:0:0:vio_s4.wav
96,192,128275,1,0,0:0:0:0:10_BD.wav
288,192,128275,1,0,0:0:0:0:vio_s5.wav
416,192,128379,1,0,0:0:0:0:vio_s6.wav
288,192,128482,1,0,0:0:0:0:vio_s5.wav
416,192,128586,1,0,0:0:0:0:vio_s6.wav
96,192,128689,1,0,0:0:0:0:10_BD.wav
224,192,128689,1,0,0:0:0:0:vio_s7.wav
416,192,128793,1,0,0:0:0:0:vio_s8.wav
96,192,128896,1,0,0:0:0:0:10_BD.wav
224,192,128896,1,0,0:0:0:0:vio_s7.wav
416,192,129000,1,0,0:0:0:0:vio_s8.wav
