osu file format v6

[General]
AudioFilename: yufiyftufytjh.mp3
AudioLeadIn: 0
PreviewTime: -1
Countdown: 1
SampleSet: Soft
StackLeniency: 0.7
Mode: 0
LetterboxInBreaks: 1

[Editor]
DistanceSpacing: 0.800000011920929
BeatDivisor: 8
GridSize: 32

[Metadata]
Title:come back to me(2003)
Artist:seven
Creator:hwangkwe
Version:Normal
Source:
Tags:

[Difficulty]
HPDrainRate:3
CircleSize:3
OverallDifficulty:3
SliderMultiplier:0.5
SliderTickRate:1

[Events]
//Background and Video events
0,0,"images.jpg"
//Break Periods
2,44033,53282
2,87033,115615
2,131310,148282
//Storyboard Layer 0 (Background)
//Storyboard Layer 1 (Fail)
//Storyboard Layer 2 (Pass)
//Storyboard Layer 3 (Foreground)
//Storyboard Sound Samples
//Background Colour Transformations
3,100,163,162,255

[TimingPoints]
0,444.444444444444,4,2,1,100,1,0

[Colours]
Combo1 : 255,255,255
Combo2 : 0,248,37
Combo3 : 0,255,255
Combo4 : 255,255,0

[HitObjects]
96,64,14814,1,8
256,64,15703,1,0
384,64,16296,1,0
384,192,17925,1,0
384,192,18370,1,0
256,192,19259,1,0
160,320,20148,5,0
352,320,21111,1,0
352,160,21999,6,0,B|160:160,1,187.5
160,32,25666,5,0
352,32,26611,1,0
416,192,27499,1,0
320,192,27833,1,0
128,192,28444,1,0
64,320,29222,6,0,B|224:320,1,156.25
416,320,32333,6,0,B|416:256,1,62.5
416,96,33833,5,0
256,96,34833,1,0
256,96,35277,1,0
256,96,35721,1,0
128,96,36444,5,0
128,224,37333,1,8
384,224,38222,2,0,B|384:64,1,156.25,0|0
256,64,40166,5,0
256,352,41555,1,0
256,192,42944,5,0
256,192,43388,1,0
256,192,43833,1,0
64,192,54722,5,0
160,192,55222,1,0
256,192,55722,1,0
352,192,56166,1,0
448,192,56610,1,0
256,192,58333,5,0
128,64,58833,1,0
224,64,59333,1,0
320,64,59777,1,0
416,64,60222,1,0
416,192,60722,1,0
320,192,61166,1,0
96,192,62055,1,0
96,352,62555,5,0
192,352,62999,1,0
288,352,63443,1,0
384,352,63888,1,0
384,224,64333,1,0
384,96,64777,1,0
256,96,65277,1,0
256,96,65722,1,0
128,96,66166,5,0
128,192,66610,1,0
128,288,67055,1,0
128,384,67499,1,0
288,384,67999,1,0
288,288,68443,1,0
384,64,69333,5,0
128,64,70222,1,0
128,192,70944,1,0
320,192,71777,1,0
448,192,72222,1,0
256,192,72944,5,0
416,352,73388,1,0
320,352,73833,1,0
224,352,74333,1,0
128,352,74777,1,0
128,224,75222,1,0
128,96,75666,1,0
256,96,76111,1,0
256,96,76611,1,0
416,96,77499,5,0
416,256,78222,1,0
288,256,79111,1,0
96,256,79999,5,0
96,64,80999,1,0
288,64,82055,5,0
288,256,82722,1,0
448,192,83833,5,0
352,192,84333,1,0
256,192,84833,1,0
160,192,85277,1,0
64,192,85722,1,0
192,64,86388,1,0
320,64,86833,1,0
96,64,117055,5,0
192,64,117499,1,0
288,64,117944,1,0
384,64,118388,1,0
384,192,119333,5,0
288,192,119777,1,0
192,192,120222,1,0
32,192,120888,1,0
64,352,121777,1,0
192,352,122222,1,0
320,352,122722,2,0,B|320:224,1,125
384,64,124333,5,0
288,64,124777,1,0
192,64,125222,1,0
96,64,125666,1,0
192,320,126611,5,0
128,320,126999,1,0
64,192,127499,1,0
160,192,128000,1,0
256,192,128444,1,0
352,192,128888,1,0
448,192,129333,1,0
352,64,129999,2,0,B|224:64,1,125
96,128,149722,6,0,B|192:128|192:128|160:224|160:224,1,193.75
160,256,151722,1,0
288,256,152222,1,0
352,64,152722,5,0
352,64,153111,1,0
96,64,153666,1,0
96,64,154055,1,0
160,192,154833,2,0,B|224:192,1,62.5
64,320,156611,5,0
160,320,157111,1,0
256,320,157555,1,0
352,320,157999,1,0
448,320,158444,1,0
448,160,159555,1,0
352,160,159999,1,0
128,160,161111,6,0,B|64:128|96:64|160:96,1,137.5
224,192,163277,1,0
288,192,163611,1,0
352,192,163944,1,0
352,320,164722,6,0,B|192:320,1,156.25
96,320,166555,2,0,B|96:224,1,93.75
96,128,168388,6,0,B|288:128,1,187.5
288,288,170666,5,0
448,288,171555,1,0
448,128,172499,1,0
448,128,172944,1,0
288,128,173888,1,0
288,128,174333,1,0
128,96,175166,6,0,B|96:128|64:192|64:320|128:320,1,256.25
320,320,179333,5,0
384,160,180166,2,0,B|288:160,1,93.75
96,160,181999,5,0
96,320,182944,5,0
256,320,183888,5,0
416,320,184722,5,0
256,208,185666,12,0,189666
320,192,190611,6,0,B|288:192|288:192|256:160|256:160|224:192|224:192|192:192|192:192|224:224|224:224|192:256|192:256|256:224|256:224|320:256|320:256|320:256,1,387.5
448,256,194777,1,0
448,160,195222,1,0
448,64,195666,1,0
320,64,198388,5,0
224,64,198833,1,0
128,64,199278,1,0
64,160,202055,5,0
64,256,202499,1,0
64,352,202944,1,0
224,352,203388,5,0
416,352,204333,5,0
320,192,205111,6,0,B|192:192|192:192|256:96|256:96|320:192,1,356.25
320,320,209277,5,0
416,320,209722,1,0
416,224,210166,1,0
416,64,211611,5,0
320,64,212055,1,0
160,64,212722,1,0
160,288,213611,1,0
256,288,214055,1,0
352,288,214499,1,0
352,64,215444,5,0
160,64,216055,1,0
160,192,216722,2,0,B|288:192,1,125
64,192,218444,5,0
160,192,218888,1,0
256,192,219333,1,0
352,192,219777,1,0
448,192,220222,1,0
256,208,221166,12,0,223111
