osu file format v6

[General]
AudioFilename: yufiyftufytjh.mp3
AudioLeadIn: 0
PreviewTime: -1
Countdown: 1
SampleSet: Soft
StackLeniency: 0.7
Mode: 0
LetterboxInBreaks: 1

[Editor]
DistanceSpacing: 0.800000011920929
BeatDivisor: 8
GridSize: 32

[Metadata]
Title:come back to me(2003)
Artist:seven
Creator:hwangkwe
Version:Insane
Source:
Tags:

[Difficulty]
HPDrainRate:7
CircleSize:6
OverallDifficulty:7
SliderMultiplier:1.4
SliderTickRate:1

[Events]
//Background and Video events
//Break Periods
2,44088,57433
2,87644,115655
2,131366,148877
//Storyboard Layer 0 (Background)
//Storyboard Layer 1 (Fail)
//Storyboard Layer 2 (Pass)
//Storyboard Layer 3 (Foreground)
//Storyboard Sound Samples
//Background Colour Transformations
3,100,163,162,255

[TimingPoints]
0,444.444444444444,3,2,1,100,1,0
46,-100,3,2,1,100,0,0
74944,-50,3,2,1,100,0,0
76777,-100,3,2,1,100,0,0

[Colours]
Combo1 : 255,255,255
Combo2 : 0,248,37
Combo3 : 0,255,255
Combo4 : 255,255,0

[HitObjects]
448,192,14814,1,8
416,320,15629,1,2
352,352,15851,1,2
288,352,16073,1,2
224,320,16296,2,2,B|160:256|160:192|224:128,1,210
288,128,17185,2,4,B|480:128,1,140
480,224,18000,1,4
416,224,18222,1,4
352,224,18444,1,4
288,320,18777,1,4
192,224,19111,1,4
192,224,19333,1,4
64,320,19777,5,4
128,320,19999,1,4
192,320,20222,1,4
352,320,20666,1,4
448,192,21111,1,6
352,64,21777,5,0
288,64,21999,2,0,B|192:64|160:128,1,140
128,192,22666,2,0,B|160:320|288:320,1,210
352,320,23555,2,0,B|416:288|480:192|448:160,1,140
416,128,24444,1,4
416,128,24666,1,4
352,128,24888,5,4
288,128,25111,1,4
224,128,25333,1,4
160,128,25555,1,4
64,160,26074,1,2
64,224,26297,1,2
64,288,26518,2,2,B|128:320|192:320|224:320,1,140,0|0
256,320,27222,1,2
416,320,27444,1,2
416,224,27777,1,0
416,128,28222,1,0
384,64,28444,1,0
320,64,28666,1,0
288,128,28888,1,4
224,128,29111,1,4
192,64,29333,6,0,B|96:64,3,70,0|0|0|0
32,64,30444,1,0
32,128,30666,1,0
32,288,32222,6,0,B|64:320|96:352|192:256,1,140
224,256,32888,1,0
192,128,33888,5,4
256,96,34111,1,0
320,96,34333,1,4
384,128,34555,2,4,B|448:256|352:352,1,210
288,320,35444,1,4
96,320,36111,1,4
96,256,36333,2,4,B|128:160|160:96|224:96|256:96,1,245
320,96,37333,1,8
448,96,37888,1,0
448,160,38111,2,0,B|416:224|384:256,1,140
288,288,38777,1,0
288,288,38999,2,0,B|192:256|128:192,1,175
96,128,39777,1,4
96,128,39999,1,4
160,128,40222,5,4
224,128,40444,1,0
288,128,40666,1,4
352,128,40888,2,4,B|448:128|448:192|480:256|448:320,1,210
384,288,41777,1,0
256,288,42222,1,4
256,288,42444,1,4
256,288,42666,1,4
192,288,42888,1,4
128,288,43222,1,4
128,288,43333,1,4
64,288,43666,1,4
64,288,43888,1,4
416,192,58333,5,8
416,352,58815,1,4
352,320,59038,1,0
320,256,59260,1,4
320,192,59482,1,0
352,128,59704,1,4
416,96,59926,1,0
480,96,60148,1,4
480,256,60666,1,4
320,256,61111,1,4
256,256,61333,1,0
192,256,61555,1,4
128,256,61777,1,4
64,256,61999,1,4
64,96,62444,5,4
128,64,62666,1,0
192,64,62888,1,4
256,64,63111,1,0
320,64,63333,1,4
384,64,63555,1,4
448,96,63777,1,4
448,224,64222,1,4
448,352,64722,1,4
320,352,65204,1,4
192,352,65704,1,4
64,320,66166,5,4
96,256,66388,1,0
160,224,66610,1,4
224,192,66832,1,0
160,160,67054,1,4
224,128,67277,1,0
288,96,67499,1,4
448,96,67944,1,4
448,224,68388,1,4
448,352,68833,1,4
384,352,69055,5,4
320,352,69277,1,4
192,352,69777,1,4
192,288,69999,2,4,B|192:224|192:96|288:96,1,227.5
352,96,70944,2,0,B|416:128|416:224,1,140,4|0
416,288,71611,1,4
416,288,71833,1,4
352,320,72074,1,4
288,352,72297,1,4
224,352,72519,1,4
160,320,72741,1,4
96,288,72962,5,8
32,160,73407,1,4
64,96,73629,1,0
128,64,73851,1,4
192,64,74074,1,0
256,96,74296,1,4
288,160,74518,1,4
288,224,74777,1,4
384,224,75222,2,0,B|384:288|288:320|192:288|192:256|160:192,1,297.5,0|4
160,128,75888,1,0
224,96,76111,1,4
288,96,76333,1,4
352,128,76555,1,4
480,128,77055,5,4
480,192,77277,1,4
448,256,77499,1,4
416,320,77721,1,4
352,320,77943,1,4
288,320,78166,1,4
288,320,78277,1,4
192,320,78777,1,4
96,320,79055,1,4
32,288,79278,1,4
96,256,79500,1,4
32,224,79722,1,4
96,192,79944,6,0,B|160:256|224:224,1,140,4|4
288,192,80611,1,4
384,128,80944,2,0,B|352:64|256:96,1,140,4|4
192,128,81611,1,4
128,160,81833,5,0
160,224,82055,1,0
192,288,82277,1,0
224,352,82499,1,0
224,352,82722,1,0
224,352,82944,2,0,B|320:352|352:288,1,140
384,256,83611,5,0
416,192,83833,1,4
384,128,84055,1,0
320,96,84278,1,4
256,96,84499,1,0
192,128,84722,2,0,B|128:160|128:256,1,140,4|4
128,320,85444,1,4
224,352,85888,5,4
288,352,86111,1,4
352,320,86333,1,4
384,256,86555,1,4
416,192,86777,1,4
416,192,86888,1,4
384,128,87166,1,4
320,96,87444,1,4
448,192,116555,5,4
416,320,116999,1,4
352,352,117222,1,0
288,352,117444,1,4
224,320,117667,1,0
192,256,117889,1,4
224,192,118111,1,0
288,160,118333,1,4
416,96,119333,5,4
352,64,119556,1,0
288,64,119778,1,4
224,96,120000,1,0
224,192,120222,2,4,B|256:160|320:160|352:192,1,122.5
352,256,120888,2,4,B|256:320|160:256,1,192.5
96,224,121833,1,4
96,96,122222,1,4
96,96,122333,1,4
192,96,122666,1,4
256,96,122944,1,4
320,128,123166,1,4
320,192,123444,2,4,B|352:192,2,17.5
320,320,123888,1,4
128,352,124277,5,4
128,288,124499,1,0
128,224,124721,1,4
128,160,124943,1,0
128,96,125166,1,4
128,96,125388,1,0
192,96,125610,1,4
192,96,125833,1,4
256,96,126055,1,4
256,96,126277,1,4
320,96,126611,5,4
448,96,126944,1,4
448,224,127277,1,0
384,224,127499,1,4
256,224,127888,1,4
256,288,128166,2,4,B|128:288,1,122.5
128,224,128777,1,4
128,160,129055,2,4,B|160:128|192:96|256:96|288:96,1,175
384,96,130055,2,4,B|416:96,1,17.5
128,96,130444,2,0,B|96:96,13,17.5,0|0|0|0|0|0|0|0|0|0|0|0|0|0
448,224,149777,5,0
416,288,149999,1,0
352,320,150222,1,0
288,320,150444,1,0
224,288,150666,1,0
192,224,150888,2,0,B|192:128|320:96,1,192.5
384,96,151722,2,0,B|480:128|480:224,1,157.5
480,288,152666,6,0,B|448:352|448:352|416:288,1,140
384,224,153388,1,0
288,288,153666,2,0,B|256:352|256:352|224:288,1,140,8|0
192,224,154333,1,0
128,224,154555,5,0
128,288,154777,1,4
128,352,154999,1,0
64,352,155221,1,4
64,288,155444,1,4
64,224,155666,1,4
64,224,155888,1,4
64,160,156111,1,4
64,160,156333,5,4
128,160,156555,1,4
192,160,156777,1,4
256,160,156999,1,4
320,160,157221,1,4
384,160,157499,2,4,B|416:224|384:288,1,122.5
320,288,158166,2,4,B|256:256|256:160,1,140
256,96,158833,2,4,B|352:32|416:128|448:192,1,245
448,320,160055,1,8
384,224,161111,5,4
352,288,161333,1,0
320,224,161555,1,4
288,288,161777,2,4,B|224:288|192:192|192:128,1,192.5
96,96,163166,1,4
192,32,163611,1,4
288,96,163944,1,4
288,96,164166,1,0
448,96,164777,5,4
480,160,164999,1,0
480,224,165222,1,4
448,288,165444,1,4
352,352,165833,1,4
288,352,166111,1,4
160,320,166555,1,4
64,224,166888,1,4
160,160,167277,1,4
160,160,167499,1,4
192,64,168388,5,4
256,32,168611,1,0
320,32,168833,1,4
384,64,169056,1,4
416,128,169277,2,4,B|416:160|416:224|352:256,1,140
288,256,169999,1,4
96,256,170666,5,0
96,320,170888,1,0
160,320,171111,1,4
384,256,171555,5,0
384,320,171777,1,0
320,320,171999,1,4
320,160,172444,5,0
256,96,172666,1,0
192,160,172944,1,4
64,160,173277,1,4
64,160,173388,1,4
64,64,173666,1,4
160,63,173888,1,4
224,32,174110,1,4
288,64,174332,2,4,B|320:64,7,17.5
384,64,175055,1,0
480,64,175277,1,0
480,64,175499,5,0
480,128,175721,1,0
480,192,175943,1,0
480,256,176166,1,0
480,320,176388,1,0
416,320,176611,2,0,B|384:256|384:256|352:320|352:320,1,140
256,320,177499,2,0,B|192:288|192:224|256:160,1,192.5
320,160,178333,2,0,B|384:160|384:96|288:32|192:64,1,245,0|4
204,61,179222,1,4
96,64,179888,5,4
32,128,180222,1,4
64,224,180611,1,4
128,288,180888,1,4
192,224,181166,2,4,B|224:224,10,17.5
192,128,182055,5,4
256,64,182388,1,0
320,128,182722,1,4
320,192,182944,5,4
320,320,183277,1,0
448,320,183611,1,4
448,256,183888,5,4
448,128,184222,1,0
320,128,184555,1,4
320,128,184777,5,4
192,128,185111,2,4,B|64:128,1,122.5
64,192,185722,5,4
96,256,185944,1,0
128,192,186166,1,4
160,256,186388,1,0
192,192,186611,2,4,B|320:192,1,122.5
384,192,187222,2,4,B|384:64|288:96,1,157.5
224,32,188111,1,4
224,352,188499,1,4
224,352,188722,1,4
160,352,188888,1,4
160,352,188999,1,4
256,208,189055,12,4,189777
448,160,190666,5,0
416,224,190888,2,0,B|384:288|320:320|256:320|160:320|96:288|64:192|96:128|192:96|224:96,1,542.5,0|4
288,96,192833,1,4
320,160,193055,1,4
352,96,193277,1,4
384,160,193499,1,4
416,96,193722,2,0,B|448:96|480:160|448:224,1,140,4|0
448,320,194777,1,0
320,320,195222,1,0
192,320,195666,2,0,B|192:224|224:160|288:128,1,210
352,128,196611,1,0
384,64,196833,1,0
320,64,197055,2,0,B|256:64|160:63|128:160|128:192,1,245
128,256,198055,5,0
128,320,198277,1,0
256,320,198777,1,0
384,320,199277,2,4,B|448:320|480:256,1,105
480,160,199999,1,4
448,96,200222,2,4,B|384:64|224:64|192:64,1,245
192,64,201111,2,4,B|128:64|64:128,1,140
64,256,201999,1,4
192,256,202444,1,4
320,256,202888,1,4
448,192,203388,5,4
448,128,203611,1,4
384,128,203833,1,0
256,128,204333,5,4
256,128,204555,1,4
256,128,204778,1,0
128,128,205222,1,4
128,128,205444,5,4
64,224,205888,2,4,B|32:256,2,35
128,224,206332,1,0
192,224,206555,2,4,B|224:256|320:288|384:160,1,227.5
384,160,207388,2,4,B|384:192,14,17.5
384,32,209333,5,4
128,32,209999,1,4
128,192,210611,1,0
192,192,210833,1,0
256,192,211055,1,0
416,192,211555,5,4
480,224,211778,1,0
480,288,212000,1,4
416,288,212222,1,4
352,288,212444,1,4
288,288,212666,1,4
192,288,213055,1,0
192,288,213166,1,0
128,288,213389,1,0
64,288,213611,1,0
64,128,214055,1,0
64,128,214499,1,4
64,64,214721,1,4
128,64,214944,1,4
192,64,215166,1,4
256,64,215388,5,8
384,64,215833,1,0
448,64,216055,2,0,B|480:160|448:224|416:256,1,192.5
352,256,216999,1,0
256,256,217333,1,0
160,256,217611,1,0
64,256,217944,1,0
64,96,218388,5,0
128,96,218611,1,0
192,96,218833,1,0
256,96,219055,1,0
320,96,219277,2,0,B|416:96|416:192,1,140
416,256,219944,1,0
352,320,220444,1,0
352,320,220666,1,0
352,320,220888,5,0
288,320,221111,1,4
160,320,221499,1,4
96,224,221888,1,4
256,208,221999,12,0,223277
