osu file format v6

[General]
AudioFilename: yufiyftufytjh.mp3
AudioLeadIn: 0
PreviewTime: -1
Countdown: 1
SampleSet: Soft
StackLeniency: 0.7
Mode: 0
LetterboxInBreaks: 1

[Editor]
DistanceSpacing: 0.800000011920929
BeatDivisor: 3
GridSize: 32

[Metadata]
Title:come back to me(2003)
Artist:seven
Creator:hwangkwe
Version:Easy
Source:
Tags:

[Difficulty]
HPDrainRate:2
CircleSize:3
OverallDifficulty:2
SliderMultiplier:0.5
SliderTickRate:1

[Events]
//Background and Video events
//Break Periods
2,44051,56810
2,85829,115032
2,129385,144069
//Storyboard Layer 0 (Background)
//Storyboard Layer 1 (Fail)
//Storyboard Layer 2 (Pass)
//Storyboard Layer 3 (Foreground)
//Storyboard Sound Samples
//Background Colour Transformations
3,100,163,162,255

[TimingPoints]
0,444.444444444444,4,2,1,100,1,0

[Colours]
Combo1 : 255,255,255
Combo2 : 0,248,37
Combo3 : 0,255,255
Combo4 : 255,255,0

[HitObjects]
256,192,14777,1,8
256,192,18388,5,0
256,64,20222,5,0
256,320,21166,1,0
256,192,22055,5,0
256,192,23555,1,0
448,192,25629,5,0
256,192,26518,1,0
64,192,27407,1,0
256,192,29333,5,0
256,192,32296,5,0
256,64,34814,5,0
256,320,35703,1,0
256,192,37185,5,8
256,192,40296,5,0
256,64,42962,5,0
256,320,43851,1,0
96,192,58370,5,0
256,192,59259,1,0
416,192,60148,1,0
96,320,62074,5,0
256,320,62962,1,0
416,320,63851,1,0
416,64,65629,5,0
256,64,66518,1,0
96,64,67407,1,0
96,192,69333,5,0
256,192,70222,1,0
416,192,71111,1,0
416,192,72888,5,0
416,192,73777,1,0
96,64,76592,5,0
256,64,77481,1,0
416,64,78370,1,0
416,192,79999,5,0
96,192,80888,1,0
256,320,82074,5,0
256,128,82666,1,0
96,192,83851,5,0
256,192,84740,1,0
416,192,85629,1,0
96,192,116592,6,0,B|288:128,1,200
416,128,119259,5,0
256,128,120148,1,0
96,128,121037,1,0
96,288,121925,1,0
256,320,125629,5,0
96,192,127407,5,0
256,192,128296,1,0
416,192,129185,1,0
416,192,145629,5,0
256,192,146518,1,0
96,192,147407,1,0
256,64,149333,5,0
256,128,149777,1,0
256,192,150222,1,0
192,320,150962,1,0
320,320,151851,1,0
416,192,152592,5,0
96,192,153629,1,0
160,320,154666,2,0,B|256:320,1,83.3333333333333
416,320,156592,5,0
416,320,157481,1,0
416,320,158370,1,0
416,160,161037,6,0,B|256:160,1,150
96,224,164740,6,0,B|256:224,1,150
352,224,166666,2,0,B|352:128,1,83.3333333333333
96,128,168296,5,0
320,128,169333,1,0
416,320,170666,5,0
256,320,171555,5,0
96,320,172444,5,0
256,192,173925,5,0
160,64,175259,6,0,B|416:64,1,250
416,224,180148,6,0,B|288:224,1,116.666666666667
128,224,182074,5,0
128,64,182962,5,0
288,64,183851,5,0
288,224,184740,5,0
256,192,185629,12,0,189777
96,160,190666,2,0,B|160:128|224:96|256:96|288:96|352:128|416:160,1,333.333333333333
416,288,195703,6,0,B|256:288,1,150
128,224,199259,6,0,B|160:256,1,33.3333333333333
256,256,199999,2,0,B|256:96,1,150
416,96,203407,5,0
416,256,204296,5,0
288,256,205185,6,0,B|224:256|160:192|128:160|128:128|160:96|224:32|288:32,1,366.666666666667
416,32,209333,5,0
416,256,210222,1,0
224,256,211111,1,0
320,96,212740,5,0
128,96,213629,1,0
128,288,214518,1,0
416,288,215555,5,0
416,96,216148,2,0,B|224:96,1,183.333333333333
256,192,218370,12,0,223259
