osu file format v12

[General]
AudioFilename: gintama tougenkyou alien-full.mp3
AudioLeadIn: 0
PreviewTime: -1
Countdown: 1
SampleSet: None
StackLeniency: 0.7
Mode: 0
LetterboxInBreaks: 1
WidescreenStoryboard: 0

[Editor]
DistanceSpacing: 0.7
BeatDivisor: 4
GridSize: 8

[Metadata]
Title:serial TV drama - Tougenkyou Alien (Full)
TitleUnicode:serial TV drama - Tougenkyou Alien (Full)
Artist:serial TV drama
ArtistUnicode:serial TV drama
Creator:Naranja Sagged
Version:Gintoki
Source:Gintama'
Tags:Naranja Sagged Gintama Gin-chan Gintoki Kagura Shinpachi Gin Gin-san Gin-kun Ginpachi Madao Otsuu Gintama' Kintama Kintoki Mayo Sunglasses Movie
BeatmapID:320680
BeatmapSetID:126141

[Difficulty]
HPDrainRate:6
CircleSize:5
OverallDifficulty:8
ApproachRate:7
SliderMultiplier:1.4
SliderTickRate:3

[Events]
//Background and Video events
//Break Periods
//Storyboard Layer 0 (Background)
//Storyboard Layer 1 (Fail)
//Storyboard Layer 2 (Pass)
//Storyboard Layer 3 (Foreground)
//Storyboard Sound Samples
//Background Colour Transformations
3,100,163,162,255

[TimingPoints]
908.492955235368,355.276006499367,4,1,0,100,1,0
14231,300,4,1,0,100,1,0
19931,240,4,1,0,100,1,0

[HitObjects]
160,240,2862,2,0,P|136:160|168:112,1,140
336,112,3484,2,0,P|360:184|328:248,1,140
56,288,4105,6,0,L|56:248,1,35
184,248,4372,2,0,L|184:288,1,35
320,288,4638,2,0,L|320:240|320:240,3,35
72,72,5082,2,0,L|72:144,1,70
160,32,5438,5,0,0:0:0:0:
360,128,5704,2,0,L|296:168,1,70
160,208,6059,5,0,0:0:0:0:
256,248,6237,2,0,L|328:288,1,70
48,112,7125,2,0,P|64:64|128:48,1,105
384,192,7569,2,0,P|400:240|344:288,1,105
184,64,8014,5,0,0:0:0:0:
288,200,8191,1,0,0:0:0:0:
184,296,8369,1,0,0:0:0:0:
88,200,8546,5,0,0:0:0:0:
248,200,8813,1,0,0:0:0:0:
432,200,8991,1,0,0:0:0:0:
184,176,12721,6,0,L|232:120,1,70
336,168,13076,2,0,L|288:232,1,70
184,80,13431,2,0,L|136:144,1,70
256,192,13787,5,0,0:0:0:0:
264,96,14231,5,0,0:0:0:0:
32,48,14381,6,0,B|32:272|32:272|112:328,1,315
176,160,15281,5,0,0:0:0:0:
256,224,15506,1,0,0:0:0:0:
216,304,15581,1,0,0:0:0:0:
160,40,15806,6,0,L|272:40,1,105
472,104,16256,2,0,L|368:104,1,105
80,168,16631,2,0,L|192:168,1,105
200,112,17156,5,0,0:0:0:0:
328,112,17306,1,0,0:0:0:0:
208,248,17456,1,0,0:0:0:0:
240,248,17531,2,0,L|320:248,1,70
328,232,17981,6,0,L|328:192,1,35
32,112,18281,6,0,L|120:40,1,105
240,128,18731,2,0,L|144:208,1,105
224,256,19106,2,0,L|288:200,2,70
144,48,19931,6,0,L|280:48,1,105
120,192,20351,2,0,P|216:216|328:144,1,210
256,192,20951,5,0,0:0:0:0:
344,136,21131,1,0,0:0:0:0:
176,136,21311,1,0,0:0:0:0:
344,72,21491,1,0,0:0:0:0:
176,72,21671,1,0,0:0:0:0:
256,32,21791,1,0,0:0:0:0:
256,32,21851,1,0,0:0:0:0:
256,32,21911,1,0,0:0:0:0:
88,256,22091,2,0,B|184:224|184:224|192:232|192:232|192:224|192:224|184:208|184:208|168:216|168:216|184:216|200:208|200:208|224:200,1,210
256,192,22811,6,0,B|224:72|224:72|128:64,1,210
176,200,23291,5,0,0:0:0:0:
256,96,23411,1,0,0:0:0:0:
328,200,23531,1,0,0:0:0:0:
176,200,23651,1,0,0:0:0:0:
256,96,23771,1,0,0:0:0:0:
328,200,23891,1,0,0:0:0:0:
176,200,24011,1,0,0:0:0:0:
256,96,24131,1,0,0:0:0:0:
328,200,24251,1,0,0:0:0:0:
16,24,24431,6,0,L|440:336,1,525
184,176,25691,5,0,0:0:0:0:
328,200,25811,1,0,0:0:0:0:
368,152,25871,1,0,0:0:0:0:
384,208,25931,1,0,0:0:0:0:
48,216,26111,1,0,0:0:0:0:
40,120,26231,2,0,P|136:80|184:104,1,140
168,280,26651,1,0,0:0:0:0:
248,256,26831,6,0,L|168:200,1,70
