osu file format v9

[General]
AudioFilename: Tougenkyou Alien - Serial TV Drama.mp3
AudioLeadIn: 1500
PreviewTime: 28691
Countdown: 1
SampleSet: Normal
StackLeniency: 0.3
Mode: 1
LetterboxInBreaks: 1

[Editor]
Bookmarks: 54103
DistanceSpacing: 0.8
BeatDivisor: 3
GridSize: 8

[Metadata]
Title:Tougenkyou Alien (TV Size)
Artist:serial TV drama
Creator:jericho2442
Version:Taiko
Source:Gintama'
Tags:Sallad4ever opening op 1

[Difficulty]
HPDrainRate:6
CircleSize:5
OverallDifficulty:7
ApproachRate:7
SliderMultiplier:1.6
SliderTickRate:1

[Events]
//Background and Video events
Video,399,"Gintama' OP1.avi"
0,0,"Gintama' TaikoOP1.jpg"
//Break Periods
//Storyboard Layer 0 (Background)
//Storyboard Layer 1 (Fail)
//Storyboard Layer 2 (Pass)
//Storyboard Layer 3 (Foreground)
//Storyboard Sound Samples
//Background Colour Transformations
3,100,163,162,255

[TimingPoints]
456,352.941176470588,4,1,0,100,1,0
55514,-100,4,1,0,100,0,1
79514,-100,4,1,0,100,0,0

[Colours]
Combo1 : 255,150,0
Combo2 : 5,240,5
Combo3 : 5,5,240
Combo4 : 240,5,5

[HitObjects]
256,192,456,1,0
256,192,573,1,0
256,192,691,1,0
256,192,808,1,8
256,192,1044,1,8
256,192,1161,1,0
256,192,1279,1,0
256,192,1397,1,0
256,192,1514,1,8
256,192,1750,1,0
256,192,1867,1,8
256,192,2103,1,8
256,192,2220,1,0
256,192,2455,1,0
256,192,2573,1,8
256,192,2808,1,8
256,192,2926,1,0
256,192,3161,1,8
256,192,3279,1,0
256,192,3397,1,0
256,192,3514,1,0
256,192,3632,1,8
256,192,3867,1,8
256,192,3985,1,0
256,192,4103,1,0
256,192,4220,1,0
256,192,4338,1,8
256,192,4573,1,0
256,192,4691,1,8
256,192,4926,1,8
256,192,5044,1,0
256,192,5279,1,0
256,192,5397,1,8
256,192,5632,1,8
256,192,5750,1,0
256,192,5985,1,8
256,192,6103,1,0
256,192,6220,1,0
256,192,6338,1,0
256,192,6455,1,8
256,192,6691,1,8
256,192,6808,1,0
256,192,6926,1,8
256,192,7044,1,0
256,192,7161,1,8
256,192,7397,1,0
256,192,7514,1,8
256,192,7750,1,8
256,192,7867,1,8
256,192,8103,1,8
256,192,8220,1,0
256,192,8455,1,0
256,192,8573,1,0
256,192,8808,1,8
256,192,8926,1,0
256,192,9044,1,0
256,192,9161,1,0
256,192,9279,1,8
256,192,9514,1,8
256,192,9632,1,0
256,192,9750,1,8
256,192,9867,1,0
256,192,9985,1,8
256,192,10338,1,0
256,192,10455,1,0
256,192,10573,1,0
256,192,10691,1,8
256,192,10808,1,8
256,192,10926,1,8
256,192,11044,1,0
256,192,11161,1,0
256,192,11279,1,0
256,192,11397,1,8
256,192,11514,1,0
256,192,11632,1,8
256,192,11750,1,4
256,192,11985,1,0
256,192,12103,1,8
256,192,12338,1,8
256,192,12455,1,0
256,192,12691,1,0
256,192,12808,1,8
256,192,13044,1,8
256,192,13161,1,0
256,192,13279,1,0
256,192,13397,1,0
256,192,13514,1,8
256,192,13750,1,8
256,192,13867,1,0
256,192,14103,1,0
256,192,14220,1,8
256,192,14573,1,0
256,192,14926,1,8
256,192,15161,1,8
256,192,15279,1,0
256,192,15514,1,0
256,192,15632,1,8
256,192,15867,1,8
256,192,15985,1,0
256,192,16103,1,0
256,192,16220,1,0
256,192,16338,1,8
256,192,16455,1,0
256,192,16573,1,8
256,192,16691,1,0
256,192,16808,1,0
256,192,16926,1,0
256,192,17044,1,8
256,192,17279,1,8
256,192,17397,1,0
256,192,17632,1,0
256,192,17750,1,8
256,192,17985,1,8
256,192,18103,1,0
256,192,18220,1,8
256,192,18338,1,0
256,192,18455,1,8
256,192,18691,1,0
256,192,18808,1,8
256,192,18926,1,0
256,192,19044,1,8
256,192,19161,1,0
256,192,19397,1,8
256,192,19514,1,0
256,192,19750,1,0
256,192,19867,1,8
256,192,20220,1,0
256,192,20573,1,8
256,192,20808,1,8
256,192,20926,1,0
256,192,21044,1,8
256,192,21161,1,0
256,192,21279,1,8
256,192,21514,1,0
256,192,21632,1,8
256,192,21867,1,0
256,192,21985,1,8
256,192,22220,1,0
256,192,22338,1,8
256,192,22573,1,0
256,192,22691,1,8
256,192,22926,1,0
256,192,23044,12,0,24338
256,192,24455,5,8
256,192,24691,1,8
256,192,24808,1,0
256,192,25044,1,0
256,192,25161,1,8
256,192,25397,1,8
256,192,25514,1,0
256,192,25750,1,8
256,192,25867,1,0
256,192,25985,1,8
256,192,26103,1,0
256,192,26220,1,8
256,192,26455,1,0
256,192,26573,1,8
256,192,26691,1,0
256,192,26808,1,8
256,192,26926,1,0
256,192,27279,1,0
256,192,27396,1,0
256,192,27514,1,0
256,192,27632,1,8
256,192,27749,1,8
256,192,27867,1,8
256,192,27985,1,0
256,192,28102,1,0
256,192,28220,1,0
256,192,28338,1,8
256,192,28455,1,0
256,192,28573,1,8
256,192,28691,1,4
256,192,29044,1,12
256,192,29279,1,0
256,192,29397,1,8
256,192,29750,1,12
256,192,29985,1,0
256,192,30103,1,8
256,192,30338,1,8
256,192,30455,1,0
256,192,30691,1,0
256,192,30808,1,8
256,192,31161,1,12
256,192,31397,1,0
256,192,31514,1,8
256,192,31867,1,12
256,192,32103,1,0
256,192,32220,1,8
256,192,32455,1,8
256,192,32573,1,0
256,192,32926,1,0
256,192,33044,1,8
256,192,33161,1,0
256,192,33279,1,8
256,192,33397,1,8
256,192,33514,1,8
256,192,33632,1,0
256,192,33750,1,8
256,192,33867,1,0
256,192,33985,1,8
256,192,34103,1,0
256,192,34220,1,0
256,192,34338,1,4
256,192,34691,1,12
256,192,34926,1,0
256,192,35044,1,8
256,192,35397,1,12
256,192,35632,1,0
256,192,35750,1,8
256,192,35985,1,8
256,192,36102,1,0
256,192,36338,1,0
256,192,36455,1,8
256,192,36808,1,12
256,192,37044,1,0
256,192,37161,1,8
256,192,37514,1,12
256,192,37750,1,0
256,192,37867,1,8
256,192,38102,1,8
256,192,38220,1,0
256,192,38455,1,0
256,192,38573,1,8
256,192,38808,1,8
256,192,38926,1,0
256,192,39161,1,0
256,192,39279,1,8
256,192,39514,1,0
256,192,39632,1,8
256,192,39750,1,0
256,192,39867,1,0
256,192,39985,1,8
256,192,40103,1,0
256,192,40220,1,0
256,192,40338,1,8
256,192,40455,1,8
256,192,40573,1,0
256,192,40691,1,8
256,192,40808,1,8
256,192,40926,1,0
256,192,41044,1,8
256,192,41161,1,8
256,192,41279,1,0
256,192,41397,1,0
256,192,41632,1,0
256,192,41750,1,8
256,192,41985,1,8
256,192,42103,1,0
256,192,42338,1,0
256,192,42455,1,8
256,192,42691,1,8
256,192,42808,1,8
256,192,42926,1,0
256,192,43043,1,0
256,192,43161,1,8
256,192,43278,1,8
256,192,43396,1,0
256,192,43514,1,8
256,192,43631,1,8
256,192,43749,1,0
256,192,43867,1,8
256,192,43984,1,8
256,192,44102,1,0
256,192,44220,1,0
256,192,44455,1,0
256,192,44573,1,8
256,192,44808,1,8
256,192,44926,1,0
256,192,45161,1,0
256,192,45279,1,8
256,192,45514,1,8
256,192,45632,1,0
256,192,45750,1,0
256,192,45867,1,0
256,192,45985,1,8
256,192,46103,1,0
256,192,46220,1,0
256,192,46338,1,8
256,192,46455,1,0
256,192,46573,1,0
256,192,46691,1,8
256,192,46926,1,8
256,192,47044,1,0
256,192,47279,1,0
256,192,47397,1,8
256,192,47632,1,8
256,192,47750,1,0
256,192,47985,1,0
256,192,48103,1,8
256,192,48338,1,8
256,192,48455,1,0
256,192,48573,1,8
256,192,48691,1,0
256,192,48808,1,8
256,192,48926,1,0
256,192,49044,1,8
256,192,49161,1,0
256,192,49279,1,8
256,192,49397,1,0
256,192,49514,1,8
256,192,49867,1,0
256,192,49985,1,0
256,192,50103,1,0
256,192,50220,1,8
256,192,50338,1,8
256,192,50455,1,8
256,192,50573,1,0
256,192,50691,1,0
256,192,50808,1,0
256,192,50926,1,8
256,192,51044,1,8
256,192,51161,1,8
256,192,51279,1,0
256,192,51397,1,0
256,192,51514,1,0
256,192,51632,1,8
256,192,51750,1,8
256,192,51867,1,8
256,192,51985,1,0
256,192,52103,1,0
256,192,52220,1,0
256,192,52338,1,8
256,192,52455,1,8
256,192,52573,1,8
256,192,52691,1,0
256,192,52808,1,0
256,192,52926,1,0
256,192,53044,1,4
256,192,53397,1,0
256,192,53514,1,0
256,192,53632,1,0
256,192,53750,1,4
256,192,54103,1,0
256,192,54220,1,8
256,192,54338,1,0
256,192,54455,1,8
256,192,54573,1,0
256,192,54691,1,8
256,192,54808,1,0
256,192,54926,1,8
256,192,55044,1,0
256,192,55161,1,8
256,192,55279,1,0
256,192,55397,1,8
256,192,55514,1,0
256,192,55691,1,0
256,192,55867,1,8
256,192,56044,1,0
256,192,56220,1,0
256,192,56397,1,0
256,192,56573,1,8
256,192,56661,1,0
256,192,56750,1,8
256,192,56926,1,0
256,192,57103,1,0
256,192,57191,1,8
256,192,57279,1,0
256,192,57455,1,0
256,192,57632,1,8
256,192,57808,1,0
256,192,57985,1,8
256,192,58161,1,0
256,192,58250,1,0
256,192,58338,1,8
256,192,58514,1,0
256,192,58691,1,8
256,192,58779,1,0
256,192,58867,1,8
256,192,59044,1,0
256,192,59220,1,8
256,192,59308,1,0
256,192,59397,1,8
256,192,59573,1,0
256,192,59750,1,12
256,192,60103,1,4
256,192,60455,1,12
256,192,60808,1,12
256,192,61161,1,0
256,192,61338,1,0
256,192,61514,1,8
256,192,61691,1,0
256,192,61867,1,0
256,192,62044,1,0
256,192,62220,1,8
256,192,62308,1,0
256,192,62397,1,8
256,192,62573,1,0
256,192,62750,1,0
256,192,62838,1,8
256,192,62926,1,0
256,192,63102,1,0
256,192,63279,1,8
256,192,63367,1,0
256,192,63455,1,0
256,192,63632,1,8
256,192,63720,1,0
256,192,63808,1,0
256,192,63985,1,8
256,192,64161,1,0
256,192,64338,1,8
256,192,64426,1,0
256,192,64514,1,8
256,192,64691,1,0
256,192,64779,1,0
256,192,64867,1,0
256,192,65044,1,8
256,192,65220,1,0
256,192,65397,1,12
256,192,65750,1,4
256,192,66102,1,12
256,192,66455,1,12
256,192,66808,1,0
256,192,66985,1,0
256,192,67161,1,8
256,192,67338,1,0
256,192,67514,1,0
256,192,67691,1,0
256,192,67867,1,8
256,192,67955,1,0
256,192,68044,1,8
256,192,68220,1,0
256,192,68397,1,0
256,192,68485,1,8
256,192,68573,1,0
256,192,68749,1,0
256,192,68926,1,8
256,192,69102,1,0
256,192,69279,1,8
256,192,69455,1,0
256,192,69544,1,0
256,192,69632,1,8
256,192,69808,1,0
256,192,69985,1,8
256,192,70073,1,0
256,192,70161,1,8
256,192,70338,1,0
256,192,70514,1,8
256,192,70602,1,0
256,192,70691,1,8
256,192,70867,1,0
256,192,71044,1,12
256,192,71397,1,4
256,192,71749,1,12
256,192,72102,1,12
256,192,72455,1,0
256,192,72632,1,0
256,192,72720,1,0
256,192,72808,1,8
256,192,72985,1,0
256,192,73161,1,0
256,192,73338,1,0
256,192,73514,1,8
256,192,73602,1,0
256,192,73691,1,8
256,192,73867,1,0
256,192,74044,1,0
256,192,74132,1,8
256,192,74220,1,0
256,192,74396,1,0
256,192,74573,1,8
256,192,74661,1,0
256,192,74749,1,0
256,192,74926,1,8
256,192,75014,1,0
256,192,75191,1,8
256,192,75279,1,8
256,192,75455,1,0
256,192,75632,1,8
256,192,75720,1,0
256,192,75808,1,8
256,192,75985,1,0
256,192,76073,1,0
256,192,76161,1,0
256,192,76250,1,8
256,192,76338,1,0
256,192,76514,1,0
256,192,76691,1,12
256,192,77044,1,4
256,192,77396,1,12
256,192,77749,1,4
256,192,78103,1,12
256,192,79514,1,0
256,192,79632,1,8
256,192,79750,1,0
256,192,79867,1,8
256,192,80103,1,8
256,192,80220,1,0
256,192,80338,1,8
256,192,80455,1,8
256,192,80573,1,8
256,192,80808,1,8
256,192,80926,1,0
256,192,81044,1,8
256,192,81161,1,8
256,192,81279,1,0
256,192,81397,1,8
256,192,81514,1,8
256,192,81632,1,0
256,192,81750,1,8
256,192,81867,1,8
256,192,81985,1,0
256,192,82103,1,8
256,192,82220,1,8
256,192,82338,1,0
256,192,82456,1,0
256,192,82574,1,8
256,192,82691,1,8
256,192,82927,1,8
256,192,83044,1,0
256,192,83162,1,8
256,192,83279,1,0
256,192,83397,1,8
256,192,83632,1,8
256,192,83750,1,0
256,192,83868,1,0
256,192,83985,1,0
256,192,84103,1,8
256,192,84221,1,0
256,192,84338,1,0
256,192,84456,1,8
256,192,84574,1,0
256,192,84691,1,8
256,192,84809,1,0
256,192,84927,1,8
256,192,85044,1,0
256,192,85161,1,0
256,192,85279,1,8
256,192,85397,1,0
256,192,85514,1,8
256,192,85750,1,8
256,192,85867,1,0
256,192,85985,1,8
256,192,86102,1,8
256,192,86220,1,8
256,192,86455,1,8
256,192,86573,1,0
256,192,86691,1,8
256,192,86808,1,8
256,192,86926,1,0
256,192,87044,1,8
256,192,87161,1,8
256,192,87279,1,0
256,192,87397,1,8
256,192,87514,1,8
256,192,87632,1,0
256,192,87750,1,8
256,192,87867,1,8
256,192,87985,1,4
256,192,88691,1,4
256,192,89397,1,4
