osu file format v9

[General]
AudioFilename: Tougenkyou Alien - Serial TV Drama.mp3
AudioLeadIn: 1500
PreviewTime: 28691
Countdown: 1
SampleSet: Normal
StackLeniency: 0.3
Mode: 0
LetterboxInBreaks: 1

[Editor]
Bookmarks: 54103
DistanceSpacing: 0.8
BeatDivisor: 3
GridSize: 8

[Metadata]
Title:Tougenkyou Alien (TV Size)
Artist:serial TV drama
Creator:jericho2442
Version:Kagura
Source:Gintama'
Tags:Sallad4ever opening op 1

[Difficulty]
HPDrainRate:3
CircleSize:4
OverallDifficulty:3
ApproachRate:5
SliderMultiplier:1.4
SliderTickRate:1

[Events]
//Background and Video events
Video,399,"Gintama' OP1.avi"
0,0,"Gintama' OP1.jpg"
//Break Periods
//Storyboard Layer 0 (Background)
//Storyboard Layer 1 (Fail)
//Storyboard Layer 2 (Pass)
//Storyboard Layer 3 (Foreground)
//Storyboard Sound Samples
//Background Colour Transformations
3,100,163,162,255

[TimingPoints]
456,352.941176470588,4,1,1,100,1,0
27161,-100,4,1,0,100,0,0
27397,-100,4,1,1,100,0,0
41279,-100,4,1,0,100,0,0
41514,-100,4,1,1,100,0,0
44103,-100,4,1,0,100,0,0
44338,-100,4,1,1,100,0,0
53985,-100,4,1,0,100,0,0
54220,-100,4,1,1,100,0,0
55514,-100,4,1,1,100,0,1
78103,-100,4,1,1,100,0,0
89279,-100,4,1,0,100,0,0

[Colours]
Combo1 : 128,128,255
Combo2 : 128,255,255
Combo3 : 255,128,128

[HitObjects]
112,32,456,2,0,B|104:112|184:152,1,140,4|8
184,256,1161,2,0,B|352:256,1,140,4|8
337,147,1867,2,0,B|406:110|400:32,3,140,4|8|4|8
480,112,3279,6,0,B|480:272,1,140,4|8
432,352,3985,2,0,B|360:304|288:360,1,140,4|8
192,352,4691,2,0,B|120:304|48:360,3,140,4|8|4|8
64,240,6103,6,0,B|136:288|208:232,1,140,4|8
200,128,6808,2,0,B|128:80|56:136,1,140,4|8
136,32,7514,2,0,B|222:36|267:94,3,140,4|8|4|8
376,88,8926,5,4
376,88,9279,1,8
448,176,9632,1,4
448,176,9985,1,8
256,192,10338,12,8,11397
64,112,11750,6,0,B|136:72|216:120,1,140,4|8
312,112,12455,1,4
256,208,12808,1,8
368,208,13161,2,0,B|424:208|432:272,1,93.3333333333333,4|2
432,304,13514,1,8
320,304,13867,2,0,B|168:304,1,140,4|8
64,304,14573,6,0,B|88:240|32:224|72:152,1,140,4|8
64,56,15279,1,4
168,24,15632,1,8
272,56,15985,2,0,B|336:72|368:16,1,93.3333333333333,4|2
392,32,16338,1,8
464,120,16691,2,0,B|424:192|336:192,1,140,4|8
240,192,17397,6,0,B|152:192|144:288,3,140,4|8|4|8
240,336,18808,2,0,B|400:336,3,140,4|8|4|8
474,275,20220,6,0,B|464:193|379:191,3,140,4|8|4|8
376,80,21632,2,0,B|224:80,3,140,4|8|4|8
120,80,23044,5,4
40,288,23750,1,8
256,352,24455,1,4
144,328,24808,1,0
40,288,25161,1,8
128,216,25514,1,0
240,192,25867,6,0,B|368:176|352:72|488:48,2,280,4|8|4
256,192,27397,12,4,28691
256,32,29397,6,0,B|216:104|264:168,1,140,4|8
352,96,30103,2,0,B|392:168|344:240,1,140,4|8
352,344,30808,2,0,B|248:344,1,93.3333333333333,4|2
224,344,31161,1,8
112,344,31514,6,0,B|24:344|24:256,1,140,4|8
24,144,32220,2,0,B|23:58|111:58,1,140,4|8
224,64,32926,2,0,B|304:48|288:88|376:64,3,140,4|8|4|8
472,64,34338,5,4
472,64,34691,1,8
464,176,35044,1,4
464,176,35397,1,8
376,248,35750,1,4
376,248,36103,1,8
264,248,36455,2,0,B|200:248|200:312,1,93.3333333333333,4|2
192,336,36808,1,8
80,336,37161,6,0,B|80:184,1,140,4|8
128,96,37867,1,4
128,96,38220,1,8
224,40,38573,2,0,B|376:40,3,140,4|8|4|8
256,192,39985,12,4,41397
256,192,42103,5,8
256,192,42808,12,4,44220
256,192,44926,5,8
32,192,45632,6,0,B|32:48|192:32|192:32|192:200,2,420,0|4|8
480,192,48455,6,0,B|480:48|320:32|320:32|320:200,1,420,4|8
256,296,49867,6,0,B|128:376,1,140,0|8
168,264,50573,2,0,B|16:264,1,140,0|8
112,192,51279,2,0,B|0:96,1,140,0|8
120,96,51985,2,0,B|272:96,1,140,0|8
256,192,52691,12,4,54103
256,32,55514,6,0,B|344:24|360:112,1,140,4|8
360,216,56220,2,0,B|360:304|456:320|456:320|456:352|456:352|352:352,1,280,4|4
248,352,57279,1,8
136,352,57632,1,2
40,288,57985,1,8
40,176,58338,5,4
136,232,58691,1,8
248,232,59044,1,2
344,176,59397,1,8
328,64,59750,2,0,B|192:8|48:64,1,280,4|8
32,288,61161,6,0,B|88:344|160:304|160:304|216:344|296:288,2,280,4|8|4
32,176,62926,1,8
128,232,63279,1,2
224,176,63632,1,8
336,176,63985,6,0,B|416:176|448:264,2,140,4|8|2
336,64,65044,1,8
240,120,65397,2,0,B|152:120|128:200|128:200|208:200|232:288,1,280,4|4
304,352,66455,1,8
416,352,66808,6,0,B|496:328|480:232,1,140,4|8
368,256,67514,2,0,B|368:152|472:130|472:130|472:25,1,280,4|4
376,80,68573,1,8
272,32,68926,2,0,B|128:32,1,140,2|8
40,104,69632,5,4
40,216,69985,1,8
96,312,70338,1,2
200,352,70691,1,8
256,192,71044,12,4,72455
256,32,73161,6,0,B|208:152|312:152|248:336,1,280,4|4
144,304,74220,1,8
32,312,74573,2,0,B|32:224|116:192,1,140,2|8
104,88,75279,6,0,B|256:88,1,140,2|8
160,160,75985,2,0,B|312:160,1,140,2|0
216,232,76691,6,0,B|376:232,4,140,4|8|2|8|4
256,32,79514,6,0,B|344:40|360:128,1,140,4|8
472,112,80220,2,0,B|472:216,1,93.3333333333333,4|2
472,240,80573,1,8
360,240,80926,2,0,B|288:208|288:280|192:224,3,140,4|8|2|8
112,240,82338,6,0,B|48:240|48:152|120:160,1,140,4|8
112,48,83044,2,0,B|224:48,1,93.3333333333333,4|2
240,48,83397,1,8
240,160,83750,2,0,B|304:160|304:248|232:240,3,140,4|8|2|8
240,352,85161,6,0,B|392:352,1,140,4|8
496,352,85867,2,0,B|496:288|456:264,1,93.3333333333333,4|2
464,232,86220,1,8
464,120,86573,2,0,B|464:72|432:32|368:32,3,140,4|8|2|8
256,32,87985,5,4
368,224,88691,1,8
144,224,89397,1,4
