osu file format v9

[General]
AudioFilename: Tougenkyou Alien - Serial TV Drama.mp3
AudioLeadIn: 1500
PreviewTime: 28691
Countdown: 1
SampleSet: Normal
StackLeniency: 0.3
Mode: 0
LetterboxInBreaks: 1

[Editor]
Bookmarks: 54103
DistanceSpacing: 0.8
BeatDivisor: 3
GridSize: 8

[Metadata]
Title:Tougenkyou Alien (TV Size)
Artist:serial TV drama
Creator:jericho2442
Version:Gintoki
Source:Gintama'
Tags:Sallad4ever opening op 1

[Difficulty]
HPDrainRate:6
CircleSize:4
OverallDifficulty:8
ApproachRate:8
SliderMultiplier:2
SliderTickRate:1

[Events]
//Background and Video events
Video,399,"Gintama' OP1.avi"
0,0,"Gintama' OP1.jpg"
//Break Periods
//Storyboard Layer 0 (Background)
//Storyboard Layer 1 (Fail)
//Storyboard Layer 2 (Pass)
//Storyboard Layer 3 (Foreground)
//Storyboard Sound Samples
//Background Colour Transformations
3,100,163,162,255

[TimingPoints]
456,352.941176470588,4,1,1,100,1,0
10294,-100,4,1,2,100,0,0
11882,-100,4,1,1,100,0,0
27147,-100,4,1,2,100,0,0
28823,-100,4,1,1,100,0,0
54014,-100,4,1,2,100,0,0
55514,-100,4,1,1,100,0,1
78103,-100,4,1,1,100,0,0
89308,-100,4,1,0,100,0,0

[Colours]
Combo1 : 128,128,255
Combo2 : 128,255,255
Combo3 : 255,128,128

[HitObjects]
32,192,456,2,0,B|112:176|112:88,1,133.333333333333,0|2
128,48,808,2,0,B|272:48,1,133.333333333333,8|0
288,96,1161,2,0,B|291:172|367:188,1,133.333333333333,4|2
368,240,1514,2,0,B|288:256|288:344,1,133.333333333333,8|0
232,336,1867,5,4
128,336,2103,1,2
88,296,2220,1,8
40,200,2455,1,0
40,144,2573,1,4
112,224,2808,1,2
160,200,2926,1,8
248,144,3161,5,0
248,88,3279,2,0,B|336:88|368:24,1,133.333333333333,0|2
400,72,3632,2,0,B|400:160|312:200,1,133.333333333333,8|0
368,232,3985,2,0,B|456:232|488:168,1,133.333333333333,4|2
512,224,4338,2,0,B|512:312|424:352,1,133.333333333333,8|0
400,336,4691,5,4
296,336,4926,1,2
240,336,5044,1,8
136,336,5279,1,0
88,304,5397,1,4
48,208,5632,1,2
48,152,5750,1,8
88,56,5985,1,0
136,32,6103,6,0,B|216:32|232:128,1,133.333333333333,4|2
280,112,6455,2,0,B|280:192|368:216,1,133.333333333333,8|0
344,264,6808,2,0,B|424:264|440:360,1,133.333333333333,4|2
488,344,7161,2,0,B|488:200,1,133.333333333333,8|0
488,160,7514,5,4
456,56,7750,1,2
456,56,7867,1,8
352,32,8103,1,0
352,32,8220,1,4
248,56,8455,1,2
248,56,8573,1,8
216,160,8808,1,0
256,192,8926,6,0,B|256:272|168:272,1,133.333333333333,4|2
120,272,9279,2,0,B|35:272|35:192,1,133.333333333333,8|0
35,139,9632,2,12,B|35:59|123:59,1,133.333333333333,4|2
171,59,9985,2,0,B|255:58|255:138,1,133.333333333333,8|0
312,144,10338,5,4
368,144,10455,1,8
416,168,10573,1,8
448,216,10691,1,8
448,272,10808,1,8
416,312,10926,1,8
368,336,11044,1,4
312,336,11161,1,4
264,312,11279,1,4
240,264,11397,1,12
200,232,11514,1,12
144,232,11632,1,8
104,272,11750,5,4
32,192,11985,2,0,B|40:64|176:48,1,200,0|0
208,48,12455,1,2
312,64,12691,1,0
312,64,12808,1,8
328,168,13044,2,0,B|384:232,1,66.6666666666667,4|0
280,272,13397,2,0,B|328:328,1,66.6666666666667,2|8
224,352,13750,1,0
168,352,13867,2,0,B|88:352|80:264,1,133.333333333333,4|2
80,216,14220,5,8
80,112,14455,1,0
80,56,14573,1,4
184,80,14808,5,2
240,80,14926,2,0,B|328:56|288:112|400:80,1,133.333333333333,8|0
424,96,15279,2,0,B|496:104|512:216,1,133.333333333333,4|2
504,240,15632,2,0,B|416:264|456:208|344:240,1,133.333333333333,8|0
320,232,15985,5,4
176,352,16220,1,2
176,352,16338,1,8
40,232,16573,1,0
40,232,16691,1,4
176,104,16926,1,2
176,104,17044,1,8
320,232,17279,1,0
320,232,17397,1,4
424,232,17632,5,2
480,232,17750,2,0,B|480:184|432:160|376:184,1,133.333333333333,8|0
328,184,18103,2,0,B|256:232|176:168,1,133.333333333333,4|2
152,184,18455,2,0,B|80:136|0:200,1,133.333333333333,8|0
16,232,18808,1,4
16,288,18926,1,0
56,328,19044,1,2
112,328,19161,2,0,B|192:304|160:368|272:328,1,133.333333333333,8|0
296,336,19514,2,0,B|362:356|359:302|424:326,1,133.333333333333,4|2
480,328,19867,5,8
480,224,20103,1,0
480,224,20220,1,4
480,120,20455,5,2
424,120,20573,2,0,B|416:40|336:32,1,133.333333333333,8|0
288,32,20926,2,0,B|144:32,1,133.333333333333,4|2
152,88,21279,2,0,B|312:88,1,133.333333333333,8|0
288,144,21632,5,4
264,328,21867,1,2
264,328,21985,1,8
80,352,22220,1,0
80,352,22338,1,4
120,168,22573,1,2
120,168,22691,1,8
288,144,22926,1,0
288,144,23044,1,4
256,192,23161,12,0,24455
480,192,24808,5,8
256,352,25161,1,2
32,192,25514,1,8
256,32,25867,5,0
360,40,26103,1,2
360,40,26220,1,8
432,120,26455,1,0
432,120,26573,1,4
432,224,26808,1,2
432,224,26926,1,8
32,224,27279,5,4
88,224,27397,1,4
136,216,27514,1,4
176,184,27632,1,4
200,136,27750,1,4
232,88,27867,1,4
256,136,27985,1,8
280,184,28103,1,8
320,216,28220,1,8
376,224,28338,1,8
432,224,28455,1,8
480,248,28573,1,8
480,304,28691,5,8
384,344,28926,2,0,B|280:392|176:328,1,200,2|0
136,336,29397,1,4
32,336,29632,1,2
32,336,29750,1,8
88,248,29985,1,0
88,248,30103,1,4
192,248,30338,2,0,B|256:208,1,66.6666666666667,2|8
256,104,30691,2,0,B|192:144,1,66.6666666666667,0|4
40,144,31044,5,2
88,120,31162,1,8
152,32,31397,1,0
208,32,31514,1,4
312,32,31750,5,2
368,32,31867,2,0,B|448:32|464:112,1,133.333333333333,8|0
463,107,32220,2,0,B|377:108|376:192,1,133.333333333333,4|2
376,186,32573,2,0,B|376:240|266:241|286:168,1,133.333333333333,8|0
283,187,32926,5,4
136,296,33161,1,2
136,296,33279,1,8
320,280,33514,2,0,B|256:336,1,66.6666666666667,0|4
160,176,33867,2,0,B|224:120,1,66.6666666666667,2|8
392,96,34220,1,0
392,96,34338,1,4
456,176,34573,5,2
456,232,34691,2,0,B|456:368,1,133.333333333333,8|0
400,232,35044,2,0,B|400:368,1,133.333333333333,4|2
344,232,35397,2,0,B|344:376,1,133.333333333333,8|0
288,232,35750,2,0,B|288:320|192:320,1,133.333333333333,4|2
288,176,36103,2,0,B|288:88|192:88,1,133.333333333333,8|0
152,88,36455,5,4
184,192,36691,1,2
184,192,36808,1,12
80,168,37044,1,0
80,168,37161,1,4
112,280,37397,5,2
112,336,37514,1,8
200,272,37750,2,0,B|200:344,1,66.6666666666667,0|4
288,280,38103,1,2
288,336,38220,1,8
376,272,38455,2,0,B|376:344,1,66.6666666666667,0|4
440,160,38808,6,0,B|488:104,1,66.6666666666667,2|8
304,160,39161,2,0,B|256:104,1,66.6666666666667,0|4
80,160,39514,2,0,B|128:104,1,66.6666666666667,2|8
200,280,39867,1,0
200,336,39985,6,0,B|360:368|464:272|440:80,1,400,4|0
400,72,40808,1,2
352,56,40926,1,2
304,72,41044,1,8
200,72,41279,1,2
144,72,41397,5,4
96,88,41514,1,0
80,136,41632,1,0
96,184,41750,2,0,B|160:240|232:176,1,133.333333333333,8|2
264,168,42103,1,4
312,184,42220,1,0
336,232,42338,1,0
304,280,42455,2,0,B|220:295|226:392,1,133.333333333333,8|0
176,376,42808,6,0,B|104:376|72:296|72:296|16:296|16:296|16:248|16:248|72:248|72:248|72:176|128:160,1,400,4|0
168,152,43632,1,2
216,128,43750,1,2
240,80,43867,1,8
344,80,44103,1,2
368,128,44220,5,4
416,152,44338,1,0
440,200,44455,1,0
440,256,44573,2,0,B|440:344|344:360,1,133.333333333333,8|2
312,352,44926,1,4
256,352,45044,1,0
200,352,45161,1,0
144,352,45279,2,0,B|76:336|70:253,1,133.333333333333,8|2
72,200,45632,6,0,B|24:128|24:176|96:104|128:72|64:72|160:152|160:152|280:144|304:168|280:144|288:72|288:72,1,400,4|0
288,32,46455,1,6
336,64,46573,1,2
376,32,46691,1,8
480,32,46926,1,2
480,88,47044,5,4
480,144,47161,1,0
480,200,47279,1,0
480,256,47397,2,0,B|392:256|392:360,1,133.333333333333,8|2
336,336,47750,1,4
280,336,47867,1,0
224,336,47985,1,0
168,336,48103,2,0,B|163:257|81:254,1,133.333333333333,8|2
32,256,48455,6,0,B|32:120|32:120|112:120|128:40|128:40|256:40,1,400,4|0
312,40,49279,1,2
360,64,49397,1,2
352,120,49514,1,8
184,352,49867,5,4
328,352,50220,1,2
128,280,50573,1,0
384,280,50926,1,2
72,208,51279,1,4
440,208,51632,1,2
128,136,51985,1,0
384,136,52338,1,2
256,192,52691,12,0,53750
256,32,54103,5,12
256,48,54220,1,8
256,64,54338,1,8
256,80,54455,1,8
256,96,54573,1,8
256,112,54691,1,8
256,128,54809,1,8
256,144,54926,1,8
256,160,55044,1,8
264,176,55161,1,8
272,192,55279,1,8
288,200,55397,1,8
304,200,55514,6,8,B|424:208|424:336,1,200,4|8
344,352,56044,1,2
264,352,56220,2,0,B|192:352|184:272,1,100,0|2
144,232,56573,2,0,B|120:168|48:184,1,100,8|2
32,112,56926,6,0,B|128:56|240:120,1,200,4|8
304,112,57455,1,2
384,112,57632,2,0,B|432:88|480:112,1,100,0|2
480,192,57985,2,0,B|432:216|382:192,1,100,8|2
304,192,58338,6,0,B|240:192|240:256|240:256|240:296|208:328|160:304,1,200,4|8
96,312,58867,1,2
96,232,59044,2,0,B|27:148,1,100,0|2
112,136,59397,2,0,B|170:47,1,100,8|2
232,104,59750,5,4
312,104,59926,1,2
384,64,60103,1,8
456,104,60279,1,6
472,144,60367,1,0
456,184,60455,2,0,B|240:184,1,200,0|8
232,264,60985,1,2
312,280,61161,6,0,B|290:360|187:372|152:284,1,200,4|8
96,344,61691,1,2
56,280,61867,2,0,B|16:232|49:176,1,100,0|2
112,224,62220,2,0,B|152:176|119:121,1,100,8|2
176,64,62573,6,0,B|280:24|384:72,3,200,4|8|4|8
472,192,63985,5,0
392,192,64161,1,6
352,192,64250,1,0
328,224,64338,1,8
304,296,64514,1,2
248,352,64691,2,0,B|192:352|167:301,1,100,0|2
240,272,65044,2,0,B|200:208|143:233,1,100,8|2
80,224,65397,6,0,B|80:168|144:144|144:144|144:48|144:48,1,200,4|8
224,32,65926,1,2
301,53,66103,2,0,B|300:52|301:143|301:143|365:167|365:223,1,200,0|8
224,296,66808,6,0,B|136:360|32:296,1,200,4|8
8,224,67338,1,2
37,149,67514,2,0,B|125:85|229:149,1,200,0|8
256,224,68044,1,2
336,224,68220,6,0,B|432:159,1,100,4|2
352,128,68573,2,0,B|384:25,1,100,8|2
304,48,68926,2,0,B|191:47,1,100,0|2
128,32,69279,2,0,B|161:134,1,100,8|2
256,160,69632,6,0,B|208:256|296:264|256:368,3,200,4|8|4|8
128,352,71044,5,4
96,280,71220,1,2
128,208,71397,1,8
96,136,71573,1,6
80,96,71661,1,0
96,56,71750,1,0
168,96,71926,2,0,B|274:96,1,100,2|8
352,96,72279,1,2
432,96,72455,6,0,B|480:200|400:176|456:312,1,200,4|8
384,344,72985,1,2
312,312,73161,2,0,B|256:312|216:368|168:312|112:312,1,200,4|8
48,264,73691,1,2
48,184,73867,6,0,B|48:120|97:93,1,100,4|2
128,168,74220,2,0,B|160:120|216:127,1,100,8|2
200,208,74573,2,0,B|264:184|301:231,1,100,4|2
240,280,74926,2,0,B|296:320|348:279,1,100,8|2
416,288,75279,5,4
480,240,75455,1,2
480,160,75632,2,0,B|480:53,1,100,8|2
400,64,75985,1,4
360,136,76161,1,2
288,168,76338,2,0,B|189:168,1,100,8|2
256,192,76691,12,4,78103
32,32,79514,5,6
88,32,79632,1,0
144,32,79750,1,0
200,32,79867,2,0,B|280:32|288:120,1,133.333333333333,8|0
288,168,80220,1,6
344,168,80338,1,0
400,168,80455,1,0
456,168,80573,2,0,B|456:256|368:272,1,133.333333333333,8|0
328,264,80926,6,0,B|216:296|240:224|120:272,3,200,4|0|4|0
40,136,82338,5,6
88,104,82455,1,0
136,136,82573,1,0
176,168,82691,2,0,B|248:216|312:160,1,133.333333333333,8|0
344,136,83044,1,6
392,104,83161,1,0
440,136,83279,1,0
480,168,83397,2,0,B|528:240|472:304,1,133.333333333333,8|0
432,320,83750,6,0,B|336:376|224:312,3,200,4|0|4|0
72,352,85161,5,6
40,304,85279,1,0
24,256,85397,1,0
80,264,85514,2,0,B|160:240|128:136,1,133.333333333333,8|0
184,152,85867,1,6
195,208,85985,1,0
224,256,86103,1,0
256,208,86220,2,0,B|329:168|380:264,1,133.333333333333,8|0
424,248,86573,6,0,B|488:152|416:56,3,200,4|0|4|0
256,32,87985,5,4
32,192,88691,1,8
256,352,89397,1,4
