osu file format v14

[General]
AudioFilename: zoukadearou.mp3
AudioLeadIn: 0
PreviewTime: 51095
Countdown: 0
SampleSet: Soft
StackLeniency: 0.7
Mode: 0
LetterboxInBreaks: 0
WidescreenStoryboard: 0

[Editor]
Bookmarks: 24869,31063,100740,106934,167321,179708,210676
DistanceSpacing: 1
BeatDivisor: 4
GridSize: 32
TimelineZoom: 1.8

[Metadata]
Title:Zouka de Arou to Shita Mono
TitleUnicode:造花であろうとした者
Artist:senya
ArtistUnicode:senya
Creator:Satellite
Version:Easy
Source:西方Project
Tags:東方 Touhou Seihou 瞬殺サレ道 ZUN c90 comiket 90 コミックマーケット90 Hakurei Reimu 博麗 霊夢 西方秋霜玉 Shuugou Gyoku 二色蓮花蝶 Dichromatic Lotus Butterfly Ancients 秋霜玉 かませ虎 kamase-tora HiZuMi Must Noise Sellenite dagger-gazel yuuhei Doyak Narcissu Giralda
BeatmapID:1091798
BeatmapSetID:495283

[Difficulty]
HPDrainRate:3
CircleSize:3.3
OverallDifficulty:3
ApproachRate:4
SliderMultiplier:0.9
SliderTickRate:1

[Events]
//Background and Video events
0,0,"BG.png",0,0
//Break Periods
2,24869,29743
2,100940,105614
2,167521,178388
//Storyboard Layer 0 (Background)
//Storyboard Layer 1 (Fail)
//Storyboard Layer 2 (Pass)
//Storyboard Layer 3 (Foreground)
//Storyboard Sound Samples

[TimingPoints]
1644,387.096774193548,4,2,1,50,1,0
7837,-100,4,2,1,30,0,0
8031,-100,4,2,1,50,0,0
10353,-100,4,2,1,60,0,0
10547,-100,4,2,1,50,0,0
10740,-100,4,2,1,60,0,0
14321,-100,4,2,1,20,0,0
14418,-100,4,2,1,50,0,0
14611,-100,4,2,1,55,0,0
14805,-100,4,2,1,60,0,0
14998,-100,4,2,1,65,0,0
15192,-100,4,2,1,70,0,0
15385,-100,4,2,1,75,0,0
15579,-100,4,2,1,70,0,0
18676,-100,4,2,1,60,0,0
21773,-100,4,2,1,70,0,0
23321,-100,4,2,1,80,0,0
24482,-100,4,2,1,60,0,0
37256,-100,4,2,1,50,0,0
37450,-100,4,2,1,60,0,0
43450,-100,4,2,1,70,0,0
43643,-100,4,2,1,60,0,0
46547,-100,4,2,1,70,0,0
46740,-100,4,2,1,60,0,0
48966,-100,4,2,1,50,0,0
49256,-100,4,2,1,70,0,0
49353,-100,4,2,1,60,0,0
49740,-100,4,2,1,40,0,0
51192,-100,4,2,1,80,0,1
51385,-100,4,2,1,70,0,0
57385,-100,4,2,1,50,0,0
57773,-100,4,2,1,70,0,0
58547,-100,4,2,1,60,0,0
58740,-100,4,2,1,70,0,0
64740,-100,4,2,1,80,0,0
64934,-100,4,2,1,70,0,0
74418,-100,4,2,1,60,0,0
74805,-100,4,2,1,50,0,0
75192,-100,4,2,1,60,0,0
75966,-100,4,2,1,70,0,0
82063,-100,4,2,1,40,0,0
82160,-100,4,2,1,70,0,0
86805,-100,4,2,1,80,0,0
87579,-100,4,2,1,70,0,0
87966,-100,4,2,1,60,0,0
99579,-100,4,2,1,50,0,0
99966,-100,4,2,1,40,0,0
100353,-100,4,2,1,30,0,0
100740,-100,4,2,1,50,0,0
106934,-100,4,2,1,70,0,0
107127,-100,4,2,1,60,0,0
110031,-100,4,2,1,70,0,0
112450,-100,4,2,1,50,0,0
112740,-100,4,2,1,70,0,0
112837,-100,4,2,1,60,0,0
113321,-100,4,2,1,40,0,0
114482,-100,4,2,1,60,0,0
114676,-100,4,2,1,70,0,0
115063,-100,4,2,1,60,0,0
115450,-100,4,2,1,70,0,0
116224,-100,4,2,1,80,0,1
116418,-100,4,2,1,70,0,0
122418,-100,4,2,1,50,0,0
122805,-100,4,2,1,70,0,0
128611,-100,4,2,1,80,0,0
128805,-100,4,2,1,70,0,0
129773,-100,4,2,1,80,0,0
129966,-100,4,2,1,70,0,0
140998,-100,4,2,1,80,0,0
141192,-100,4,2,1,70,0,0
152998,-100,4,2,1,80,0,0
153385,-100,4,2,1,90,0,0
153966,-100,4,2,1,80,0,0
154353,-100,4,2,1,70,0,0
154547,-100,4,2,1,80,0,0
154740,-100,4,2,1,70,0,0
158514,-100,4,2,1,60,0,0
158805,-100,4,2,1,50,0,0
158902,-100,4,2,1,60,0,0
159579,-100,4,2,1,70,0,0
159676,-100,4,2,1,60,0,0
160353,-100,4,2,1,70,0,0
160450,-100,4,2,1,60,0,0
161127,-100,4,2,1,70,0,0
161224,-100,4,2,1,60,0,0
161902,-100,4,2,1,70,0,0
162289,-100,4,2,1,80,0,0
162676,-100,4,2,1,70,0,0
162773,-100,4,2,1,60,0,0
163837,-100,4,2,1,70,0,0
164224,-100,4,2,1,80,0,0
164321,-100,4,2,1,70,0,0
164998,-100,4,2,1,80,0,0
165385,-100,4,2,1,85,0,0
165773,-100,4,2,1,80,0,0
166160,-100,4,2,1,70,0,0
166547,-100,4,2,1,60,0,0
166934,-100,4,2,1,50,0,0
173514,-100,4,2,1,60,0,0
178547,-100,4,2,1,65,0,0
178740,-100,4,2,1,70,0,0
179708,-100,4,2,1,80,0,0
180289,-100,4,2,1,70,0,0
180869,-100,4,2,1,80,0,0
181063,-100,4,2,1,80,0,1
181256,-100,4,2,1,80,0,0
185902,-100,4,2,1,90,0,0
186095,-100,4,2,1,80,0,0
191418,-100,4,2,1,70,0,0
192095,-100,4,2,1,80,0,0
192289,-100,4,2,1,70,0,0
197514,-100,4,2,1,80,0,0
198482,-100,4,2,1,70,0,0
201385,-100,4,2,1,80,0,0
201579,-100,4,2,1,70,0,0
202160,-100,4,2,1,75,0,0
202353,-100,4,2,1,65,0,0
202934,-100,4,2,1,70,0,0
203224,-100,4,2,1,75,0,0
203708,-100,4,2,1,80,0,0
203998,-100,4,2,1,85,0,0
204482,-100,4,2,1,90,0,0
204773,-100,4,2,1,95,0,0
205256,-100,4,2,1,80,0,0
205353,-100,4,2,1,60,0,0
205643,-100,4,2,1,50,0,0
205837,-100,4,2,1,45,0,0
205934,-100,4,2,1,40,0,0
206805,-100,4,2,1,5,0,0

[Colours]
Combo1 : 128,128,255
Combo2 : 128,0,64
Combo3 : 149,131,252
Combo4 : 255,128,128

[HitObjects]
62,68,1644,6,0,P|77:159|89:254,1,180,2|0,0:0|0:0,0:0:0:0:
70,334,2805,1,2,0:0:0:0:
157,312,3192,2,0,B|262:298|226:350|331:334,1,180,2|2,0:0|0:0,0:0:0:0:
417,363,4353,1,2,0:0:0:0:
478,297,4740,6,0,P|485:212|487:107,1,180,2|0,0:0|0:0,0:0:0:0:
457,32,5902,1,0,0:0:0:0:
370,55,6289,2,0,P|362:139|361:245,1,180,2|2,0:0|0:0,0:0:0:0:
387,320,7450,1,2,0:0:0:0:
298,301,7837,6,0,B|236:309|236:309|185:281|185:281|125:286,1,180,4|0,0:0|0:0,0:0:0:0:
48,333,8998,1,2,0:0:0:0:
36,243,9385,2,0,B|33:198|33:198|40:149,1,90,2|0,0:0|0:0,0:0:0:0:
91,80,10160,2,0,L|87:32,2,45,0|2|0,0:0|0:0|0:0,0:0:0:0:
166,128,10934,6,0,L|262:132,1,90,2|0,0:0|0:0,0:0:0:0:
338,95,11708,2,0,P|345:139|333:182,1,90,0|2,0:0|0:0,0:0:0:0:
251,220,12482,6,0,P|293:223|264:320,1,180,6|2,0:0|3:0,0:0:0:0:
183,291,13643,1,8,0:0:0:0:
156,204,14031,2,0,P|172:161|209:133,1,90,4|6,0:0|0:0,0:0:0:0:
295,129,14805,2,0,L|405:129,1,90,6|6,0:0|0:0,0:0:0:0:
455,73,15579,5,4,0:0:0:0:
471,161,15966,2,0,P|476:208|465:268,1,90,2|2,1:0|1:0,0:0:0:0:
429,330,16740,1,8,0:0:0:0:
345,297,17127,2,0,B|251:285|266:342|171:329,1,180,4|2,0:0|1:0,0:0:0:0:
88,362,18289,1,2,1:0:0:0:
41,285,18676,6,0,B|24:195|24:195|55:108,1,180,4|2,0:0|3:0,0:0:0:0:
120,51,19837,1,8,0:0:0:0:
195,100,20224,2,0,L|288:106,1,90,4|8,0:0|0:0,0:0:0:0:
361,58,20998,2,0,L|371:153,1,90,2|8,3:0|0:0,0:0:0:0:
435,210,21773,6,0,B|442:262|419:298|419:298|375:282|331:293,1,180,6|2,1:0|1:0,0:0:0:0:
268,356,22934,1,2,1:0:0:0:
182,328,23321,2,0,P|175:294|173:261,2,67.5,4|4|4,0:0|0:0|0:0,0:0:0:0:
182,328,31063,6,0,P|216:286|333:292,1,180,4|2,0:0|3:0,0:0:0:0:
390,360,32224,1,8,0:0:0:0:
477,338,32611,2,0,B|494:249|494:249|479:160,1,180,0|2,0:0|3:0,0:0:0:0:
460,72,33773,1,8,0:0:0:0:
393,132,34160,6,0,P|349:138|295:142,1,90,4|8,0:0|0:0,0:0:0:0:
214,131,34934,1,2,3:0:0:0:
173,50,35321,1,8,0:0:0:0:
89,84,35708,2,0,P|80:131|89:180,1,90,4|8,0:0|0:0,0:0:0:0:
110,258,36482,2,0,L|96:301,2,45,2|2|10,3:0|0:0|0:0,0:0:0:0:
196,233,37256,6,0,B|294:228|264:284|366:276,1,180,4|2,0:0|0:0,0:0:0:0:
481,138,38805,2,0,P|493:79|394:45,1,180,2|2,0:0|0:0,0:0:0:0:
257,154,40353,6,0,P|168:139|78:134,1,180,2|2,0:0|0:0,0:0:0:0:
36,310,41902,2,0,P|124:324|214:329,1,180,2|2,0:0|0:0,0:0:0:0:
387,379,43450,6,0,P|393:336|391:290,1,90,4|8,0:0|0:0,0:0:0:0:
349,209,44224,2,0,B|307:193|307:193|262:197,1,90,4|8,0:0|0:0,0:0:0:0:
190,143,44998,2,0,P|187:98|193:53,2,90,4|8|4,0:0|0:0|0:0,0:0:0:0:
262,197,46160,1,8,0:0:0:0:
342,157,46547,6,0,P|382:141|446:237,2,180,4|6|4,0:0|0:0|0:0,0:0:0:0:
233,300,48869,2,0,P|189:288|144:287,1,90,4|4,0:0|0:0,0:0:0:0:
58,311,49643,6,0,B|37:160|138:214|103:54,1,270,4|2,0:0|0:0,0:0:0:0:
24,99,51192,6,0,P|98:145|176:105,1,180,4|2,0:0|3:0,0:0:0:0:
209,22,52353,1,8,0:0:0:0:
267,90,52740,2,0,P|275:176|270:276,1,180,4|2,0:0|3:0,0:0:0:0:
217,342,53902,1,8,0:0:0:0:
135,304,54289,6,0,P|106:300|44:300,1,90,4|8,0:0|0:0,0:0:0:0:
30,211,55063,2,0,P|59:215|121:215,1,90,2|8,3:0|0:0,0:0:0:0:
195,167,55837,2,0,L|192:111,2,45,4|2|8,0:0|0:0|0:0,0:0:0:0:
279,198,56611,2,0,L|276:254,2,45,2|2|8,3:0|0:0|0:0,0:0:0:0:
355,150,57385,5,4,0:0:0:0:
274,107,57773,2,0,P|345:57|425:91,1,180,4|4,1:0|1:0,0:0:0:0:
440,179,58934,2,0,P|467:182|503:181,2,45,4|0|8,0:0|0:0|0:0,0:0:0:0:
355,149,59708,1,2,3:0:0:0:
374,237,60095,1,8,0:0:0:0:
287,210,60482,6,0,P|303:295|383:329,2,180,4|4|4,0:0|1:0|0:0,0:0:0:0:
355,149,62418,1,4,0:0:0:0:
426,93,62805,2,0,P|443:134|440:179,1,90,4|2,0:0|0:0,0:0:0:0:
374,237,63579,6,0,L|232:231,1,135,4|4,0:0|0:0,0:0:0:0:
148,228,64547,2,0,L|137:180,1,45,4|4,0:0|0:0,0:0:0:0:
129,139,64934,6,0,L|263:144,1,135,4|8,0:0|0:0,0:0:0:0:
336,89,65902,2,0,L|426:93,1,90,2|8,3:0|0:0,0:0:0:0:
489,155,66676,6,0,P|506:242|456:314,1,180,4|2,0:0|3:0,0:0:0:0:
374,350,67837,1,8,0:0:0:0:
301,296,68224,2,0,B|205:272|224:333|125:305,1,180,4|2,0:0|3:0,0:0:0:0:
54,251,69385,1,8,0:0:0:0:
72,162,69773,6,0,P|137:219|125:305,1,180,4|2,0:0|3:0,0:0:0:0:
41,339,70934,1,8,0:0:0:0:
54,251,71321,2,0,P|146:245|247:244,1,180,4|2,0:0|3:0,0:0:0:0:
299,305,72482,1,8,0:0:0:0:
378,261,72869,6,0,P|391:218|387:174,1,90,4|4,0:0|1:0,0:0:0:0:
338,100,73643,1,4,1:0:0:0:
276,166,74031,1,12,0:0:0:0:
248,81,74418,6,0,P|388:22|387:175,1,360,4|4,0:0|0:0,0:0:0:0:
208,162,76740,2,0,P|163:158|112:154,1,90,4|8,0:0|0:0,0:0:0:0:
31,131,77514,6,0,B|19:227|87:201|74:299,2,180,4|2|4,0:0|3:0|0:0,0:0:0:0:
73,51,79450,1,8,0:0:0:0:
154,90,79837,2,0,P|198:96|243:95,1,90,6|8,0:0|0:0,0:0:0:0:
317,44,80611,6,0,P|292:95|385:146,1,180,4|2,0:0|3:0,0:0:0:0:
444,87,81773,1,2,3:0:0:0:
494,161,82160,6,0,P|498:250|471:335,1,180,4|4,0:0|0:0,0:0:0:0:
393,379,83321,1,2,3:0:0:0:
318,328,83708,2,0,B|224:306|237:368|144:347,1,180,4|4,0:0|0:0,0:0:0:0:
54,360,84869,1,2,3:0:0:0:
19,276,85256,6,0,P|8:232|2:187,1,90,4|2,0:0|3:0,0:0:0:0:
90,210,86031,2,0,P|91:165|97:120,1,90,4|4,0:0|0:0,0:0:0:0:
175,163,86805,2,0,B|184:131|192:104|192:104|230:102|260:80,1,135,4|4,0:0|0:0,0:0:0:0:
283,42,87579,6,0,B|322:76|399:48|399:48|390:79|396:105,1,180,4|4,0:0|0:0,0:0:0:0:
421,191,88740,5,8,0:0:0:0:
490,247,89127,2,0,P|488:291|474:334,1,90,2|8,3:0|0:0,0:0:0:0:
398,383,89902,1,2,3:0:0:0:
310,363,90289,1,8,0:0:0:0:
220,351,90676,2,0,P|192:352|172:355,2,45,2|2|8,3:0|0:0|0:0,0:0:0:0:
272,278,91450,6,0,P|277:232|275:181,1,90,4|8,0:0|0:0,0:0:0:0:
256,100,92224,1,2,3:0:0:0:
187,158,92611,1,8,0:0:0:0:
168,69,92998,2,0,P|102:123|112:210,1,180,4|2,0:0|3:0,0:0:0:0:
194,246,94160,1,8,0:0:0:0:
270,199,94547,6,0,B|370:183|342:237|445:217,1,180,4|2,0:0|3:0,0:0:0:0:
494,141,95708,1,8,0:0:0:0:
404,136,96095,2,0,P|388:224|382:314,1,180,4|2,0:0|3:0,0:0:0:0:
301,355,97256,1,8,0:0:0:0:
220,314,97643,6,0,P|183:307|125:308,1,90,4|8,0:0|0:0,0:0:0:0:
46,340,98418,2,0,P|52:303|52:245,1,90,4|8,0:0|0:0,0:0:0:0:
20,166,99192,2,0,P|56:172|115:172,1,90,4|2,0:0|0:0,0:0:0:0:
194,140,99966,2,0,P|187:176|188:235,1,90,2|2,0:0|0:0,0:0:0:0:
220,314,100740,5,4,0:0:0:0:
220,313,106934,6,0,P|281:252|366:269,1,180,4|4,0:0|0:0,0:0:0:0:
415,344,108095,1,8,0:0:0:0:
489,293,108482,2,0,B|505:197|448:228|462:118,1,180,4|4,0:0|0:0,0:0:0:0:
500,37,109643,1,8,0:0:0:0:
410,46,110031,6,0,P|364:49|310:38,1,90,4|2,0:0|0:0,0:0:0:0:
270,116,110805,2,0,P|224:119|170:108,1,90,4|2,0:0|0:0,0:0:0:0:
134,34,111579,6,0,B|155:185|54:131|89:291,1,270,4|4,0:0|0:0,0:0:0:0:
133,368,113127,2,0,P|191:336|255:350,2,135,4|2|2,0:0|0:0|0:0,0:0:0:0:
42,372,114676,6,0,P|30:328|29:283,1,90,2|2,0:0|0:0,0:0:0:0:
3,197,115450,2,0,P|25:158|56:125,1,90,2|2,0:0|0:0,0:0:0:0:
98,45,116224,6,0,P|187:30|274:48,1,180,4|2,0:0|3:0,0:0:0:0:
318,127,117385,1,8,0:0:0:0:
397,84,117773,2,0,B|425:176|364:167|393:260,1,180,4|2,0:0|3:0,0:0:0:0:
431,341,118934,1,8,0:0:0:0:
341,333,119321,6,0,L|246:327,1,90,4|8,0:0|0:0,0:0:0:0:
169,364,120095,2,0,L|74:358,1,90,2|8,3:0|0:0,0:0:0:0:
7,303,120869,2,0,P|16:220|103:205,1,180,4|2,0:0|3:0,0:0:0:0:
161,270,122031,1,8,0:0:0:0:
236,220,122418,5,4,0:0:0:0:
174,153,122805,2,0,P|259:133|321:193,2,180,12|12|8,0:0|0:0|0:0,0:0:0:0:
99,201,124740,2,0,L|44:194,2,45,2|2|8,3:0|3:0|0:0,0:0:0:0:
180,243,125514,6,0,P|198:285|211:331,1,90,4|8,0:0|0:0,0:0:0:0:
301,327,126289,2,0,P|314:284|332:243,1,90,4|8,0:0|0:0,0:0:0:0:
411,203,127063,6,0,B|384:156|336:140|284:156|256:184|256:184|228:156|180:140|136:156|100:201,1,360,4|4,0:0|0:0,0:0:0:0:
198,294,129192,2,0,P|256:322|314:294,1,135,4|4,0:0|0:0,0:0:0:0:
339,256,129966,6,0,B|389:267|427:253|427:253|444:206,1,135,4|8,0:0|0:0,0:0:0:0:
469,123,130934,2,0,P|424:120|383:137,1,90,2|8,3:0|0:0,0:0:0:0:
299,170,131708,2,0,P|222:127|134:138,1,180,4|2,0:0|3:0,0:0:0:0:
69,200,132869,1,8,0:0:0:0:
90,287,133256,2,0,L|77:337,2,45,4|2|8,0:0|0:0|0:0,0:0:0:0:
157,226,134031,2,0,P|201:228|243:244,1,90,2|8,3:0|0:0,0:0:0:0:
320,290,134805,6,0,P|328:198|332:104,1,180,4|2,0:0|3:0,0:0:0:0:
293,28,135966,1,8,0:0:0:0:
208,59,136353,2,0,P|162:62|114:57,1,90,4|8,0:0|0:0,0:0:0:0:
33,27,137127,2,0,P|36:73|31:121,1,90,2|8,3:0|0:0,0:0:0:0:
3,202,137902,6,0,P|92:206|182:213,1,180,4|2,0:0|3:0,0:0:0:0:
247,275,139063,1,8,0:0:0:0:
335,258,139450,2,0,P|342:215|343:165,1,90,4|8,0:0|0:0,0:0:0:0:
308,85,140224,2,0,L|315:37,2,45,2|2|2,3:0|0:0|3:0,0:0:0:0:
226,122,140998,6,0,B|164:119|164:119|117:89|117:89|56:83,2,180,4|2|4,0:0|3:0|0:0,0:0:0:0:
308,85,142934,1,8,0:0:0:0:
387,127,143321,2,0,B|391:173|391:173|382:215,1,90,4|8,0:0|0:0,0:0:0:0:
349,299,144095,6,0,B|270:257|270:257|173:264,1,180,6|4,0:0|0:0,0:0:0:0:
108,318,145256,1,12,0:0:0:0:
26,280,145643,2,0,B|19:212|19:212|42:178|42:178|35:107,1,180,4|2,0:0|3:0,0:0:0:0:
21,18,146805,1,12,0:0:0:0:
105,48,147192,5,2,0:0:0:0:
190,75,147579,2,0,P|275:50|359:77,2,180,12|12|8,0:0|0:0|0:0,0:0:0:0:
121,134,149514,2,0,P|112:169|114:224,1,90,4|8,0:0|0:0,0:0:0:0:
146,306,150289,5,4,0:0:0:0:
221,354,150676,1,8,0:0:0:0:
299,308,151063,2,0,P|269:275|227:264,1,90,4|8,0:0|0:0,0:0:0:0:
152,213,151837,2,0,P|225:182|320:208,1,180,4|2,0:0|3:0,0:0:0:0:
384,268,152998,1,14,0:0:0:0:
410,181,153385,6,0,P|424:115|409:50,1,135,6|6,0:0|0:0,0:0:0:0:
325,17,154353,2,0,L|275:20,1,45,6|6,0:0|0:0,0:0:0:0:
235,27,154740,6,0,P|219:91|234:157,1,135,6|8,0:0|0:0,0:0:0:0:
309,207,155708,2,0,P|306:251|292:294,1,90,2|8,3:0|0:0,0:0:0:0:
218,346,156482,6,0,B|173:321|156:284|156:284|117:300|67:280,1,180,6|2,0:0|3:0,0:0:0:0:
28,198,157643,1,2,3:0:0:0:
79,119,158031,2,0,P|108:153|118:197,2,90,4|2|4,0:0|3:0|0:0,0:0:0:0:
28,198,159192,1,2,3:0:0:0:
66,279,159579,6,0,P|153:288|212:223,1,180,4|4,0:0|0:0,0:0:0:0:
190,135,160740,1,2,3:0:0:0:
98,118,161127,2,0,P|100:162|121:201,1,90,4|2,0:0|3:0,0:0:0:0:
211,224,161902,2,0,P|254:201|277:166,1,90,4|12,0:0|0:0,0:0:0:0:
269,79,162676,6,0,B|326:78|366:92|366:92|405:68,1,135,4|2,0:0|0:0,0:0:0:0:
431,43,163450,2,0,P|426:108|444:181,1,135,4|4,0:0|0:0,0:0:0:0:
478,201,164224,6,0,P|476:248|466:301,1,90,4|2,0:0|3:0,0:0:0:0:
395,342,164998,2,0,P|348:340|295:330,1,90,4|2,0:0|3:0,0:0:0:0:
218,355,165773,6,0,B|193:337|158:337|133:357|133:357|140:261|85:303|96:186,1,270,2|2,0:0|0:0,0:0:0:0:
124,101,167321,1,2,0:0:0:0:
123,100,179708,6,0,P|186:107|240:58,1,135,6|4,0:0|0:0,0:0:0:0:
319,22,180676,2,0,L|382:30,1,45,4|4,0:0|0:0,0:0:0:0:
408,31,181063,6,0,B|393:104|439:95|423:162,1,135,6|8,0:0|0:0,0:0:0:0:
384,243,182031,2,0,P|339:231|278:236,1,90,2|8,3:0|0:0,0:0:0:0:
211,263,182805,6,0,B|203:213|198:154|198:154|179:181|141:194,1,180,4|2,0:0|3:0,0:0:0:0:
125,105,183966,1,8,0:0:0:0:
204,61,184353,2,0,B|304:75|253:130|354:147,1,180,4|4,0:0|0:0,0:0:0:0:
426,93,185514,1,8,0:0:0:0:
492,153,185902,6,0,P|495:202|480:250,1,90,4|8,0:0|0:0,0:0:0:0:
410,292,186676,2,0,L|305:285,1,90,2|8,3:0|0:0,0:0:0:0:
241,329,187450,2,0,L|232:373,2,45,4|2|8,0:0|0:0|0:0,0:0:0:0:
177,265,188224,2,0,P|166:221|166:176,1,90,4|8,0:0|0:0,0:0:0:0:
188,89,188998,6,0,P|274:100|339:41,2,180,4|2|4,0:0|3:0|0:0,0:0:0:0:
136,15,190934,1,8,0:0:0:0:
53,51,191321,2,0,B|27:144|90:132|61:226,1,180,2|4,3:0|0:0,0:0:0:0:
31,310,192482,5,8,0:0:0:0:
119,300,192869,2,0,P|164:295|209:301,1,90,2|8,3:0|0:0,0:0:0:0:
290,339,193643,1,4,0:0:0:0:
375,366,194031,1,8,0:0:0:0:
458,332,194418,2,0,P|466:291|463:244,1,90,4|8,0:0|0:0,0:0:0:0:
431,158,195192,6,0,L|339:165,1,90,4|8,0:0|0:0,0:0:0:0:
279,230,195966,2,0,L|187:223,1,90,4|8,0:0|0:0,0:0:0:0:
122,162,196740,2,0,L|130:114,2,45,4|2|8,0:0|0:0|0:0,0:0:0:0:
45,209,197514,2,0,P|42:253|52:297,1,90,4|8,0:0|0:0,0:0:0:0:
121,355,198289,6,0,B|217:361|192:297|287:303,1,180,4|2,0:0|3:0,0:0:0:0:
366,346,199450,1,8,0:0:0:0:
455,334,199837,2,0,P|474:246|471:156,1,180,4|2,0:0|3:0,0:0:0:0:
428,77,200998,1,8,0:0:0:0:
346,115,201385,6,0,L|249:112,1,90,4|8,0:0|0:0,0:0:0:0:
189,173,202160,2,0,L|92:170,1,90,4|8,0:0|0:0,0:0:0:0:
39,102,202934,6,0,P|10:170|64:253,3,180,4|4|4|4,0:0|0:0|0:0|0:0,0:0:0:0:
256,192,206805,12,0,210676,0:0:0:0:
