osu file format v14

[General]
AudioFilename: zoukadearou.mp3
AudioLeadIn: 0
PreviewTime: 51095
Countdown: 0
SampleSet: Soft
StackLeniency: 0.7
Mode: 0
LetterboxInBreaks: 0
WidescreenStoryboard: 0

[Editor]
Bookmarks: 24869,31063,100740,106934,167321,173514,210676
DistanceSpacing: 1
BeatDivisor: 4
GridSize: 32
TimelineZoom: 1.6

[Metadata]
Title:Zouka de Arou to Shita Mono
TitleUnicode:造花であろうとした者
Artist:senya
ArtistUnicode:senya
Creator:Satellite
Version:Ancients
Source:西方Project
Tags:東方 Touhou Seihou 瞬殺サレ道 ZUN c90 comiket 90 コミックマーケット90 Hakurei Reimu 博麗 霊夢 西方秋霜玉 Shuugou Gyoku 二色蓮花蝶 Dichromatic Lotus Butterfly Ancients 秋霜玉 かませ虎 kamase-tora HiZuMi Must Noise Sellenite dagger-gazel yuuhei Doyak Narcissu Giralda
BeatmapID:1054400
BeatmapSetID:495283

[Difficulty]
HPDrainRate:7
CircleSize:4
OverallDifficulty:8
ApproachRate:8.8
SliderMultiplier:1.7
SliderTickRate:1

[Events]
//Background and Video events
0,0,"BG.png",0,0
//Break Periods
2,25069,30434
2,100940,106305
2,167521,172885
//Storyboard Layer 0 (Background)
//Storyboard Layer 1 (Fail)
//Storyboard Layer 2 (Pass)
//Storyboard Layer 3 (Foreground)
//Storyboard Sound Samples

[TimingPoints]
1644,387.096774193548,4,2,1,50,1,0
1644,-133.333333333333,4,2,1,50,0,0
7837,-133.333333333333,4,2,1,30,0,0
8031,-133.333333333333,4,2,1,50,0,0
10353,-133.333333333333,4,2,1,60,0,0
10547,-133.333333333333,4,2,1,50,0,0
10740,-133.333333333333,4,2,1,60,0,0
12482,-100,4,2,1,60,0,0
14321,-100,4,2,1,20,0,0
14418,-100,4,2,1,50,0,0
14611,-100,4,2,1,55,0,0
14805,-100,4,2,1,60,0,0
14998,-100,4,2,1,65,0,0
15192,-100,4,2,1,70,0,0
15385,-100,4,2,1,75,0,0
15579,-100,4,2,1,70,0,0
18676,-100,4,2,1,60,0,0
21773,-100,4,2,1,70,0,0
23321,-80,4,2,1,80,0,0
23902,-133.333333333333,4,2,1,80,0,0
24482,-80,4,2,1,60,0,0
31063,-100,4,2,1,60,0,0
37256,-133.333333333333,4,2,1,50,0,0
37514,-133.333333333333,4,2,1,30,0,0
37773,-133.333333333333,4,2,1,50,0,0
38031,-133.333333333333,4,2,1,60,0,0
39063,-133.333333333333,4,2,1,40,0,0
39192,-133.333333333333,4,2,1,60,0,0
40611,-133.333333333333,4,2,1,40,0,0
40869,-133.333333333333,4,2,1,60,0,0
42160,-133.333333333333,4,2,1,40,0,0
42418,-133.333333333333,4,2,1,60,0,0
43450,-100,4,2,1,70,0,0
43643,-100,4,2,1,60,0,0
46547,-100,4,2,1,70,0,0
46740,-100,4,2,1,60,0,0
48966,-100,4,2,1,50,0,0
49256,-100,4,2,1,70,0,0
49353,-100,4,2,1,60,0,0
49643,-133.333333333333,4,2,1,60,0,0
49740,-133.333333333333,4,2,1,40,0,0
51192,-100,4,2,1,80,0,1
51385,-100,4,2,1,70,0,0
57385,-100,4,2,1,50,0,0
57773,-100,4,2,1,70,0,0
58547,-100,4,2,1,60,0,0
58740,-100,4,2,1,70,0,0
64740,-100,4,2,1,80,0,0
64934,-100,4,2,1,70,0,0
74418,-100,4,2,1,60,0,0
74805,-100,4,2,1,50,0,0
75192,-100,4,2,1,60,0,0
75966,-100,4,2,1,70,0,0
82063,-100,4,2,1,40,0,0
82160,-100,4,2,1,70,0,0
86805,-80,4,2,1,80,0,0
87385,-100,4,2,1,80,0,0
87579,-100,4,2,1,75,0,0
87966,-100,4,2,1,70,0,0
99579,-125,4,2,1,60,0,0
99966,-166.666666666667,4,2,1,50,0,0
100353,-200,4,2,1,40,0,0
100740,-200,4,2,1,50,0,0
106934,-100,4,2,1,70,0,0
107127,-100,4,2,1,60,0,0
110031,-100,4,2,1,70,0,0
112450,-100,4,2,1,50,0,0
112740,-100,4,2,1,70,0,0
112837,-100,4,2,1,60,0,0
113127,-133.333333333333,4,2,1,60,0,0
113321,-133.333333333333,4,2,1,40,0,0
114482,-100,4,2,1,60,0,0
114676,-100,4,2,1,70,0,0
115063,-100,4,2,1,60,0,0
115450,-100,4,2,1,70,0,0
116224,-100,4,2,1,80,0,1
116418,-100,4,2,1,70,0,0
122418,-100,4,2,1,50,0,0
122805,-100,4,2,1,70,0,0
128611,-100,4,2,1,80,0,0
128805,-100,4,2,1,70,0,0
129773,-100,4,2,1,80,0,0
129966,-100,4,2,1,70,0,0
140998,-100,4,2,1,80,0,0
141192,-100,4,2,1,70,0,0
152998,-80,4,2,1,80,0,0
153385,-74.0740740740741,4,2,1,90,0,0
153966,-100,4,2,1,80,0,0
154353,-100,4,2,1,70,0,0
154547,-100,4,2,1,80,0,0
154740,-100,4,2,1,70,0,0
158514,-100,4,2,1,60,0,0
158805,-100,4,2,1,50,0,0
158902,-100,4,2,1,60,0,0
159579,-100,4,2,1,70,0,0
159676,-100,4,2,1,60,0,0
160353,-100,4,2,1,70,0,0
160450,-100,4,2,1,60,0,0
161127,-100,4,2,1,70,0,0
161224,-100,4,2,1,60,0,0
161902,-100,4,2,1,70,0,0
162289,-100,4,2,1,80,0,0
162676,-100,4,2,1,70,0,0
162773,-100,4,2,1,60,0,0
163837,-100,4,2,1,70,0,0
164224,-100,4,2,1,80,0,0
164321,-100,4,2,1,70,0,0
164998,-100,4,2,1,80,0,0
165385,-100,4,2,1,85,0,0
165773,-125,4,2,1,80,0,0
166160,-142.857142857143,4,2,1,70,0,0
166547,-166.666666666667,4,2,1,60,0,0
166934,-200,4,2,1,50,0,0
173514,-133.333333333333,4,2,1,60,0,0
178547,-133.333333333333,4,2,1,65,0,0
178740,-133.333333333333,4,2,1,70,0,0
179708,-100,4,2,1,80,0,0
180289,-100,4,2,1,70,0,0
180869,-100,4,2,1,80,0,0
181063,-100,4,2,1,80,0,1
181256,-100,4,2,1,80,0,0
185902,-100,4,2,1,90,0,0
186095,-100,4,2,1,80,0,0
191418,-100,4,2,1,70,0,0
192095,-100,4,2,1,80,0,0
192289,-100,4,2,1,70,0,0
197514,-100,4,2,1,80,0,0
198482,-100,4,2,1,70,0,0
201385,-100,4,2,1,80,0,0
201579,-100,4,2,1,70,0,0
202160,-100,4,2,1,75,0,0
202353,-100,4,2,1,65,0,0
202934,-100,4,2,1,70,0,0
203224,-100,4,2,1,75,0,0
203708,-90.9090909090909,4,2,1,80,0,0
203998,-90.9090909090909,4,2,1,85,0,0
204482,-83.3333333333333,4,2,1,90,0,0
204773,-83.3333333333333,4,2,1,95,0,0
205256,-83.3333333333333,4,2,1,80,0,0
205353,-83.3333333333333,4,2,1,60,0,0
205643,-83.3333333333333,4,2,1,50,0,0
205837,-83.3333333333333,4,2,1,45,0,0
205934,-83.3333333333333,4,2,1,40,0,0
206805,-100,4,2,1,60,0,0
206902,-100,4,2,1,5,0,0

[Colours]
Combo1 : 128,128,255
Combo2 : 128,0,64
Combo3 : 149,131,252
Combo4 : 255,128,128

[HitObjects]
138,308,1644,6,0,P|168:301|200:301,1,63.7500024318696,2|0,0:0|0:0,0:0:0:0:
105,384,2031,1,0,0:0:0:0:
98,234,2224,2,0,P|160:219|224:222,1,127.500004863739,2|2,0:0|0:0,0:0:0:0:
307,347,2805,2,0,L|296:282,1,63.7500024318696,2|0,0:0|0:0,0:0:0:0:
241,96,3192,6,0,L|224:222,1,127.500004863739,2|0,0:0|0:0,0:0:0:0:
314,50,3773,1,0,0:0:0:0:
370,112,3966,2,0,L|433:106,1,63.7500024318696,2|0,0:0|0:0,0:0:0:0:
301,166,4353,1,2,0:0:0:0:
383,203,4547,1,0,0:0:0:0:
209,185,4740,6,0,L|71:174,1,127.500004863739,2|0,0:0|0:0,0:0:0:0:
270,252,5321,2,0,L|281:330,1,63.7500024318696,2|0,0:0|0:0,0:0:0:0:
239,97,5708,2,0,L|230:33,1,63.7500024318696,2|0,0:0|0:0,0:0:0:0:
209,185,6095,1,2,0:0:0:0:
301,166,6289,6,0,L|367:170,1,63.7500024318696,2|0,0:0|0:0,0:0:0:0:
181,270,6676,2,0,L|117:266,1,63.7500024318696,0|2,0:0|0:0,0:0:0:0:
331,319,7063,5,2,0:0:0:0:
209,185,7256,1,0,0:0:0:0:
359,234,7450,1,2,0:0:0:0:
239,338,7643,1,0,0:0:0:0:
301,166,7837,6,0,P|335:147|423:170,1,127.500004863739,4|2,0:0|0:0,0:0:0:0:
239,97,8418,2,0,P|205:78|117:101,1,127.500004863739,2|2,0:0|0:0,0:0:0:0:
331,79,8998,2,0,P|335:48|331:15,1,63.7500024318696,2|0,0:0|0:0,0:0:0:0:
209,185,9385,5,2,0:0:0:0:
301,166,9579,1,0,0:0:0:0:
239,97,9773,1,0,0:0:0:0:
270,252,9966,5,2,0:0:0:0:
117,204,10160,2,0,L|39:220,1,63.7500024318696,0|2,0:0|0:0,0:0:0:0:
301,166,10547,1,0,0:0:0:0:
209,185,10740,1,2,0:0:0:0:
364,243,10934,6,0,P|392:204|383:111,1,127.500004863739,2|0,0:0|0:0,0:0:0:0:
228,23,11514,1,2,0:0:0:0:
361,29,11708,2,0,L|450:33,1,63.7500024318696,0|2,0:0|0:0,0:0:0:0:
187,111,12095,2,0,L|98:115,1,63.7500024318696,2|2,0:0|0:0,0:0:0:0:
391,126,12482,5,6,0:0:0:0:
399,159,12579,1,0,0:0:0:0:
395,193,12676,1,2,0:0:0:0:
381,224,12773,1,0,0:0:0:0:
390,256,12869,5,8,0:0:0:0:
350,240,12966,1,0,0:0:0:0:
307,242,13063,1,2,0:0:0:0:
268,261,13160,1,0,0:0:0:0:
229,244,13256,6,0,L|237:292,1,42.5,2|0,3:0|0:0,0:0:0:0:
117,319,13450,2,0,L|108:366,1,42.5,2|0,0:0|0:0,0:0:0:0:
26,217,13643,5,8,0:0:0:0:
10,186,13740,1,0,0:0:0:0:
3,152,13837,1,2,0:0:0:0:
5,117,13934,1,0,0:0:0:0:
17,85,14031,6,0,B|100:67|100:67|136:91,1,127.5,4|0,0:0|0:0,0:0:0:0:
201,147,14418,5,6,0:0:0:0:
234,141,14514,1,0,0:0:0:0:
267,135,14611,2,0,L|272:89,1,42.5,2|0,0:0|0:0,0:0:0:0:
248,237,14805,5,6,0:0:0:0:
293,228,14902,1,0,0:0:0:0:
339,219,14998,2,0,L|344:173,1,42.5,2|0,0:0|0:0,0:0:0:0:
295,328,15192,5,6,0:0:0:0:
353,318,15289,1,0,0:0:0:0:
410,306,15385,2,0,L|415:260,1,42.5,2|0,0:0|0:0,0:0:0:0:
430,86,15579,5,4,0:0:0:0:
436,68,15966,2,0,P|441:115|447:160,1,85,2|0,1:0|0:0,0:0:0:0:
333,6,16353,2,0,P|307:56|311:130,1,127.5,2|0,1:0|0:0,0:0:0:0:
366,184,16740,1,8,0:0:0:0:
228,62,16934,5,2,1:0:0:0:
228,62,17031,1,0,0:0:0:0:
228,62,17127,2,0,L|140:58,1,85,4|0,0:0|0:0,0:0:0:0:
59,21,17418,1,0,0:0:0:0:
59,21,17514,2,0,L|52:75,1,42.5,2|0,1:0|0:0,0:0:0:0:
140,138,17708,2,0,L|147:192,1,42.5,2|0,1:0|0:0,0:0:0:0:
23,178,17902,6,0,L|16:232,3,42.5,2|0|0|0,1:0|0:0|0:0|0:0,0:0:0:0:
111,322,18289,2,0,P|131:313|79:298,1,127.5,2|0,1:0|0:0,0:0:0:0:
19,366,18676,5,4,0:0:0:0:
48,364,18773,1,0,0:0:0:0:
78,363,18869,1,2,0:0:0:0:
108,362,18966,1,0,0:0:0:0:
137,360,19063,1,8,0:0:0:0:
167,359,19160,1,0,0:0:0:0:
197,358,19256,1,2,0:0:0:0:
227,356,19353,1,0,0:0:0:0:
252,321,19450,5,2,3:0:0:0:
282,322,19547,1,0,0:0:0:0:
312,324,19643,1,2,0:0:0:0:
341,325,19740,1,0,0:0:0:0:
371,326,19837,1,8,0:0:0:0:
401,328,19934,1,0,0:0:0:0:
431,329,20031,1,2,0:0:0:0:
460,330,20127,1,0,0:0:0:0:
485,365,20224,6,0,L|490:304,2,56.6666666666667,4|2|2,0:0|0:0|0:0,0:0:0:0:
497,219,20611,2,0,L|436:213,2,56.6666666666667,8|2|2,0:0|0:0|0:0,0:0:0:0:
351,207,20998,2,0,L|345:267,2,56.6666666666667,2|2|2,3:0|0:0|0:0,0:0:0:0:
338,353,21385,2,0,L|399:358,2,56.6666666666667,8|2|2,0:0|0:0|0:0,0:0:0:0:
485,365,21773,6,0,P|506:322|489:236,1,127.5,6|0,1:0|0:0,0:0:0:0:
497,219,22160,2,0,L|407:210,1,85,2|2,1:0|0:0,0:0:0:0:
141,269,22547,2,0,L|148:221,1,42.5,2|0,1:0|0:0,0:0:0:0:
267,183,22740,2,0,L|260:135,1,42.5,2|0,1:0|0:0,0:0:0:0:
169,50,22934,1,2,1:0:0:0:
83,346,23127,5,2,0:0:0:0:
83,346,23224,1,2,0:0:0:0:
83,346,23321,2,0,P|132:363|200:347,1,106.25,4|0,0:0|0:0,0:0:0:0:
265,378,23611,2,0,B|281:337|281:337|275:271,1,106.25,4|0,0:0|0:0,0:0:0:0:
168,182,23902,6,0,P|119:214|141:269,1,127.500004863739,4|2,0:0|3:0,0:0:0:0:
346,124,24482,5,10,0:0:0:0:
347,161,24579,1,2,0:0:0:0:
351,198,24676,1,10,0:0:0:0:
356,234,24773,1,2,0:0:0:0:
364,271,24869,1,4,0:0:0:0:
248,276,31063,6,0,P|255:319|258:360,1,85,4|2,0:0|0:0,0:0:0:0:
162,273,31450,1,8,0:0:0:0:
295,199,31643,1,2,0:0:0:0:
162,273,31837,1,2,3:0:0:0:
243,124,32031,2,0,P|283:117|331:112,1,85,2|8,0:0|0:0,0:0:0:0:
107,23,32418,6,0,B|128:81|128:81|118:199,1,170,2|2,0:0|0:0,0:0:0:0:
255,360,32998,2,0,P|250:318|248:276,1,85,8|2,0:0|0:0,0:0:0:0:
337,112,33385,1,2,3:0:0:0:
210,190,33579,1,2,0:0:0:0:
210,190,33676,1,0,0:0:0:0:
210,190,33773,2,0,L|312:200,1,85,12|2,0:0|0:0,0:0:0:0:
241,26,34160,5,4,0:0:0:0:
118,188,34353,1,2,0:0:0:0:
348,55,34547,1,8,0:0:0:0:
394,199,34740,1,2,0:0:0:0:
198,119,34934,5,2,3:0:0:0:
412,116,35127,2,0,P|371:128|329:132,1,85,2|8,0:0|0:0,0:0:0:0:
154,15,35514,1,2,0:0:0:0:
310,215,35708,6,0,P|321:174|329:133,1,85,4|2,0:0|0:0,0:0:0:0:
154,320,36095,1,8,0:0:0:0:
351,294,36289,1,2,0:0:0:0:
175,119,36482,2,0,P|179:161|190:203,1,85,2|2,3:0|0:0,0:0:0:0:
314,372,36869,1,8,0:0:0:0:
347,380,36966,1,8,0:0:0:0:
380,375,37063,1,10,0:0:0:0:
409,358,37160,1,8,0:0:0:0:
427,330,37256,6,0,P|470:329|512:324,2,85.0000032424928,4|2|2,0:0|0:0|0:0,0:0:0:0:
357,171,38031,5,2,0:0:0:0:
461,243,38289,1,0,0:0:0:0:
295,280,38547,1,2,0:0:0:0:
341,78,38805,6,0,P|381:91|434:105,2,85.0000032424928,2|2|2,0:0|0:0|0:0,0:0:0:0:
223,166,39579,5,2,0:0:0:0:
254,37,39837,1,0,0:0:0:0:
357,171,40095,1,2,0:0:0:0:
144,226,40353,6,0,P|135:182|131:131,2,85.0000032424928,2|2|2,0:0|0:0|0:0,0:0:0:0:
272,288,41127,5,2,0:0:0:0:
223,166,41385,1,0,0:0:0:0:
141,314,41643,1,2,0:0:0:0:
360,344,41902,6,0,P|369:300|373:249,2,85.0000032424928,2|2|2,0:0|0:0|0:0,0:0:0:0:
228,384,42676,2,0,P|185:379|144:371,2,85.0000032424928,2|2|2,0:0|0:0|0:0,0:0:0:0:
474,286,43450,6,0,P|379:267|346:269,1,127.5,4|0,0:0|0:0,0:0:0:0:
272,288,43837,1,8,0:0:0:0:
398,172,44031,1,2,0:0:0:0:
425,381,44224,5,4,0:0:0:0:
184,332,44418,1,2,0:0:0:0:
184,332,44514,1,0,0:0:0:0:
184,332,44611,2,0,P|173:288|182:249,1,85,8|2,0:0|0:0,0:0:0:0:
398,172,44998,6,0,B|313:162|313:162|281:133,1,127.5,4|0,0:0|0:0,0:0:0:0:
233,72,45385,1,8,0:0:0:0:
376,25,45579,1,2,0:0:0:0:
132,36,45773,6,0,P|125:81|140:120,1,85,4|2,0:0|0:0,0:0:0:0:
194,180,46063,1,0,0:0:0:0:
194,180,46160,2,0,L|188:274,1,85,8|2,0:0|0:0,0:0:0:0:
337,130,46547,6,0,B|344:182|344:182|376:234|376:234|383:296,1,170,4|2,0:0|0:0,0:0:0:0:
233,72,47127,1,2,0:0:0:0:
462,137,47321,5,6,0:0:0:0:
462,137,47418,1,0,0:0:0:0:
462,137,47514,1,2,0:0:0:0:
228,259,47708,2,0,P|185:263|142:247,1,85,2|2,0:0|0:0,0:0:0:0:
56,71,48095,5,4,0:0:0:0:
28,309,48289,1,2,3:0:0:0:
145,99,48482,1,8,0:0:0:0:
170,279,48676,1,2,3:0:0:0:
233,72,48869,5,4,0:0:0:0:
233,72,48966,1,8,0:0:0:0:
233,72,49063,2,0,L|242:113,1,42.5,8|8,0:0|0:0,0:0:0:0:
288,323,49256,1,4,0:0:0:0:
288,323,49353,1,8,0:0:0:0:
288,323,49450,2,0,L|300:270,1,42.5,8|8,0:0|0:0,0:0:0:0:
411,156,49643,6,0,B|384:166|363:156|363:156|352:170|321:174,4,95.6250036478044,4|2|2|2|2,0:0|0:0|0:0|0:0|0:0,0:0:0:0:
291,47,50998,1,2,0:0:0:0:
500,130,51192,6,0,B|489:215|489:215|457:245,1,127.5,4|0,0:0|0:0,0:0:0:0:
401,297,51579,2,0,L|411:382,1,85,8|2,0:0|0:0,0:0:0:0:
296,179,51966,1,2,3:0:0:0:
215,306,52160,1,2,0:0:0:0:
296,179,52353,2,0,L|385:174,1,85,8|2,0:0|0:0,0:0:0:0:
138,194,52740,6,0,P|119:146|151:78,1,127.5,4|0,0:0|0:0,0:0:0:0:
221,51,53127,1,8,0:0:0:0:
251,243,53321,1,2,0:0:0:0:
401,115,53514,1,2,3:0:0:0:
210,147,53708,1,2,0:0:0:0:
377,34,53902,2,0,P|336:33|288:23,1,85,8|2,0:0|0:0,0:0:0:0:
374,190,54289,6,0,P|393:238|361:306,1,127.5,4|0,0:0|0:0,0:0:0:0:
291,333,54676,1,8,0:0:0:0:
138,194,54869,1,2,0:0:0:0:
283,84,55063,2,0,L|267:167,1,85,2|2,3:0|0:0,0:0:0:0:
101,312,55450,1,8,0:0:0:0:
299,242,55643,1,2,0:0:0:0:
143,100,55837,6,0,L|66:93,3,42.5,4|0|2|0,0:0|0:0|0:0|0:0,0:0:0:0:
25,58,56224,1,8,0:0:0:0:
0,252,56418,1,0,1:0:0:0:
0,252,56514,1,0,1:0:0:0:
0,252,56611,2,0,P|41:246|91:240,1,85,0|2,1:0|0:0,0:0:0:0:
340,210,56998,1,8,0:0:0:0:
173,161,57192,1,10,0:0:0:0:
418,309,57385,6,0,P|448:277|460:178,1,127.5,4|0,0:0|0:0,0:0:0:0:
430,119,57773,1,4,1:0:0:0:
267,165,57966,1,2,0:0:0:0:
285,37,58160,1,2,3:0:0:0:
340,210,58353,1,2,0:0:0:0:
93,203,58547,2,0,P|82:164|94:118,1,85,4|2,1:0|0:0,0:0:0:0:
300,311,58934,6,0,P|234:286|178:300,1,127.5,4|0,0:0|0:0,0:0:0:0:
124,360,59321,1,8,0:0:0:0:
390,348,59514,1,2,0:0:0:0:
173,161,59708,1,2,3:0:0:0:
340,210,59902,1,2,3:0:0:0:
96,285,60095,2,0,P|86:242|93:201,1,85,8|2,0:0|3:0,0:0:0:0:
341,117,60482,6,0,P|285:124|231:62,1,127.5,4|0,0:0|0:0,0:0:0:0:
222,0,60869,5,4,1:0:0:0:
122,134,61063,1,2,0:0:0:0:
315,33,61256,5,4,1:0:0:0:
280,199,61450,1,2,0:0:0:0:
412,51,61643,5,12,0:0:0:0:
455,215,61837,1,2,0:0:0:0:
296,117,62031,5,4,0:0:0:0:
254,119,62127,1,0,0:0:0:0:
218,142,62224,1,8,0:0:0:0:
199,180,62321,1,0,0:0:0:0:
200,222,62418,1,4,0:0:0:0:
222,258,62514,1,0,0:0:0:0:
259,278,62611,1,8,0:0:0:0:
301,278,62708,1,8,0:0:0:0:
337,258,62805,6,0,L|343:214,3,42.5,4|2|2|2,0:0|0:0|0:0|0:0,0:0:0:0:
400,144,63192,2,0,L|394:99,3,42.5,2|2|2|2,0:0|0:0|0:0|0:0,0:0:0:0:
352,29,63579,6,0,P|276:67|226:4,1,170,4|0,0:0|0:0,0:0:0:0:
67,235,64160,1,4,0:0:0:0:
67,235,64547,1,4,0:0:0:0:
445,149,64740,1,4,0:0:0:0:
226,12,64934,6,0,P|194:86|244:168,1,170,4|2,0:0|0:0,0:0:0:0:
463,333,65514,2,0,P|461:289|468:244,1,85,8|2,0:0|0:0,0:0:0:0:
357,373,65902,1,2,3:0:0:0:
336,253,66095,1,2,0:0:0:0:
181,380,66289,1,8,0:0:0:0:
231,201,66482,1,2,0:0:0:0:
268,346,66676,6,0,P|184:338|81:332,1,170,4|8,0:0|0:0,0:0:0:0:
192,96,67256,1,2,0:0:0:0:
305,182,67450,1,2,3:0:0:0:
116,218,67643,1,2,0:0:0:0:
384,231,67837,2,0,P|397:188|389:140,1,85,8|2,0:0|0:0,0:0:0:0:
199,54,68224,6,0,L|192:96,3,42.5,4|0|2|0,0:0|0:0|0:0|0:0,0:0:0:0:
213,188,68611,1,8,0:0:0:0:
330,31,68805,1,0,1:0:0:0:
330,31,68902,1,0,1:0:0:0:
330,31,68998,2,0,L|426:36,1,85,0|2,1:0|0:0,0:0:0:0:
271,109,69385,1,8,0:0:0:0:
496,175,69579,1,10,0:0:0:0:
260,262,69773,6,0,P|316:248|418:251,1,127.5,4|0,0:0|0:0,0:0:0:0:
468,261,70160,1,8,0:0:0:0:
236,352,70353,1,2,0:0:0:0:
375,161,70547,2,0,P|380:203|385:246,1,85,2|2,3:0|0:0,0:0:0:0:
181,203,70934,1,8,0:0:0:0:
300,89,71127,1,2,0:0:0:0:
156,292,71321,6,0,P|112:287|67:285,1,85,4|2,0:0|0:0,0:0:0:0:
38,295,71611,1,0,0:0:0:0:
6,307,71708,2,0,P|3:261|2:220,1,85,8|2,0:0|0:0,0:0:0:0:
181,78,72095,1,2,3:0:0:0:
55,46,72289,1,2,0:0:0:0:
213,195,72482,1,8,0:0:0:0:
2,222,72676,1,2,0:0:0:0:
245,312,72869,6,0,P|190:282|125:284,1,127.5,4|0,0:0|0:0,0:0:0:0:
59,333,73256,5,4,1:0:0:0:
95,175,73450,1,2,0:0:0:0:
245,312,73643,5,4,1:0:0:0:
223,162,73837,1,2,0:0:0:0:
401,374,74031,5,12,0:0:0:0:
336,113,74224,1,2,0:0:0:0:
126,283,74418,5,4,0:0:0:0:
167,273,74514,1,0,0:0:0:0:
209,267,74611,1,8,0:0:0:0:
251,264,74708,1,0,0:0:0:0:
294,266,74805,1,4,0:0:0:0:
336,270,74902,1,8,0:0:0:0:
377,278,74998,1,8,0:0:0:0:
418,291,75095,1,8,0:0:0:0:
458,306,75192,6,0,L|452:265,3,42.5,4|10|10|10,0:0|0:0|0:0|0:0,0:0:0:0:
391,187,75579,2,0,L|397:145,3,42.5,2|10|10|10,3:0|0:0|0:0|0:0,0:0:0:0:
412,53,75966,5,4,0:0:0:0:
223,228,76160,1,2,0:0:0:0:
223,228,76256,1,2,0:0:0:0:
223,228,76353,2,0,P|268:224|309:230,1,85,8|2,0:0|0:0,0:0:0:0:
168,90,76740,5,4,0:0:0:0:
391,187,76934,1,2,0:0:0:0:
391,187,77031,1,2,0:0:0:0:
391,187,77127,1,8,0:0:0:0:
135,252,77321,1,2,0:0:0:0:
302,27,77514,6,0,B|323:66|323:66|316:152,1,127.5,4|0,0:0|0:0,0:0:0:0:
307,229,77902,1,8,0:0:0:0:
168,90,78095,1,2,0:0:0:0:
168,90,78192,1,2,0:0:0:0:
168,90,78289,2,0,L|81:84,1,85,2|2,3:0|0:0,0:0:0:0:
307,229,78676,5,10,0:0:0:0:
340,227,78773,1,2,0:0:0:0:
374,225,78869,1,2,0:0:0:0:
408,223,78966,1,2,0:0:0:0:
442,221,79063,1,4,0:0:0:0:
401,123,79256,1,2,0:0:0:0:
267,294,79450,1,8,0:0:0:0:
298,112,79643,1,2,0:0:0:0:
403,364,79837,5,6,0:0:0:0:
120,335,80031,1,2,0:0:0:0:
120,335,80127,2,0,P|109:295|114:251,1,85,2|0,0:0|0:0,0:0:0:0:
153,175,80418,1,2,0:0:0:0:
267,294,80611,5,4,0:0:0:0:
253,128,80805,1,2,0:0:0:0:
403,364,80998,2,0,P|419:320|419:278,1,85,8|2,0:0|0:0,0:0:0:0:
153,175,81385,5,2,3:0:0:0:
177,209,81482,1,8,0:0:0:0:
213,231,81579,1,8,0:0:0:0:
255,239,81676,1,8,0:0:0:0:
296,230,81773,1,2,3:0:0:0:
331,207,81869,1,8,0:0:0:0:
355,172,81966,1,10,0:0:0:0:
364,131,82063,1,14,0:0:0:0:
357,89,82160,5,4,0:0:0:0:
341,119,82256,1,0,0:0:0:0:
337,152,82353,1,0,0:0:0:0:
345,185,82450,1,0,0:0:0:0:
364,213,82547,1,2,3:0:0:0:
381,241,82643,1,2,0:0:0:0:
389,273,82740,1,2,0:0:0:0:
384,308,82837,1,2,0:0:0:0:
369,337,82934,5,4,0:0:0:0:
356,334,83031,1,0,0:0:0:0:
343,331,83127,2,0,L|351:377,1,42.5,2|0,0:0|0:0,0:0:0:0:
208,294,83321,1,2,3:0:0:0:
221,291,83418,1,0,0:0:0:0:
234,288,83514,2,0,L|226:334,1,42.5,2|0,0:0|0:0,0:0:0:0:
129,376,83708,5,4,0:0:0:0:
146,184,83902,1,2,0:0:0:0:
188,185,83998,1,0,0:0:0:0:
230,187,84095,1,2,3:0:0:0:
273,189,84192,1,2,0:0:0:0:
315,191,84289,1,2,0:0:0:0:
358,193,84385,1,2,0:0:0:0:
400,194,84482,5,4,0:0:0:0:
294,290,84676,1,2,0:0:0:0:
260,264,84773,1,0,0:0:0:0:
237,228,84869,1,2,3:0:0:0:
230,187,84966,1,2,0:0:0:0:
238,145,85063,1,2,0:0:0:0:
260,110,85160,1,2,0:0:0:0:
295,85,85256,5,4,0:0:0:0:
377,277,85450,1,2,0:0:0:0:
168,252,85643,1,2,3:0:0:0:
199,223,85740,1,2,0:0:0:0:
237,206,85837,1,2,0:0:0:0:
280,203,85934,1,2,0:0:0:0:
320,215,86031,5,4,0:0:0:0:
133,331,86224,1,0,0:0:0:0:
133,331,86321,1,0,0:0:0:0:
133,331,86418,1,4,0:0:0:0:
130,118,86611,1,0,0:0:0:0:
199,223,86805,6,0,L|34:240,2,159.375,4|4|4,0:0|0:0|0:0,0:0:0:0:
439,193,87579,1,4,0:0:0:0:
464,159,87676,1,8,0:0:0:0:
472,118,87773,1,8,0:0:0:0:
460,77,87869,1,8,0:0:0:0:
431,47,87966,1,8,0:0:0:0:
392,33,88063,1,8,0:0:0:0:
350,38,88160,1,8,0:0:0:0:
315,62,88256,1,8,0:0:0:0:
295,99,88353,6,0,L|288:192,1,85,4|2,0:0|0:0,0:0:0:0:
213,70,88740,1,8,0:0:0:0:
381,124,88934,1,2,0:0:0:0:
213,70,89127,1,2,3:0:0:0:
226,225,89321,2,0,P|269:218|326:213,1,85,2|8,0:0|0:0,0:0:0:0:
478,369,89708,6,0,P|404:346|311:352,1,170,2|2,0:0|0:0,0:0:0:0:
141,170,90289,2,0,P|136:213|126:268,1,85,8|2,0:0|0:0,0:0:0:0:
310,213,90676,1,2,3:0:0:0:
180,84,90869,1,2,0:0:0:0:
180,84,90966,1,0,0:0:0:0:
180,84,91063,2,0,L|91:90,1,85,12|0,0:0|0:0,0:0:0:0:
226,225,91450,5,4,0:0:0:0:
266,41,91643,1,2,0:0:0:0:
415,211,91837,1,8,0:0:0:0:
375,68,92031,1,2,0:0:0:0:
201,156,92224,5,2,3:0:0:0:
435,128,92418,2,0,P|395:142|353:148,1,85,2|8,0:0|0:0,0:0:0:0:
172,43,92805,1,2,0:0:0:0:
339,231,92998,6,0,P|349:188|353:147,1,85,4|2,0:0|0:0,0:0:0:0:
204,304,93385,1,8,0:0:0:0:
123,141,93579,1,2,0:0:0:0:
214,186,93773,5,2,3:0:0:0:
187,219,93869,1,0,0:0:0:0:
150,238,93966,1,0,0:0:0:0:
108,241,94063,1,0,0:0:0:0:
68,227,94160,2,0,L|56:326,1,85,8|2,0:0|0:0,0:0:0:0:
387,384,94547,5,4,0:0:0:0:
261,147,94740,1,2,0:0:0:0:
204,304,94934,2,0,P|245:295|289:290,1,85,8|2,0:0|0:0,0:0:0:0:
136,354,95321,5,2,3:0:0:0:
372,298,95514,1,2,0:0:0:0:
187,219,95708,1,8,0:0:0:0:
387,384,95902,5,2,0:0:0:0:
387,384,95998,1,2,0:0:0:0:
387,384,96095,2,0,P|426:367|453:335,1,85,4|2,0:0|0:0,0:0:0:0:
275,128,96482,1,8,0:0:0:0:
272,169,96579,1,0,0:0:0:0:
296,203,96676,1,2,0:0:0:0:
336,214,96773,1,0,0:0:0:0:
375,197,96869,2,0,P|417:195|460:193,1,85,2|2,3:0|0:0,0:0:0:0:
187,219,97256,1,8,0:0:0:0:
370,35,97450,5,2,0:0:0:0:
370,35,97547,1,2,0:0:0:0:
370,35,97643,2,0,P|364:80|358:122,1,85,4|2,0:0|0:0,0:0:0:0:
196,303,98031,1,8,0:0:0:0:
154,298,98127,1,0,0:0:0:0:
119,275,98224,1,2,0:0:0:0:
101,237,98321,1,0,0:0:0:0:
103,195,98418,6,0,P|105:155|109:105,1,85,4|2,0:0|0:0,0:0:0:0:
387,384,98805,1,8,0:0:0:0:
428,379,98902,1,0,0:0:0:0:
463,356,98998,1,2,0:0:0:0:
481,318,99095,1,0,0:0:0:0:
479,276,99192,6,0,P|477:235|473:185,1,85,4|2,0:0|0:0,0:0:0:0:
189,151,99579,6,0,P|186:184|186:218,1,68,2|0,0:0|0:0,0:0:0:0:
391,299,99966,6,0,P|392:272|390:236,1,50.9999984436036,2|0,0:0|0:0,0:0:0:0:
275,171,100353,6,0,P|274:189|274:205,3,21.25,2|0|2|0,0:0|0:0|0:0|0:0,0:0:0:0:
309,270,100740,5,4,0:0:0:0:
81,43,106934,6,0,P|54:100|68:163,1,127.5,4|0,0:0|0:0,0:0:0:0:
125,219,107321,1,8,0:0:0:0:
187,18,107514,1,2,0:0:0:0:
364,147,107708,5,4,0:0:0:0:
160,113,107902,1,2,0:0:0:0:
160,113,107998,1,0,0:0:0:0:
160,113,108095,1,8,0:0:0:0:
298,45,108289,1,2,0:0:0:0:
271,262,108482,6,0,P|227:255|180:252,1,85,4|2,0:0|0:0,0:0:0:0:
154,238,108773,1,0,0:0:0:0:
125,219,108869,2,0,P|127:261|134:318,1,85,8|2,0:0|0:0,0:0:0:0:
278,361,109256,5,4,0:0:0:0:
333,191,109450,1,2,0:0:0:0:
512,326,109643,1,8,0:0:0:0:
416,142,109837,1,2,0:0:0:0:
271,262,110031,6,0,P|330:285|418:233,1,170,4|2,0:0|0:0,0:0:0:0:
142,176,110805,2,0,P|136:228|131:309,2,127.5,4|2|2,0:0|0:0|0:0,0:0:0:0:
378,55,111579,5,4,0:0:0:0:
140,27,111773,1,2,3:0:0:0:
350,144,111966,1,8,0:0:0:0:
170,169,112160,1,2,3:0:0:0:
377,232,112353,5,4,0:0:0:0:
377,232,112450,1,8,0:0:0:0:
377,232,112547,2,0,L|336:241,1,42.5,8|8,0:0|0:0,0:0:0:0:
126,287,112740,1,4,0:0:0:0:
126,287,112837,1,8,0:0:0:0:
126,287,112934,2,0,L|179:299,1,42.5,8|8,0:0|0:0,0:0:0:0:
344,335,113127,6,0,B|375:331|386:317|386:317|407:327|434:317,4,95.6250036478044,4|2|2|2|2,0:0|0:0|0:0|0:0|0:0,0:0:0:0:
479,234,114482,1,2,0:0:0:0:
416,68,114676,5,2,0:0:0:0:
191,141,114869,1,0,0:0:0:0:
182,107,114966,1,0,0:0:0:0:
181,72,115063,1,2,0:0:0:0:
357,252,115256,1,0,0:0:0:0:
376,223,115353,1,0,0:0:0:0:
387,191,115450,1,2,0:0:0:0:
166,342,115643,1,0,0:0:0:0:
133,331,115740,1,0,0:0:0:0:
108,307,115837,2,0,P|103:299|99:288,7,21.25,2|0|0|0|0|0|0|0,0:0|0:0|0:0|0:0|0:0|0:0|0:0|0:0,0:0:0:0:
77,209,116224,6,0,P|149:218|242:223,1,127.5,4|0,0:0|0:0,0:0:0:0:
288,191,116611,2,0,P|294:142|297:104,1,85,8|2,0:0|0:0,0:0:0:0:
356,251,116998,1,2,3:0:0:0:
191,141,117192,1,2,0:0:0:0:
220,306,117385,1,8,0:0:0:0:
375,167,117579,1,2,0:0:0:0:
162,231,117773,6,0,P|108:180|114:88,1,170,4|8,0:0|0:0,0:0:0:0:
385,43,118353,1,2,0:0:0:0:
230,18,118547,1,2,3:0:0:0:
375,167,118740,1,2,0:0:0:0:
191,141,118934,2,0,P|237:138|308:140,1,85,8|2,0:0|0:0,0:0:0:0:
476,238,119321,6,0,B|464:198|464:198|473:111,1,127.5,4|0,0:0|0:0,0:0:0:0:
482,34,119708,1,8,0:0:0:0:
275,138,119902,1,2,0:0:0:0:
370,83,120095,2,0,L|375:167,1,85,2|2,3:0|0:0,0:0:0:0:
278,35,120482,1,8,0:0:0:0:
472,112,120676,1,2,0:0:0:0:
275,138,120869,5,4,0:0:0:0:
233,146,120966,1,0,0:0:0:0:
191,141,121063,1,2,0:0:0:0:
153,123,121160,1,0,0:0:0:0:
123,93,121256,1,8,0:0:0:0:
44,249,121450,1,0,1:0:0:0:
44,249,121547,1,0,1:0:0:0:
44,249,121643,2,0,P|32:208|33:166,1,85,0|2,1:0|0:0,0:0:0:0:
212,18,122031,1,8,0:0:0:0:
212,18,122127,1,0,0:0:0:0:
212,18,122224,2,0,L|220:62,1,42.5,2|0,0:0|0:0,0:0:0:0:
275,138,122418,6,0,B|341:146|334:114|400:124,1,127.5,4|0,0:0|0:0,0:0:0:0:
479,161,122805,2,0,P|485:207|494:244,1,85,12|2,0:0|0:0,0:0:0:0:
334,215,123192,1,2,3:0:0:0:
380,351,123385,1,2,0:0:0:0:
181,161,123579,1,12,0:0:0:0:
77,360,123773,1,2,0:0:0:0:
274,298,123966,6,0,P|205:257|114:266,1,170,4|8,0:0|0:0,0:0:0:0:
275,138,124547,1,2,0:0:0:0:
358,288,124740,1,2,3:0:0:0:
181,161,124934,1,2,3:0:0:0:
372,54,125127,2,0,P|329:52|287:46,1,85,8|2,0:0|2:0,0:0:0:0:
475,129,125514,6,0,B|494:173|494:173|486:261,1,127.5,4|0,0:0|0:0,0:0:0:0:
478,334,125902,1,8,0:0:0:0:
262,237,126095,1,2,0:0:0:0:
398,193,126289,2,0,P|394:235|390:282,1,85,4|0,0:0|0:0,0:0:0:0:
382,310,126579,1,0,0:0:0:0:
367,340,126676,2,0,P|321:355|268:349,1,85,8|2,0:0|0:0,0:0:0:0:
157,362,127063,5,4,0:0:0:0:
128,343,127160,1,0,0:0:0:0:
94,337,127256,1,2,0:0:0:0:
60,339,127353,1,0,0:0:0:0:
30,356,127450,5,8,0:0:0:0:
50,318,127547,1,0,0:0:0:0:
56,276,127643,1,2,0:0:0:0:
52,233,127740,1,0,0:0:0:0:
35,194,127837,5,2,3:0:0:0:
17,155,127934,1,2,0:0:0:0:
13,112,128031,1,2,0:0:0:0:
20,70,128127,1,2,0:0:0:0:
40,33,128224,6,0,L|90:26,1,42.5,2|2,3:0|0:0,0:0:0:0:
261,167,128418,2,0,L|219:162,1,42.5,2|2,0:0|0:0,0:0:0:0:
174,18,128611,6,0,B|176:103|118:80|119:179,1,170,4|0,0:0|0:0,0:0:0:0:
345,0,129192,1,4,0:0:0:0:
345,0,129579,1,4,0:0:0:0:
411,366,129773,1,4,0:0:0:0:
119,174,129966,6,0,P|199:169|308:164,1,170,4|2,0:0|0:0,0:0:0:0:
482,21,130547,2,0,P|475:64|464:107,1,85,8|2,0:0|0:0,0:0:0:0:
286,280,130934,1,2,3:0:0:0:
511,211,131127,1,2,0:0:0:0:
271,81,131321,2,0,P|278:124|289:167,1,85,8|2,0:0|0:0,0:0:0:0:
510,326,131708,6,0,P|451:269|369:273,1,170,4|8,0:0|0:0,0:0:0:0:
224,384,132289,1,2,0:0:0:0:
358,188,132482,2,0,P|364:230|369:273,1,85,2|2,3:0|0:0,0:0:0:0:
147,203,132869,2,0,P|151:160|157:118,1,85,8|2,0:0|0:0,0:0:0:0:
381,57,133256,5,4,0:0:0:0:
346,80,133353,1,0,0:0:0:0:
304,86,133450,1,2,0:0:0:0:
265,71,133547,1,0,0:0:0:0:
236,41,133643,1,8,0:0:0:0:
453,145,133837,1,0,1:0:0:0:
453,145,133934,1,0,1:0:0:0:
453,145,134031,2,0,P|456:193|462:240,1,85,0|2,1:0|0:0,0:0:0:0:
271,301,134418,1,8,0:0:0:0:
326,156,134611,1,2,0:0:0:0:
356,360,134805,6,0,P|268:349|176:351,1,170,4|8,0:0|0:0,0:0:0:0:
38,164,135385,1,2,0:0:0:0:
177,121,135579,2,0,P|174:165|170:209,1,85,2|2,3:0|0:0,0:0:0:0:
23,373,135966,1,8,0:0:0:0:
271,301,136160,1,2,0:0:0:0:
29,263,136353,5,4,0:0:0:0:
71,272,136450,1,0,0:0:0:0:
112,264,136547,1,2,0:0:0:0:
147,240,136643,1,0,0:0:0:0:
169,205,136740,1,8,0:0:0:0:
356,253,136934,1,2,0:0:0:0:
356,253,137031,1,0,0:0:0:0:
356,253,137127,2,0,P|350:207|346:164,1,85,2|2,3:0|0:0,0:0:0:0:
443,309,137514,1,8,0:0:0:0:
248,272,137708,1,2,0:0:0:0:
394,64,137902,6,0,P|451:124|450:207,1,170,4|8,0:0|0:0,0:0:0:0:
202,308,138482,1,2,0:0:0:0:
346,168,138676,2,0,P|296:164|232:166,1,85,2|2,3:0|0:0,0:0:0:0:
228,174,138966,1,0,0:0:0:0:
200,193,139063,2,0,P|196:153|194:107,1,85,8|2,0:0|0:0,0:0:0:0:
355,22,139450,5,4,0:0:0:0:
384,41,139547,1,0,0:0:0:0:
418,47,139643,1,2,0:0:0:0:
452,45,139740,1,0,0:0:0:0:
482,28,139837,5,8,0:0:0:0:
462,66,139934,1,0,0:0:0:0:
456,108,140031,1,2,0:0:0:0:
460,151,140127,1,0,0:0:0:0:
477,190,140224,5,2,3:0:0:0:
495,229,140321,1,2,0:0:0:0:
499,272,140418,1,2,0:0:0:0:
492,314,140514,1,2,0:0:0:0:
472,351,140611,6,0,L|422:342,1,42.5,2|2,3:0|0:0,0:0:0:0:
325,278,140805,2,0,L|261:288,1,42.5,2|2,0:0|0:0,0:0:0:0:
180,373,140998,6,0,B|198:330|200:288|200:288|185:242,1,127.5,4|0,0:0|0:0,0:0:0:0:
239,172,141385,2,0,B|199:158|199:158|157:164,1,85,8|2,0:0|0:0,0:0:0:0:
73,290,141773,1,2,3:0:0:0:
288,259,141966,1,2,0:0:0:0:
288,259,142063,1,0,0:0:0:0:
288,259,142160,1,8,0:0:0:0:
166,211,142353,1,2,0:0:0:0:
374,322,142547,6,0,B|390:283|390:283|388:238,1,85,4|2,0:0|0:0,0:0:0:0:
372,210,142837,1,0,0:0:0:0:
355,180,142934,2,0,B|353:137|353:137|369:98,1,85,8|2,0:0|0:0,0:0:0:0:
209,213,143321,1,4,0:0:0:0:
166,211,143418,1,0,0:0:0:0:
129,193,143514,1,2,0:0:0:0:
102,160,143611,1,0,0:0:0:0:
93,119,143708,2,0,P|90:76|92:28,1,85,8|2,0:0|0:0,0:0:0:0:
6,324,144095,6,0,P|44:276|144:314,1,170,6|8,0:0|0:0,0:0:0:0:
372,210,144676,1,2,0:0:0:0:
244,69,144869,1,4,0:0:0:0:
236,110,144966,1,0,0:0:0:0:
246,150,145063,1,2,0:0:0:0:
239,192,145160,1,0,0:0:0:0:
248,232,145256,2,0,B|245:265|245:265|248:282|248:282|244:316,1,85,12|2,0:0|0:0,0:0:0:0:
338,127,145643,6,0,P|452:117|468:118,2,127.5,4|2|2,0:0|0:0|0:0,0:0:0:0:
161,232,146418,1,2,3:0:0:0:
62,37,146611,1,2,0:0:0:0:
62,37,146708,1,2,0:0:0:0:
62,37,146805,2,0,P|49:75|41:131,1,85,12|2,0:0|0:0,0:0:0:0:
206,331,147192,6,0,B|240:295|233:245|233:245|200:237,1,127.5,2|0,0:0|0:0,0:0:0:0:
161,232,147579,1,12,0:0:0:0:
351,152,147773,1,2,0:0:0:0:
306,53,147966,6,0,B|272:89|279:139|279:139|312:147,1,127.5,2|0,0:0|0:0,0:0:0:0:
351,152,148353,2,0,P|357:197|360:242,1,85,12|2,0:0|0:0,0:0:0:0:
200,48,148740,5,4,0:0:0:0:
11,160,148934,1,2,0:0:0:0:
11,160,149031,1,0,0:0:0:0:
11,160,149127,2,0,P|57:153|99:150,1,85,8|2,0:0|0:0,0:0:0:0:
417,234,149514,1,4,0:0:0:0:
443,201,149611,1,0,0:0:0:0:
454,160,149708,1,2,3:0:0:0:
449,118,149805,1,0,0:0:0:0:
428,81,149902,1,8,0:0:0:0:
248,211,150095,5,2,0:0:0:0:
248,211,150192,1,2,0:0:0:0:
248,211,150289,2,0,P|245:254|243:305,1,85,4|2,0:0|0:0,0:0:0:0:
351,152,150676,1,8,0:0:0:0:
143,242,150869,1,2,0:0:0:0:
334,370,151063,1,4,0:0:0:0:
349,339,151160,1,0,0:0:0:0:
356,306,151256,1,2,0:0:0:0:
354,272,151353,1,0,0:0:0:0:
343,240,151450,1,8,0:0:0:0:
203,107,151643,5,2,0:0:0:0:
203,107,151740,1,2,0:0:0:0:
203,107,151837,2,0,P|245:105|276:102,3,42.5,4|0|0|0,0:0|0:0|0:0|0:0,0:0:0:0:
330,53,152224,2,0,P|334:32|337:10,1,42.5,8|0,0:0|0:0,0:0:0:0:
351,152,152418,2,0,P|352:173|358:195,1,42.5,2|0,0:0|0:0,0:0:0:0:
512,80,152611,5,2,3:0:0:0:
512,80,152708,1,0,0:0:0:0:
512,80,152805,1,2,0:0:0:0:
512,80,152902,1,2,0:0:0:0:
512,80,152998,2,0,P|459:86|391:92,1,106.25,14|6,0:0|0:0,0:0:0:0:
4,77,153385,6,0,P|88:125|105:29,1,229.500000875473,6|0,0:0|0:0,0:0:0:0:
63,338,153966,1,6,0:0:0:0:
63,338,154353,1,6,0:0:0:0:
449,240,154547,1,6,0:0:0:0:
213,41,154740,6,0,P|179:116|213:192,1,170,6|2,0:0|0:0,0:0:0:0:
445,324,155321,2,0,P|443:280|450:235,1,85,8|2,0:0|0:0,0:0:0:0:
339,364,155708,1,2,3:0:0:0:
318,244,155902,1,2,0:0:0:0:
163,371,156095,1,8,0:0:0:0:
213,192,156289,1,2,0:0:0:0:
264,325,156482,6,0,L|216:321,3,42.5,6|2|0|2,0:0|0:0|0:0|0:0,0:0:0:0:
155,267,156869,2,0,L|110:275,3,42.5,2|0|2|0,3:0|0:0|0:0|0:0,0:0:0:0:
28,294,157256,1,2,3:0:0:0:
11,255,157353,1,0,0:0:0:0:
1,213,157450,1,2,0:0:0:0:
0,171,157547,1,0,0:0:0:0:
6,129,157643,2,0,L|13:82,1,42.5,2|0,3:0|0:0,0:0:0:0:
111,43,157837,2,0,L|103:-3,1,42.5,2|0,0:0|0:0,0:0:0:0:
197,135,158031,5,4,0:0:0:0:
234,154,158127,1,0,0:0:0:0:
276,156,158224,1,8,0:0:0:0:
315,141,158321,1,0,0:0:0:0:
344,110,158418,1,2,3:0:0:0:
373,79,158514,1,8,0:0:0:0:
412,64,158611,1,8,0:0:0:0:
454,66,158708,1,8,0:0:0:0:
491,85,158805,5,4,0:0:0:0:
497,100,158902,1,8,0:0:0:0:
499,116,158998,2,0,P|499:136|495:162,1,42.5,8|8,0:0|0:0,0:0:0:0:
404,217,159192,5,2,3:0:0:0:
398,232,159289,1,8,0:0:0:0:
396,248,159385,2,0,P|395:268|400:294,1,42.5,8|8,0:0|0:0,0:0:0:0:
496,383,159579,5,4,0:0:0:0:
465,353,159676,1,0,0:0:0:0:
429,331,159773,1,0,0:0:0:0:
388,318,159869,1,0,0:0:0:0:
346,315,159966,1,2,3:0:0:0:
304,321,160063,1,0,0:0:0:0:
265,337,160160,2,0,P|246:348|230:361,1,42.5
113,244,160353,5,4,0:0:0:0:
144,271,160450,1,0,0:0:0:0:
185,278,160547,1,0,0:0:0:0:
224,262,160643,1,0,0:0:0:0:
248,228,160740,1,2,3:0:0:0:
251,186,160837,1,0,0:0:0:0:
231,149,160934,2,0,L|227:106,1,42.5
384,22,161127,5,4,0:0:0:0:
348,43,161224,1,0,0:0:0:0:
334,82,161321,1,0,0:0:0:0:
348,121,161418,1,0,0:0:0:0:
384,142,161514,1,2,3:0:0:0:
420,162,161611,1,0,0:0:0:0:
434,200,161708,1,0,0:0:0:0:
419,240,161805,1,0,0:0:0:0:
384,261,161902,6,0,L|388:312,1,42.5,4|0,0:0|0:0,0:0:0:0:
251,186,162095,2,0,L|255:135,1,42.5
384,22,162289,1,12,0:0:0:0:
420,43,162385,1,0,0:0:0:0:
434,82,162482,1,0,0:0:0:0:
420,121,162579,1,0,0:0:0:0:
384,142,162676,6,0,L|335:135,3,42.5,4|0|0|0,0:0|0:0|0:0|0:0,0:0:0:0:
260,58,163063,2,0,L|211:65,3,42.5,2|0|4|0,3:0|0:0|0:0|0:0,0:0:0:0:
114,113,163450,5,4,0:0:0:0:
114,113,163547,1,0,0:0:0:0:
114,113,163643,2,0,L|104:59,1,42.5
21,199,163837,5,4,0:0:0:0:
21,199,163934,1,0,0:0:0:0:
21,199,164031,2,0,L|31:145,1,42.5
191,248,164224,5,4,0:0:0:0:
153,228,164321,1,0,0:0:0:0:
112,234,164418,1,8,0:0:0:0:
81,262,164514,1,0,0:0:0:0:
72,303,164611,1,2,3:0:0:0:
88,341,164708,1,0,0:0:0:0:
123,364,164805,1,8,0:0:0:0:
165,362,164902,1,8,0:0:0:0:
198,336,164998,5,4,0:0:0:0:
238,349,165095,1,8,0:0:0:0:
280,346,165192,1,8,0:0:0:0:
318,326,165289,1,8,0:0:0:0:
341,290,165385,1,2,3:0:0:0:
381,303,165482,1,8,0:0:0:0:
423,300,165579,1,8,0:0:0:0:
461,280,165676,1,8,0:0:0:0:
484,244,165773,6,0,L|479:208,3,34,2|0|2|0,0:0|0:0|0:0|0:0,0:0:0:0:
381,158,166160,6,0,L|391:126,3,29.7499990921021,2|0|2|0,0:0|0:0|0:0|0:0,0:0:0:0:
503,114,166547,6,0,L|492:88,3,25.4999992218018,2|0|2|0,0:0|0:0|0:0|0:0,0:0:0:0:
376,31,166934,6,0,P|416:43|451:20,1,85,2|2,0:0|0:0,0:0:0:0:
274,368,173514,6,0,P|318:330|400:354,1,127.500004863739,2|0,0:0|0:0,0:0:0:0:
351,223,174095,2,0,B|440:238|440:238|469:276,1,127.500004863739,2|0,0:0|0:0,0:0:0:0:
247,263,174676,2,0,L|242:194,1,63.7500024318696,2|0,0:0|0:0,0:0:0:0:
363,63,175063,6,0,P|343:105|263:107,1,127.500004863739,2|0,0:0|0:0,0:0:0:0:
132,24,175643,1,2,0:0:0:0:
153,191,175837,2,0,L|167:129,1,63.7500024318696,0|2,0:0|0:0,0:0:0:0:
343,175,176224,1,0,0:0:0:0:
272,29,176418,1,2,0:0:0:0:
167,129,176611,6,0,P|202:124|243:121,1,63.7500024318696,2|0,0:0|0:0,0:0:0:0:
343,175,176998,1,2,0:0:0:0:
156,228,177192,2,0,B|130:270|130:270|117:360,1,127.500004863739,2|2,0:0|0:0,0:0:0:0:
258,224,177773,2,0,P|262:257|268:289,1,63.7500024318696,2|0,0:0|0:0,0:0:0:0:
333,371,178160,5,2,0:0:0:0:
417,373,178353,1,0,0:0:0:0:
484,321,178547,1,2,0:0:0:0:
502,239,178740,1,0,0:0:0:0:
463,164,178934,1,2,0:0:0:0:
49,220,179708,6,0,B|44:158|44:158|65:130|65:130|57:56,1,170,6|0,0:0|0:0,0:0:0:0:
59,316,180289,1,4,0:0:0:0:
59,316,180676,1,4,0:0:0:0:
463,164,180869,1,4,0:0:0:0:
209,17,181063,6,0,P|172:78|217:157,1,170,6|2,0:0|0:0,0:0:0:0:
499,273,181643,2,0,P|457:251|417:243,1,85,8|2,0:0|0:0,0:0:0:0:
208,289,182031,1,2,3:0:0:0:
377,148,182224,1,2,0:0:0:0:
249,86,182418,1,8,0:0:0:0:
420,243,182611,5,2,0:0:0:0:
420,243,182708,1,0,0:0:0:0:
420,243,182805,2,0,P|429:286|434:327,1,85,4|2,0:0|0:0,0:0:0:0:
235,169,183192,2,0,P|240:127|249:86,1,85,8|2,0:0|0:0,0:0:0:0:
312,266,183579,5,2,3:0:0:0:
123,206,183773,1,2,0:0:0:0:
334,141,183966,1,8,0:0:0:0:
177,31,184160,1,2,0:0:0:0:
209,258,184353,5,4,0:0:0:0:
429,181,184547,1,8,0:0:0:0:
429,181,184643,1,0,0:0:0:0:
429,181,184740,2,0,L|433:135,1,42.5,8|0,0:0|0:0,0:0:0:0:
248,57,184934,2,0,L|251:99,1,42.5,8|0,0:0|0:0,0:0:0:0:
379,314,185127,5,4,0:0:0:0:
379,314,185224,1,0,0:0:0:0:
379,314,185321,1,8,0:0:0:0:
379,314,185418,1,0,0:0:0:0:
379,314,185514,2,0,L|331:305,1,42.5,8|0,0:0|0:0,0:0:0:0:
123,206,185708,2,0,L|171:197,1,42.5,8|0,0:0|0:0,0:0:0:0:
347,41,185902,6,0,P|363:97|341:162,1,127.5,4|0,0:0|0:0,0:0:0:0:
274,202,186289,1,8,0:0:0:0:
110,126,186482,1,2,0:0:0:0:
264,99,186676,1,2,3:0:0:0:
47,180,186869,1,2,0:0:0:0:
47,180,186966,1,0,0:0:0:0:
47,180,187063,2,0,P|30:141|32:99,1,85,8|2,0:0|0:0,0:0:0:0:
245,154,187450,5,4,0:0:0:0:
240,196,187547,1,0,0:0:0:0:
236,238,187643,1,2,0:0:0:0:
232,280,187740,1,0,0:0:0:0:
228,323,187837,1,12,0:0:0:0:
351,135,188031,5,2,0:0:0:0:
392,129,188127,1,0,0:0:0:0:
433,123,188224,1,4,0:0:0:0:
257,47,188418,1,2,0:0:0:0:
407,238,188611,1,12,0:0:0:0:
370,23,188805,1,2,0:0:0:0:
141,92,188998,6,0,P|131:154|158:211,1,127.5,4|0,0:0|0:0,0:0:0:0:
236,238,189385,1,8,0:0:0:0:
433,122,189579,1,2,0:0:0:0:
257,47,189773,1,2,3:0:0:0:
450,165,189966,1,2,0:0:0:0:
223,139,190160,1,8,0:0:0:0:
441,79,190353,1,2,0:0:0:0:
236,238,190547,5,4,0:0:0:0:
228,279,190643,1,0,0:0:0:0:
246,317,190740,1,2,0:0:0:0:
282,339,190837,1,0,0:0:0:0:
323,336,190934,1,8,0:0:0:0:
357,311,191031,1,0,0:0:0:0:
370,271,191127,1,10,0:0:0:0:
359,231,191224,1,0,0:0:0:0:
327,204,191321,1,2,3:0:0:0:
293,177,191418,1,8,0:0:0:0:
282,137,191514,1,8,0:0:0:0:
296,97,191611,1,8,0:0:0:0:
329,72,191708,1,2,3:0:0:0:
371,70,191805,1,8,0:0:0:0:
407,91,191902,1,8,0:0:0:0:
423,130,191998,1,8,0:0:0:0:
417,171,192095,5,4,0:0:0:0:
147,103,192289,1,2,0:0:0:0:
147,103,192385,1,0,0:0:0:0:
147,103,192482,1,8,0:0:0:0:
301,5,192676,1,2,0:0:0:0:
31,73,192869,2,0,P|28:118|44:164,1,85,2|2,3:0|0:0,0:0:0:0:
62,191,193160,1,0,0:0:0:0:
96,215,193256,2,0,L|182:221,1,85,8|2,0:0|0:0,0:0:0:0:
353,139,193643,5,4,0:0:0:0:
196,303,193837,1,2,0:0:0:0:
196,303,193934,1,0,0:0:0:0:
196,303,194031,2,0,P|185:262|180:220,1,85,8|2,0:0|0:0,0:0:0:0:
421,91,194418,1,4,0:0:0:0:
435,130,194514,1,0,0:0:0:0:
428,172,194611,1,2,0:0:0:0:
402,204,194708,1,0,0:0:0:0:
363,220,194805,1,12,0:0:0:0:
184,69,194998,5,2,0:0:0:0:
184,69,195095,1,0,0:0:0:0:
184,69,195192,2,0,P|227:72|291:70,1,85,4|2,0:0|0:0,0:0:0:0:
311,67,195482,1,0,0:0:0:0:
351,54,195579,2,0,P|355:96|352:138,1,85,8|2,0:0|0:0,0:0:0:0:
168,343,195966,1,4,0:0:0:0:
186,169,196160,1,2,0:0:0:0:
186,169,196256,1,0,0:0:0:0:
186,169,196353,1,8,0:0:0:0:
336,264,196547,1,2,0:0:0:0:
105,247,196740,5,4,0:0:0:0:
81,211,196837,1,0,0:0:0:0:
72,170,196934,1,8,0:0:0:0:
78,128,197031,1,0,0:0:0:0:
100,92,197127,1,8,0:0:0:0:
133,66,197224,1,8,0:0:0:0:
174,54,197321,1,8,0:0:0:0:
216,58,197418,1,8,0:0:0:0:
254,77,197514,1,4,0:0:0:0:
291,95,197611,1,8,0:0:0:0:
333,99,197708,1,8,0:0:0:0:
374,87,197805,1,8,0:0:0:0:
407,61,197902,2,0,P|415:41|421:20,1,42.5,8|8,0:0|0:0,0:0:0:0:
466,158,198095,2,0,P|474:178|480:199,1,42.5,8|8,0:0|0:0,0:0:0:0:
465,345,198289,5,4,0:0:0:0:
251,268,198482,1,2,0:0:0:0:
251,268,198579,1,0,0:0:0:0:
251,268,198676,2,0,P|297:265|356:262,1,85,8|2,0:0|0:0,0:0:0:0:
165,326,199063,1,2,3:0:0:0:
328,178,199256,1,2,0:0:0:0:
328,178,199353,1,0,0:0:0:0:
328,178,199450,2,0,P|332:220|335:263,1,85,8|2,0:0|0:0,0:0:0:0:
155,135,199837,5,4,0:0:0:0:
144,94,199934,1,0,0:0:0:0:
162,56,200031,1,2,0:0:0:0:
199,38,200127,1,0,0:0:0:0:
240,48,200224,1,8,0:0:0:0:
265,81,200321,1,0,0:0:0:0:
264,123,200418,1,2,0:0:0:0:
247,162,200514,1,0,0:0:0:0:
248,204,200611,1,2,3:0:0:0:
270,239,200708,1,0,0:0:0:0:
307,259,200805,1,2,0:0:0:0:
349,259,200902,1,0,0:0:0:0:
386,239,200998,1,8,0:0:0:0:
408,202,201095,1,0,0:0:0:0:
409,159,201192,1,2,0:0:0:0:
388,121,201289,1,0,0:0:0:0:
353,97,201385,5,4,0:0:0:0:
164,234,201579,1,2,0:0:0:0:
164,234,201676,1,0,0:0:0:0:
164,234,201773,2,0,P|166:283|171:327,1,85,8|2,0:0|0:0,0:0:0:0:
248,58,202160,5,4,0:0:0:0:
437,195,202353,1,2,0:0:0:0:
437,195,202450,1,0,0:0:0:0:
437,195,202547,2,0,P|434:244|430:288,1,85,8|2,0:0|0:0,0:0:0:0:
138,328,202934,6,0,P|175:308|217:305,1,85,4|0,0:0|0:0,0:0:0:0:
263,319,203224,2,0,P|262:255|256:192,1,127.5,4|4,0:0|0:0,0:0:0:0:
199,13,203708,6,0,P|195:59|176:102,1,93.5000028533936,4|0,0:0|0:0,0:0:0:0:
131,128,203998,2,0,P|192:162|256:192,1,140.25000428009,4|4,0:0|0:0,0:0:0:0:
445,237,204482,6,0,P|403:209|373:168,1,101.999996887207,4|0,0:0|0:0,0:0:0:0:
384,108,204773,2,0,P|318:147|256:192,1,152.999995330811,4|4,0:0|0:0,0:0:0:0:
192,259,205256,5,4,0:0:0:0:
236,282,205353,1,8,0:0:0:0:
286,278,205450,1,8,0:0:0:0:
327,249,205547,1,8,0:0:0:0:
347,203,205643,1,8,0:0:0:0:
340,153,205740,1,8,0:0:0:0:
308,115,205837,1,8,0:0:0:0:
260,99,205934,1,8,0:0:0:0:
256,192,206805,5,4,0:0:0:0:
256,192,206998,12,0,210676,0:0:0:0:
