osu file format v14

[General]
AudioFilename: senya - Zetsubou no Fuchi.mp3
AudioLeadIn: 0
PreviewTime: 57850
Countdown: 0
SampleSet: Soft
StackLeniency: 0.7
Mode: 0
LetterboxInBreaks: 1
WidescreenStoryboard: 0

[Editor]
DistanceSpacing: 1
BeatDivisor: 4
GridSize: 4
TimelineZoom: 1.9

[Metadata]
Title:Zetsubou no Fuchi
TitleUnicode:絶望の淵
Artist:senya
ArtistUnicode:senya
Creator:kentanghalal
Version:Catharsis
Source:艦隊これくしょん~艦これ~
Tags:abyss of despair 艦隊これくしょん 艦これ kantai collection kancolle wo-class standard carrier image song 轟音でかき消した音 gouon de kakikeshita oto yuuhei catharsis かませ虎 kamase-tora poplar 森永真由美 mayumi morinaga korekushon combined fleet c90
BeatmapID:1097928
BeatmapSetID:516630

[Difficulty]
HPDrainRate:7
CircleSize:4
OverallDifficulty:7.5
ApproachRate:9
SliderMultiplier:1.7
SliderTickRate:1

[Events]
//Background and Video events
0,0,"bg.jpg",0,0
//Break Periods
2,102273,111129
//Storyboard Layer 0 (Background)
//Storyboard Layer 1 (Fail)
//Storyboard Layer 2 (Pass)
//Storyboard Layer 3 (Foreground)
//Storyboard Sound Samples

[TimingPoints]
5,344.827586206897,4,2,0,100,1,0
13798,-100,4,2,0,100,0,1
13970,-100,4,2,0,100,0,0
24832,-100,4,2,0,100,0,0
34487,-66.6666666666667,4,2,0,100,0,0
35867,-100,4,2,0,100,0,0
45522,-66.6666666666667,4,2,0,100,0,0
46901,-100,4,2,0,100,0,0
47763,-66.6666666666667,4,2,0,100,0,0
48453,-100,4,2,0,100,0,0
50522,-66.6666666666667,4,2,0,100,0,0
51211,-100,4,2,0,100,0,0
53281,-66.6666666666667,4,2,0,100,0,0
53970,-100,4,2,0,100,0,0
57936,-100,4,2,0,100,0,1
80005,-100,4,2,0,100,0,0
82763,-200,4,2,0,100,0,0
83108,-100,4,2,0,100,0,0
85177,-66.6666666666667,4,2,0,100,0,0
85867,-100,4,2,0,100,0,0
91039,-133.333333333333,4,2,0,100,0,0
91384,-66.6666666666667,4,2,0,100,0,0
92418,-100,4,2,0,100,0,0
96556,-133.333333333333,4,2,0,100,0,0
96901,-100,4,2,0,100,0,0
111729,-66.6666666666667,4,2,0,60,0,0
113108,-100,4,2,0,100,0,0
122763,-66.6666666666667,4,2,0,100,0,0
124142,-100,4,2,0,100,0,0
125005,-66.6666666666667,4,2,0,100,0,0
125694,-100,4,2,0,100,0,0
127763,-66.6666666666667,4,2,0,100,0,0
128453,-100,4,2,0,100,0,0
130522,-66.6666666666667,4,2,0,100,0,0
131211,-100,4,2,0,100,0,0
135177,-100,4,2,0,100,0,1
157246,-100,4,2,0,100,0,0
160005,-100,4,2,0,100,0,1
179315,-100,4,2,0,100,0,0

[HitObjects]
132,96,13453,5,8,0:0:0:0:
200,276,13625,1,0,0:0:0:0:
276,133,13798,2,0,P|235:111|187:116,1,85,4|0,0:0|0:0,0:0:0:0:
103,290,14143,6,0,L|136:212,1,85,8|0,0:0|0:0,0:0:0:0:
198,113,14487,2,0,P|219:149|220:192,1,85
260,268,14832,1,8,0:0:0:0:
376,144,15005,1,0,0:0:0:0:
404,312,15177,1,0,0:0:0:0:
292,184,15350,5,0,0:0:0:0:
292,184,15436,1,0,0:0:0:0:
292,184,15522,2,0,P|236:192|208:176,1,85,8|2,0:0|0:0,0:0:0:0:
116,96,15867,2,0,P|172:88|200:104,1,85,0|2,0:0|0:0,0:0:0:0:
152,220,16212,1,10,0:0:0:0:
152,220,16556,5,4,0:0:0:0:
312,284,16729,1,0,0:0:0:0:
295,67,16901,2,0,P|270:100|262:141,1,85,8|0,0:0|0:0,0:0:0:0:
362,253,17246,2,0,P|362:211|340:176,1,85
232,220,17591,5,8,0:0:0:0:
164,268,17763,1,0,0:0:0:0:
80,248,17936,1,0,0:0:0:0:
140,80,18108,1,0,0:0:0:0:
140,80,18194,1,0,0:0:0:0:
140,80,18281,6,0,L|116:172,1,85,8|2,0:0|0:0,0:0:0:0:
232,288,18625,2,0,L|210:205,1,85,0|2,0:0|0:0,0:0:0:0:
132,244,18970,1,10,0:0:0:0:
228,104,19143,1,0,0:0:0:0:
396,124,19315,6,0,P|384:168|340:192,1,85,4|0,0:0|0:0,0:0:0:0:
208,100,19660,2,0,P|220:56|264:32,1,85,8|0,0:0|0:0,0:0:0:0:
304,116,20005,6,0,L|252:196,1,85
96,244,20350,1,8,0:0:0:0:
144,316,20522,1,0,0:0:0:0:
220,352,20694,1,0,0:0:0:0:
252,184,20867,5,0,0:0:0:0:
252,184,20953,1,0,0:0:0:0:
252,184,21039,2,0,L|328:244,1,85,8|2,0:0|0:0,0:0:0:0:
356,316,21384,2,0,P|392:296|405:256,1,85,0|2,0:0|0:0,0:0:0:0:
396,52,21729,2,0,L|372:140,1,85,10|0,0:0|0:0,0:0:0:0:
152,276,22074,5,4,0:0:0:0:
304,184,22246,1,0,0:0:0:0:
272,296,22418,1,0,0:0:0:0:
184,164,22591,1,0,0:0:0:0:
248,40,22763,5,0,0:0:0:0:
184,164,22936,1,0,0:0:0:0:
140,72,23108,1,0,0:0:0:0:
312,144,23281,1,0,0:0:0:0:
384,180,23453,5,4,0:0:0:0:
384,224,23539,1,0,0:0:0:0:
360,260,23625,1,0,0:0:0:0:
340,296,23712,1,0,0:0:0:0:
348,340,23798,1,0,0:0:0:0:
384,360,23884,1,0,0:0:0:0:
428,356,23970,1,2,0:0:0:0:
448,336,24056,5,0,0:0:0:0:
447,307,24143,1,0,0:0:0:0:
446,279,24229,1,0,0:0:0:0:
424,260,24315,5,2,0:0:0:0:
411,233,24401,1,0,0:0:0:0:
400,207,24487,1,0,0:0:0:0:
220,204,24660,5,0,0:0:0:0:
127,51,24832,2,0,L|208:80,1,85,4|0,0:0|0:0,0:0:0:0:
296,60,25177,2,0,P|292:104|260:136,1,85,8|0,0:0|0:0,0:0:0:0:
188,240,25522,5,0,0:0:0:0:
52,204,25694,1,0,0:0:0:0:
72,304,25867,2,0,P|96:332|152:336,1,85,8|0,0:0|0:0,0:0:0:0:
304,216,26212,5,0,0:0:0:0:
244,276,26384,1,0,0:0:0:0:
401,316,26556,2,0,P|364:340|320:332,1,85,8|0,0:0|0:0,0:0:0:0:
136,224,26901,5,0,0:0:0:0:
272,248,27074,1,0,0:0:0:0:
360,148,27246,1,8,0:0:0:0:
460,252,27418,5,0,0:0:0:0:
460,252,27505,1,0,0:0:0:0:
460,252,27591,2,0,L|448:148,1,85,4|0,0:0|0:0,0:0:0:0:
383,56,27936,2,0,L|368:140,1,85,8|0,0:0|0:0,0:0:0:0:
216,168,28281,1,0,0:0:0:0:
216,168,28453,1,0,0:0:0:0:
195,290,28625,6,0,P|216:264|260:240,1,85,8|0,0:0|0:0,0:0:0:0:
392,224,28970,1,0,0:0:0:0:
392,224,29143,1,0,0:0:0:0:
438,89,29315,6,0,L|460:172,1,85,8|0,0:0|0:0,0:0:0:0:
323,319,29660,2,0,P|364:311|392:280,1,85
320,156,30005,2,0,P|278:163|251:195,1,85,8|0,0:0|0:0,0:0:0:0:
324,240,30350,5,4,0:0:0:0:
148,216,30522,1,0,0:0:0:0:
140,256,30608,1,0,0:0:0:0:
160,296,30694,1,8,0:0:0:0:
264,228,30867,5,0,0:0:0:0:
300,40,31039,1,0,0:0:0:0:
368,148,31212,1,0,0:0:0:0:
192,48,31384,1,8,0:0:0:0:
140,160,31556,1,0,0:0:0:0:
232,272,31729,6,0,P|279:263|318:240,1,85
411,74,32074,2,0,P|363:82|324:105,1,85,8|0,0:0|0:0,0:0:0:0:
396,156,32418,5,0,0:0:0:0:
256,240,32591,1,0,0:0:0:0:
408,288,32763,1,8,0:0:0:0:
296,316,32936,5,0,0:0:0:0:
256,152,33108,1,4,0:0:0:0:
120,252,33281,1,0,0:0:0:0:
120,252,33367,1,0,0:0:0:0:
120,252,33453,1,8,0:0:0:0:
100,124,33625,6,0,P|112:84|152:56,1,85
247,191,33970,2,0,P|209:173|192:136,1,85,0|8,0:0|0:0,0:0:0:0:
272,112,34315,1,0,0:0:0:0:
412,260,34487,6,0,L|276:288,1,127.500004863739
288,128,34832,2,0,L|163:102,1,127.500004863739,8|0,0:0|0:0,0:0:0:0:
228,336,35177,2,0,L|376:320,1,127.500004863739
96,124,35522,2,0,L|228:76,1,127.500004863739,8|0,0:0|0:0,0:0:0:0:
344,144,35867,5,4,0:0:0:0:
176,104,36039,1,0,0:0:0:0:
176,104,36125,1,0,0:0:0:0:
176,104,36211,1,8,0:0:0:0:
132,268,36384,5,0,0:0:0:0:
236,196,36556,2,0,L|272:292,2,85,0|0|8,0:0|0:0|0:0,0:0:0:0:
88,164,37073,1,0,0:0:0:0:
104,36,37246,5,0,0:0:0:0:
204,112,37418,1,0,0:0:0:0:
76,132,37591,2,0,P|96:168|136:200,1,85,8|0,0:0|0:0,0:0:0:0:
68,336,37936,5,0,0:0:0:0:
144,224,38108,1,0,0:0:0:0:
272,220,38281,1,8,0:0:0:0:
200,336,38453,5,0,0:0:0:0:
128,200,38625,1,4,0:0:0:0:
68,36,38798,1,0,0:0:0:0:
68,36,38884,1,0,0:0:0:0:
68,36,38970,2,0,P|60:88|76:124,1,85,8|0,0:0|0:0,0:0:0:0:
164,120,39315,1,0,0:0:0:0:
164,120,39487,1,0,0:0:0:0:
244,152,39660,6,0,P|272:120|276:60,1,85,8|0,0:0|0:0,0:0:0:0:
424,48,40005,1,0,0:0:0:0:
424,48,40177,1,0,0:0:0:0:
488,104,40350,6,0,P|448:132|396:132,1,85,8|0,0:0|0:0,0:0:0:0:
332,76,40694,5,0,0:0:0:0:
156,152,40867,1,0,0:0:0:0:
352,68,41039,1,8,0:0:0:0:
132,160,41212,1,0,0:0:0:0:
300,172,41384,5,4,0:0:0:0:
360,312,41556,1,0,0:0:0:0:
360,312,41642,1,0,0:0:0:0:
360,312,41729,1,8,0:0:0:0:
288,140,41901,5,0,0:0:0:0:
408,264,42074,1,0,0:0:0:0:
264,280,42246,1,0,0:0:0:0:
364,144,42418,1,8,0:0:0:0:
240,168,42591,5,0,0:0:0:0:
128,144,42763,1,0,0:0:0:0:
72,44,42936,1,0,0:0:0:0:
144,128,43108,6,0,L|196:56,1,85,8|0,0:0|0:0,0:0:0:0:
292,100,43453,1,0,0:0:0:0:
396,25,43625,1,0,0:0:0:0:
492,108,43798,1,8,0:0:0:0:
392,136,43970,5,0,0:0:0:0:
408,272,44142,1,4,0:0:0:0:
284,192,44315,1,0,0:0:0:0:
284,192,44401,1,0,0:0:0:0:
284,192,44487,2,0,P|252:156|192:136,1,85,8|0,0:0|0:0,0:0:0:0:
128,120,44832,5,0,0:0:0:0:
128,308,45005,1,0,0:0:0:0:
32,204,45177,1,8,0:0:0:0:
240,284,45350,1,0,0:0:0:0:
348,216,45522,6,0,P|336:148|312:84,1,127.500004863739
168,32,45867,2,0,P|144:96|134:155,1,127.500004863739,8|0,0:0|0:0,0:0:0:0:
292,288,46212,2,0,P|231:271|168:276,1,127.500004863739
288,156,46556,2,0,P|351:160|412:143,1,127.500004863739,8|0,0:0|0:0,0:0:0:0:
432,252,46901,5,4,0:0:0:0:
412,142,47074,1,0,0:0:0:0:
288,156,47246,5,8,0:0:0:0:
244,160,47332,2,0,L|216:204,3,42.5
248,320,47763,6,2,L|392:296,1,127.500004863739,4|0,0:0|0:0,0:0:0:0:
156,152,48108,2,2,L|272:64,1,127.500004863739,4|0,0:0|0:0,0:0:0:0:
340,172,48453,5,0,0:0:0:0:
216,184,48625,1,8,0:0:0:0:
196,64,48798,1,0,0:0:0:0:
324,52,48970,5,0,0:0:0:0:
336,92,49056,1,0,0:0:0:0:
368,120,49143,1,0,0:0:0:0:
412,124,49229,1,0,0:0:0:0:
452,108,49315,1,8,0:0:0:0:
392,248,49487,5,0,0:0:0:0:
424,344,49660,2,0,L|316:320,1,85,4|0,0:0|0:0,0:0:0:0:
164,256,50005,1,8,0:0:0:0:
164,256,50091,1,0,0:0:0:0:
164,256,50177,1,0,0:0:0:0:
316,180,50350,1,0,0:0:0:0:
188,176,50522,6,2,L|56:112,1,127.500004863739,4|0,0:0|0:0,0:0:0:0:
232,312,50867,2,2,L|396:292,1,127.500004863739,4|0,0:0|0:0,0:0:0:0:
436,196,51212,5,0,0:0:0:0:
356,92,51384,1,8,0:0:0:0:
224,80,51556,1,0,0:0:0:0:
236,258,51729,6,0,L|256:220,3,42.5
292,196,52074,5,8,0:0:0:0:
311,189,52160,1,0,0:0:0:0:
330,182,52246,1,0,0:0:0:0:
148,56,52418,6,0,L|128:144,1,85,4|0,0:0|0:0,0:0:0:0:
292,168,52763,2,0,L|312:256,1,85,8|0,0:0|0:0,0:0:0:0:
140,324,53108,1,0,0:0:0:0:
320,268,53281,6,2,L|360:136,1,127.500004863739,4|0,0:0|0:0,0:0:0:0:
128,152,53625,2,2,L|84:28,1,127.500004863739,4|0,0:0|0:0,0:0:0:0:
48,152,53970,5,0,0:0:0:0:
108,264,54143,1,8,0:0:0:0:
236,276,54315,1,0,0:0:0:0:
200,136,54487,6,0,L|216:84,2,42.5
68,76,54832,2,0,L|40:32,2,42.5,8|0|0,0:0|0:0|0:0,0:0:0:0:
188,184,55177,5,4,0:0:0:0:
380,240,55350,1,0,0:0:0:0:
264,296,55522,1,0,0:0:0:0:
312,144,55694,1,0,0:0:0:0:
348,120,55781,1,0,0:0:0:0:
389,124,55867,1,0,0:0:0:0:
380,240,56039,5,0,0:0:0:0:
484,188,56212,1,0,0:0:0:0:
340,52,56384,2,0,L|296:32,3,42.5,0|0|4|0,0:0|0:0|0:0|0:0,0:0:0:0:
260,48,56729,5,0,0:0:0:0:
228,72,56815,1,0,0:0:0:0:
192,96,56901,1,0,0:0:0:0:
152,108,56987,1,0,0:0:0:0:
108,100,57074,5,0,0:0:0:0:
84,68,57160,1,0,0:0:0:0:
100,28,57246,1,4,0:0:0:0:
140,20,57332,1,0,0:0:0:0:
164,56,57418,1,0,0:0:0:0:
172,100,57505,6,0,L|128:144,3,42.5
144,232,57936,5,4,0:0:0:0:
276,280,58108,1,0,0:0:0:0:
276,280,58194,1,0,0:0:0:0:
276,280,58281,2,0,L|304:360,1,85,8|0,0:0|0:0,0:0:0:0:
351,185,58625,6,0,P|378:218|380:260,1,85
140,268,58970,1,8,0:0:0:0:
264,308,59143,1,0,0:0:0:0:
379,260,59315,1,0,0:0:0:0:
400,132,59487,5,0,0:0:0:0:
400,132,59574,1,0,0:0:0:0:
400,132,59660,1,8,0:0:0:0:
248,200,59832,2,0,L|168:164,1,85
272,312,60177,2,0,L|172:336,1,85,0|8,0:0|0:0,0:0:0:0:
44,192,60522,1,0,0:0:0:0:
44,192,60867,2,0,L|16:300,2,85,0|8|0,0:0|0:0|0:0,0:0:0:0:
108,136,61384,5,0,0:0:0:0:
216,272,61556,1,0,0:0:0:0:
92,116,61729,1,8,0:0:0:0:
224,292,61901,1,0,0:0:0:0:
248,112,62074,5,0,0:0:0:0:
144,264,62246,1,0,0:0:0:0:
144,264,62332,1,0,0:0:0:0:
144,264,62418,2,0,P|108:304|64:308,1,85,8|0,0:0|0:0,0:0:0:0:
68,224,62763,1,0,0:0:0:0:
120,292,62936,2,0,L|176:364,2,85,0|8|0,0:0|0:0|0:0,0:0:0:0:
120,140,63453,5,4,0:0:0:0:
256,68,63625,1,0,0:0:0:0:
256,68,63712,1,0,0:0:0:0:
256,68,63798,1,8,0:0:0:0:
325,242,63970,2,0,L|348:160,1,85
380,300,64315,2,0,P|404:336|456:352,1,85,0|8,0:0|0:0,0:0:0:0:
300,320,64660,1,0,0:0:0:0:
128,240,64832,5,0,0:0:0:0:
64,72,65005,1,0,0:0:0:0:
128,252,65177,1,8,0:0:0:0:
84,48,65350,1,0,0:0:0:0:
128,264,65522,1,0,0:0:0:0:
120,32,65694,1,0,0:0:0:0:
244,144,65867,5,8,0:0:0:0:
208,300,66039,1,0,0:0:0:0:
208,300,66125,1,0,0:0:0:0:
208,300,66212,1,4,0:0:0:0:
336,268,66384,6,0,L|376:352,2,85,0|8|0,0:0|0:0|0:0,0:0:0:0:
364,160,66901,5,0,0:0:0:0:
364,160,67074,1,0,0:0:0:0:
176,104,67246,1,8,0:0:0:0:
176,104,67418,1,0,0:0:0:0:
88,196,67591,6,0,L|80:256,3,42.5,4|0|0|0,0:0|0:0|0:0|0:0,0:0:0:0:
108,272,67936,5,8,0:0:0:0:
140,300,68022,1,0,0:0:0:0:
180,316,68108,1,0,0:0:0:0:
220,308,68194,1,0,0:0:0:0:
232,268,68281,5,0,0:0:0:0:
240,248,68367,1,0,0:0:0:0:
248,228,68453,1,0,0:0:0:0:
264,188,68539,5,0,0:0:0:0:
308,180,68626,1,8,0:0:0:0:
348,196,68712,1,0,0:0:0:0:
380,220,68798,1,0,0:0:0:0:
460,332,68970,5,4,0:0:0:0:
304,248,69142,1,0,0:0:0:0:
304,248,69229,1,0,0:0:0:0:
304,248,69315,1,8,0:0:0:0:
276,64,69487,1,0,0:0:0:0:
392,140,69660,5,0,0:0:0:0:
349,21,69832,2,0,L|276:64,1,85,0|8,0:0|0:0,0:0:0:0:
188,160,70177,1,0,0:0:0:0:
244,268,70350,6,0,L|272:356,1,85
348,228,70694,2,0,L|444:248,1,85,8|0,0:0|0:0,0:0:0:0:
408,136,71039,2,0,L|472:76,1,85
284,72,71384,5,8,0:0:0:0:
176,88,71556,1,0,0:0:0:0:
88,156,71729,1,4,0:0:0:0:
208,148,71901,5,0,0:0:0:0:
208,148,71987,1,0,0:0:0:0:
208,148,72073,1,8,0:0:0:0:
160,224,72246,1,0,0:0:0:0:
56,124,72418,1,0,0:0:0:0:
68,252,72591,2,0,L|72:344,2,85,0|8|0,0:0|0:0|0:0,0:0:0:0:
128,140,73108,5,0,0:0:0:0:
344,188,73281,1,0,0:0:0:0:
136,152,73453,1,8,0:0:0:0:
348,204,73625,1,0,0:0:0:0:
194,328,73798,6,0,L|220:248,1,85
154,96,74143,2,0,L|168:180,1,85,8|0,0:0|0:0,0:0:0:0:
248,152,74487,5,4,0:0:0:0:
388,68,74660,1,0,0:0:0:0:
388,68,74746,1,0,0:0:0:0:
388,68,74832,1,8,0:0:0:0:
392,216,75005,6,0,P|432:256|484:272,1,85
368,351,75350,2,0,P|410:357|452:352,1,85,0|8,0:0|0:0,0:0:0:0:
460,268,75694,1,0,0:0:0:0:
392,216,75867,5,0,0:0:0:0:
276,116,76039,1,0,0:0:0:0:
404,220,76212,1,8,0:0:0:0:
284,76,76384,1,0,0:0:0:0:
416,224,76556,1,0,0:0:0:0:
308,40,76729,1,0,0:0:0:0:
440,80,76901,5,8,0:0:0:0:
320,176,77074,1,0,0:0:0:0:
320,176,77160,1,0,0:0:0:0:
320,176,77246,1,4,0:0:0:0:
144,140,77418,6,0,L|108:52,2,85,0|8|0,0:0|0:0|0:0,0:0:0:0:
188,328,77936,2,0,P|164:292|168:248,1,85
320,176,78281,2,0,P|344:212|340:256,1,85,8|0,0:0|0:0,0:0:0:0:
260,232,78625,5,10,0:0:0:0:
144,136,78798,1,0,0:0:0:0:
144,136,78884,1,0,0:0:0:0:
144,136,78970,1,0,0:0:0:0:
400,48,79143,1,8,0:0:0:0:
380,176,79315,5,0,0:0:0:0:
380,176,79401,1,0,0:0:0:0:
380,176,79487,1,0,0:0:0:0:
192,72,79660,1,8,0:0:0:0:
296,32,79832,1,0,0:0:0:0:
260,232,80005,1,4,0:0:0:0:
260,232,80349,5,8,0:0:0:0:
192,248,80522,1,0,0:0:0:0:
136,208,80694,1,0,0:0:0:0:
132,140,80867,1,0,0:0:0:0:
456,332,81039,5,8,0:0:0:0:
488,272,81211,1,0,0:0:0:0:
468,208,81384,1,0,0:0:0:0:
408,180,81556,1,0,0:0:0:0:
192,80,81729,5,8,0:0:0:0:
168,308,81901,1,0,0:0:0:0:
292,176,82073,1,0,0:0:0:0:
140,192,82246,1,0,0:0:0:0:
260,256,82418,1,8,0:0:0:0:
360,244,82591,5,0,0:0:0:0:
360,244,82677,1,0,0:0:0:0:
360,244,82763,2,0,L|288:216,1,63.75,4|0,0:0|0:0,0:0:0:0:
276,224,83108,5,8,0:0:0:0:
240,168,83280,1,0,0:0:0:0:
204,108,83453,1,0,0:0:0:0:
172,48,83625,1,0,0:0:0:0:
112,116,83798,5,8,0:0:0:0:
171,146,83970,1,0,0:0:0:0:
235,175,84143,1,0,0:0:0:0:
298,200,84315,1,0,0:0:0:0:
372,156,84487,5,8,0:0:0:0:
332,288,84660,1,0,0:0:0:0:
268,76,84832,1,0,0:0:0:0:
220,336,85005,1,0,0:0:0:0:
160,184,85177,6,0,B|232:200|232:200|248:204|276:188|288:136|236:108,1,191.250007295609,8|0,0:0|0:0,0:0:0:0:
224,120,85522,6,0,P|208:184|284:280,1,191.250007295609,4|0,0:0|0:0,0:0:0:0:
308,280,85867,5,8,0:0:0:0:
260,328,86039,1,0,0:0:0:0:
192,336,86211,1,0,0:0:0:0:
136,296,86384,1,0,0:0:0:0:
308,176,86556,5,8,0:0:0:0:
375,176,86728,1,0,0:0:0:0:
429,218,86900,1,0,0:0:0:0:
440,286,87073,1,0,0:0:0:0:
244,272,87246,5,8,0:0:0:0:
192,72,87418,1,0,0:0:0:0:
136,256,87591,1,0,0:0:0:0:
112,132,87763,1,0,0:0:0:0:
288,156,87936,1,8,0:0:0:0:
120,192,88108,5,0,0:0:0:0:
120,192,88194,1,0,0:0:0:0:
120,192,88280,1,4,0:0:0:0:
216,284,88453,1,0,0:0:0:0:
328,192,88625,1,0,0:0:0:0:
328,192,88798,1,4,0:0:0:0:
140,68,88970,5,0,0:0:0:0:
140,68,89056,1,0,0:0:0:0:
140,68,89142,1,0,0:0:0:0:
152,176,89315,1,4,0:0:0:0:
152,176,89487,1,0,0:0:0:0:
80,240,89660,5,0,0:0:0:0:
92,256,89746,1,0,0:0:0:0:
104,272,89832,1,0,0:0:0:0:
120,284,89918,1,0,0:0:0:0:
136,296,90005,1,0,0:0:0:0:
156,304,90091,1,0,0:0:0:0:
176,308,90177,1,0,0:0:0:0:
196,308,90263,1,0,0:0:0:0:
216,304,90349,1,0,0:0:0:0:
236,296,90436,1,0,0:0:0:0:
240,248,90522,5,4,0:0:0:0:
260,212,90608,1,0,0:0:0:0:
296,192,90694,1,0,0:0:0:0:
340,188,90780,1,0,0:0:0:0:
380,196,90867,1,0,0:0:0:0:
412,224,90953,1,0,0:0:0:0:
420,256,91039,6,0,P|384:296|324:288,1,95.6250036478044,4|0,0:0|0:0,0:0:0:0:
332,268,91384,6,0,L|304:132,1,127.500004863739
184,32,91729,2,0,L|209:156,1,127.500004863739
156,304,92073,2,0,L|130:179,1,127.500004863739
120,112,92418,5,0,0:0:0:0:
136,128,92505,1,0,0:0:0:0:
152,144,92591,1,0,0:0:0:0:
168,160,92677,1,0,0:0:0:0:
208,164,92763,5,0,0:0:0:0:
212,184,92849,1,0,0:0:0:0:
216,204,92936,1,0,0:0:0:0:
220,224,93022,1,0,0:0:0:0:
248,248,93108,5,0,0:0:0:0:
240,268,93194,1,0,0:0:0:0:
232,288,93280,1,0,0:0:0:0:
224,308,93367,1,0,0:0:0:0:
180,320,93453,6,0,L|100:272,1,85
208,116,93798,2,0,P|232:72|312:80,1,127.5,4|0,0:0|0:0,0:0:0:0:
324,68,94142,5,0,0:0:0:0:
380,92,94315,1,0,0:0:0:0:
384,152,94487,1,0,0:0:0:0:
440,176,94660,1,0,0:0:0:0:
384,304,94832,1,0,0:0:0:0:
228,296,95005,1,0,0:0:0:0:
300,184,95177,5,0,0:0:0:0:
300,184,95263,1,0,0:0:0:0:
300,184,95349,1,0,0:0:0:0:
300,184,95436,1,0,0:0:0:0:
280,160,95522,5,0,0:0:0:0:
256,144,95608,1,0,0:0:0:0:
232,128,95694,1,0,0:0:0:0:
208,112,95780,1,0,0:0:0:0:
168,128,95867,5,0,0:0:0:0:
140,132,95953,1,0,0:0:0:0:
112,136,96039,1,0,0:0:0:0:
84,140,96125,1,0,0:0:0:0:
52,168,96211,6,0,L|8:200,1,42.5
60,248,96384,2,0,L|16:280,1,42.5
120,308,96556,6,0,P|182:314|221:273,1,95.6250036478044,4|0,0:0|0:0,0:0:0:0:
348,112,96901,5,0,0:0:0:0:
244,268,97073,1,0,0:0:0:0:
316,60,97246,1,0,0:0:0:0:
248,280,97418,1,0,0:0:0:0:
268,28,97591,1,0,0:0:0:0:
252,292,97763,1,0,0:0:0:0:
128,108,97936,5,0,0:0:0:0:
120,128,98022,1,0,0:0:0:0:
112,148,98108,1,0,0:0:0:0:
104,168,98194,1,0,0:0:0:0:
80,184,98280,5,0,0:0:0:0:
80,204,98367,1,0,0:0:0:0:
80,224,98453,1,0,0:0:0:0:
80,244,98539,1,0,0:0:0:0:
68,280,98625,5,0,0:0:0:0:
80,296,98711,1,0,0:0:0:0:
92,312,98798,1,0,0:0:0:0:
104,328,98884,1,0,0:0:0:0:
144,340,98970,6,0,P|188:352|224:320,1,85
160,204,99315,1,4,0:0:0:0:
252,36,99487,1,0,0:0:0:0:
296,224,99660,1,0,0:0:0:0:
348,124,99832,1,4,0:0:0:0:
140,92,100005,5,0,0:0:0:0:
140,92,100091,1,0,0:0:0:0:
140,92,100177,1,0,0:0:0:0:
284,176,100349,1,4,0:0:0:0:
292,284,100522,1,0,0:0:0:0:
116,344,100694,5,0,0:0:0:0:
77,324,100780,1,0,0:0:0:0:
56,288,100867,1,0,0:0:0:0:
44,248,100953,1,0,0:0:0:0:
52,208,101039,1,0,0:0:0:0:
76,172,101125,6,0,L|100:128,3,42.5
136,264,101556,5,4,0:0:0:0:
164,293,101642,1,0,0:0:0:0:
205,307,101729,1,0,0:0:0:0:
249,299,101815,1,0,0:0:0:0:
288,280,101901,1,0,0:0:0:0:
316,248,101987,1,0,0:0:0:0:
324,208,102073,1,4,0:0:0:0:
160,312,111729,6,0,L|192:184,1,127.500004863739
352,152,112073,2,0,L|300:28,1,127.500004863739
112,128,112418,2,0,L|80:256,1,127.500004863739
256,252,112763,2,0,L|340:368,1,127.500004863739
268,132,113108,5,0,0:0:0:0:
372,64,113280,1,0,0:0:0:0:
364,264,113453,2,0,P|328:312|288:320,1,85,12|0,0:0|0:0,0:0:0:0:
140,288,113798,5,0,0:0:0:0:
140,288,113884,1,0,0:0:0:0:
140,288,113970,1,0,0:0:0:0:
128,100,114142,1,8,0:0:0:0:
52,196,114315,1,0,0:0:0:0:
216,188,114487,6,0,P|244:224|244:276,1,85
88,272,114832,1,8,0:0:0:0:
260,320,115005,1,0,0:0:0:0:
152,352,115177,1,0,0:0:0:0:
168,144,115349,1,0,0:0:0:0:
272,204,115522,6,0,P|312:192|340:148,1,85,8|0,0:0|0:0,0:0:0:0:
388,52,115867,1,4,0:0:0:0:
232,80,116039,1,0,0:0:0:0:
232,80,116125,1,0,0:0:0:0:
232,80,116211,1,8,0:0:0:0:
368,216,116384,5,0,0:0:0:0:
204,200,116556,1,0,0:0:0:0:
309,289,116729,2,0,P|273:312|232:312,1,85,0|8,0:0|0:0,0:0:0:0:
264,156,117073,1,0,0:0:0:0:
448,32,117246,6,0,L|384:88,1,85
432,220,117591,2,0,L|460:140,1,85,8|0,0:0|0:0,0:0:0:0:
384,104,117936,5,0,0:0:0:0:
356,136,118022,1,0,0:0:0:0:
316,148,118108,1,0,0:0:0:0:
276,136,118194,1,0,0:0:0:0:
244,108,118280,6,0,L|184:88,1,42.5,8|0,0:0|0:0,0:0:0:0:
196,168,118453,2,0,L|136:148,1,42.5
120,180,118625,5,4,0:0:0:0:
200,320,118798,1,0,0:0:0:0:
200,320,118884,1,0,0:0:0:0:
200,320,118970,1,8,0:0:0:0:
304,216,119142,1,0,0:0:0:0:
304,356,119315,1,0,0:0:0:0:
160,224,119487,1,0,0:0:0:0:
184,48,119660,6,0,L|172:144,1,85,8|0,0:0|0:0,0:0:0:0:
328,132,120005,1,0,0:0:0:0:
232,224,120177,1,0,0:0:0:0:
304,336,120349,1,8,0:0:0:0:
332,240,120522,6,0,L|416:256,2,85
240,96,121039,1,8,0:0:0:0:
188,304,121211,1,0,0:0:0:0:
152,184,121384,1,4,0:0:0:0:
324,192,121556,5,0,0:0:0:0:
324,192,121642,1,0,0:0:0:0:
324,192,121729,1,8,0:0:0:0:
392,88,121901,1,0,0:0:0:0:
464,256,122073,1,0,0:0:0:0:
464,256,122246,1,0,0:0:0:0:
300,340,122418,1,8,0:0:0:0:
300,340,122591,1,0,0:0:0:0:
92,132,122763,6,0,L|128:264,1,127.500004863739
280,208,123108,2,0,L|288:336,1,127.500004863739,8|0,0:0|0:0,0:0:0:0:
136,200,123453,2,0,L|135:72,1,127.500004863739
368,284,123798,2,0,L|316:168,1,127.500004863739,8|0,0:0|0:0,0:0:0:0:
200,80,124142,5,4,0:0:0:0:
316,52,124315,1,0,0:0:0:0:
388,128,124487,1,8,0:0:0:0:
428,144,124573,2,0,L|440:188,3,42.5
328,312,125005,6,0,L|184:308,1,127.500004863739,4|0,0:0|0:0,0:0:0:0:
264,196,125349,2,0,L|164:108,1,127.500004863739,4|0,0:0|0:0,0:0:0:0:
84,32,125694,5,0,0:0:0:0:
112,200,125867,1,8,0:0:0:0:
204,60,126039,1,0,0:0:0:0:
264,196,126211,5,0,0:0:0:0:
264,216,126298,1,0,0:0:0:0:
264,236,126384,1,0,0:0:0:0:
264,256,126470,1,0,0:0:0:0:
264,276,126556,1,8,0:0:0:0:
404,336,126729,1,0,0:0:0:0:
432,160,126901,6,0,P|424:96|380:68,1,85,4|0,0:0|0:0,0:0:0:0:
284,36,127246,1,8,0:0:0:0:
284,36,127332,1,0,0:0:0:0:
284,36,127418,1,0,0:0:0:0:
188,160,127591,1,0,0:0:0:0:
264,256,127763,6,0,P|276:316|340:352,1,127.500004863739,4|0,0:0|0:0,0:0:0:0:
456,264,128108,2,0,P|444:204|380:168,1,127.500004863739,4|0,0:0|0:0,0:0:0:0:
309,188,128453,6,0,L|360:256,2,85,0|8|0,0:0|0:0|0:0,0:0:0:0:
200,56,128970,5,0,0:0:0:0:
200,56,129056,1,0,0:0:0:0:
200,56,129142,1,0,0:0:0:0:
200,56,129229,1,0,0:0:0:0:
176,88,129315,6,0,L|136:120,1,42.5,8|0,0:0|0:0,0:0:0:0:
128,216,129487,2,0,L|159:187,1,42.5
200,196,129660,6,0,L|264:276,1,85,4|0,0:0|0:0,0:0:0:0:
368,208,130005,2,0,L|384:300,1,85,8|0,0:0|0:0,0:0:0:0:
248,348,130349,1,0,0:0:0:0:
176,240,130522,6,0,P|152:184|136:104,1,127.500004863739,4|0,0:0|0:0,0:0:0:0:
264,168,130867,2,0,P|280:108|328:64,1,127.500004863739,4|0,0:0|0:0,0:0:0:0:
452,152,131211,5,0,0:0:0:0:
416,32,131384,1,8,0:0:0:0:
292,36,131556,1,0,0:0:0:0:
316,152,131729,6,0,L|284:204,2,42.5
376,268,132073,2,0,L|304:284,2,42.5,8|0|0,0:0|0:0|0:0,0:0:0:0:
464,248,132418,5,4,0:0:0:0:
340,104,132591,1,0,0:0:0:0:
456,124,132763,1,0,0:0:0:0:
304,240,132936,5,0,0:0:0:0:
264,256,133022,1,0,0:0:0:0:
224,244,133108,1,0,0:0:0:0:
256,132,133280,1,0,0:0:0:0:
256,132,133453,1,0,0:0:0:0:
184,224,133625,5,0,0:0:0:0:
144,212,133711,1,0,0:0:0:0:
104,228,133798,1,4,0:0:0:0:
88,268,133884,1,0,0:0:0:0:
96,308,133970,1,0,0:0:0:0:
132,332,134056,1,0,0:0:0:0:
176,328,134142,1,0,0:0:0:0:
212,304,134229,1,0,0:0:0:0:
248,284,134315,1,0,0:0:0:0:
292,280,134401,1,0,0:0:0:0:
332,272,134487,5,4,0:0:0:0:
340,248,134573,1,0,0:0:0:0:
348,224,134660,1,0,0:0:0:0:
356,200,134746,1,0,0:0:0:0:
340,180,134832,6,0,L|320:120,3,42.5
344,120,135177,5,4,0:0:0:0:
188,112,135349,1,0,0:0:0:0:
188,112,135436,1,0,0:0:0:0:
188,112,135522,2,0,L|148:196,1,85,8|0,0:0|0:0,0:0:0:0:
76,232,135867,6,0,P|112:268|148:272,1,85
348,308,136211,1,8,0:0:0:0:
272,232,136384,1,0,0:0:0:0:
296,128,136556,1,0,0:0:0:0:
432,196,136729,5,0,0:0:0:0:
432,196,136815,1,0,0:0:0:0:
432,196,136901,1,8,0:0:0:0:
344,288,137073,2,0,L|252:320,1,85
204,188,137418,2,0,L|120:168,1,85,0|8,0:0|0:0,0:0:0:0:
56,264,137763,5,0,0:0:0:0:
121,168,137936,1,4,0:0:0:0:
84,56,138108,1,0,0:0:0:0:
84,56,138194,1,0,0:0:0:0:
84,56,138280,1,8,0:0:0:0:
224,112,138453,5,0,0:0:0:0:
166,266,138625,1,0,0:0:0:0:
227,100,138798,1,0,0:0:0:0:
161,281,138970,1,8,0:0:0:0:
272,208,139142,5,0,0:0:0:0:
96,196,139315,1,0,0:0:0:0:
172,48,139487,5,0,0:0:0:0:
172,48,139573,1,0,0:0:0:0:
172,48,139660,2,0,P|220:32|256:40,1,85,8|0,0:0|0:0,0:0:0:0:
340,108,140005,1,0,0:0:0:0:
424,224,140177,2,0,L|444:324,2,85,0|8|0,0:0|0:0|0:0,0:0:0:0:
468,88,140694,5,4,0:0:0:0:
280,60,140867,1,0,0:0:0:0:
280,60,140953,1,0,0:0:0:0:
280,60,141039,1,8,0:0:0:0:
324,184,141211,2,0,L|280:268,1,85
176,224,141556,2,0,L|96:272,1,85,0|8,0:0|0:0,0:0:0:0:
40,352,141901,1,0,0:0:0:0:
153,280,142073,5,0,0:0:0:0:
72,124,142246,1,0,0:0:0:0:
160,288,142418,1,8,0:0:0:0:
100,80,142591,1,0,0:0:0:0:
168,296,142763,1,0,0:0:0:0:
140,60,142936,1,0,0:0:0:0:
232,152,143108,5,8,0:0:0:0:
296,256,143280,1,0,0:0:0:0:
296,256,143367,1,0,0:0:0:0:
296,256,143453,1,4,0:0:0:0:
376,172,143625,6,0,L|472:244,2,85,0|8|0,0:0|0:0|0:0,0:0:0:0:
248,92,144142,1,0,0:0:0:0:
248,92,144315,1,0,0:0:0:0:
84,208,144487,1,8,0:0:0:0:
84,208,144660,1,0,0:0:0:0:
200,208,144832,5,4,0:0:0:0:
208,224,144918,1,0,0:0:0:0:
216,240,145005,1,0,0:0:0:0:
224,256,145091,1,0,0:0:0:0:
232,272,145177,5,8,0:0:0:0:
272,288,145263,1,0,0:0:0:0:
312,276,145349,1,0,0:0:0:0:
336,240,145436,1,0,0:0:0:0:
324,200,145522,1,0,0:0:0:0:
304,164,145608,1,0,0:0:0:0:
276,136,145694,1,0,0:0:0:0:
264,96,145780,1,0,0:0:0:0:
284,56,145867,1,8,0:0:0:0:
324,48,145953,1,0,0:0:0:0:
360,68,146039,1,0,0:0:0:0:
428,176,146211,5,4,0:0:0:0:
