osu file format v13

[General]
AudioFilename: YureruKoiwaNamnoGotoku.mp3
AudioLeadIn: 1000
PreviewTime: 47531
Countdown: 0
SampleSet: Soft
StackLeniency: 0.7
Mode: 0
LetterboxInBreaks: 0
WidescreenStoryboard: 0

[Editor]
DistanceSpacing: 1.2
BeatDivisor: 4
GridSize: 4
TimelineZoom: 1

[Metadata]
Title:Yureru Koi wa Nami no Gotoku
TitleUnicode:揺れる恋は波の如く
Artist:senya
ArtistUnicode:senya
Creator:Satellite
Version:Normal
Source:Kantai Collection
Tags:dagger-gazel forseen 砲雷撃戦、始め! kamasetora HiZuMi kancolle c85 Hiroshi Usami Yuuhei Catharsis
BeatmapID:385014
BeatmapSetID:154056

[Difficulty]
HPDrainRate:3
CircleSize:3
OverallDifficulty:3
ApproachRate:4
SliderMultiplier:0.8
SliderTickRate:1

[Events]
//Background and Video events
0,0,"Kongo.jpg",0,0
//Break Periods
2,37230,41711
2,73231,83711
2,109230,113711
2,161531,166211
//Storyboard Layer 0 (Background)
//Storyboard Layer 1 (Fail)
//Storyboard Layer 2 (Pass)
//Storyboard Layer 3 (Foreground)
//Storyboard Sound Samples
//Background Colour Transformations
3,100,163,162,255

[TimingPoints]
1031,375,4,2,1,70,1,0
37031,-100,4,2,1,50,0,0
43031,-100,4,2,1,70,0,0
49031,-100,4,2,1,80,0,1
49218,-100,4,2,1,70,0,0
49781,-100,4,2,1,60,0,0
49874,-100,4,2,1,70,0,0
51281,-100,4,2,1,60,0,0
51374,-100,4,2,1,70,0,0
52781,-100,4,2,1,60,0,0
52874,-100,4,2,1,70,0,0
55031,-100,4,2,1,80,0,0
55218,-100,4,2,1,70,0,0
58781,-100,4,2,1,80,0,0
58874,-100,4,2,1,70,0,0
59718,-100,4,2,1,80,0,0
60281,-100,4,2,1,70,0,0
61781,-100,4,2,1,60,0,0
61874,-100,4,2,1,70,0,0
63281,-100,4,2,1,60,0,0
63374,-100,4,2,1,70,0,0
63843,-100,4,2,1,60,0,0
64031,-100,4,2,1,70,0,0
71531,-100,4,2,1,60,0,0
73031,-100,4,2,1,50,0,0
85031,-100,4,2,1,70,0,0
85124,-100,4,2,1,30,0,0
88031,-100,4,2,1,50,0,0
89531,-100,4,2,1,40,0,0
91031,-100,4,2,1,70,0,0
94781,-100,4,2,1,50,0,0
97031,-100,4,2,1,80,0,0
97218,-100,4,2,1,70,0,0
109031,-100,4,2,1,50,0,0
115031,-100,4,2,1,70,0,0
121031,-100,4,2,1,80,0,1
121218,-100,4,2,1,70,0,0
121781,-100,4,2,1,60,0,0
121874,-100,4,2,1,70,0,0
126281,-100,4,2,1,60,0,0
126374,-100,4,2,1,70,0,0
126843,-100,4,2,1,60,0,0
127031,-100,4,2,1,70,0,0
130781,-100,4,2,1,80,0,0
130874,-100,4,2,1,70,0,0
131718,-100,4,2,1,80,0,0
132281,-100,4,2,1,70,0,0
133031,-100,4,2,1,80,0,0
133218,-100,4,2,1,70,0,0
155531,-100,4,2,1,80,0,0
159656,-100,4,2,1,70,0,0
160031,-100,4,2,1,60,0,0
167531,-100,4,2,1,70,0,0
173531,-100,4,2,1,80,0,1
173718,-100,4,2,1,75,0,0
183281,-100,4,2,1,85,0,0
183374,-100,4,2,1,75,0,0
184218,-100,4,2,1,85,0,0
184781,-100,4,2,1,75,0,0
185531,-100,4,2,1,85,0,0
185718,-100,4,2,1,75,0,0
197537,375,4,2,1,70,1,0
198099,-100,4,2,1,80,0,0
207287,-100,4,2,1,90,0,0
207380,-100,4,2,1,80,0,0
208037,-100,4,2,1,90,0,0
208787,-100,4,2,1,80,0,0
209537,-100,4,2,1,90,0,0
223037,-100,4,2,1,70,0,0
223787,-100,4,2,1,60,0,0

[Colours]
Combo1 : 255,0,128
Combo2 : 0,255,255
Combo3 : 255,128,255
Combo4 : 0,128,255

[HitObjects]
44,340,1031,6,0,P|84:332|160:236,1,160,4|2,0:0|0:0,0:0:0:0:
140,152,2156,1,0,0:0:0:0:
196,76,2531,2,0,P|236:80|276:80,1,80,2|0,0:0|0:0,0:0:0:0:
368,52,3281,2,0,L|360:144,1,80,2|0,0:0|0:0,0:0:0:0:
356,228,4031,5,4,0:0:0:0:
356,228,4781,2,0,L|436:236,2,80,4|2|4,0:0|0:0|0:0,0:0:0:0:
260,220,5906,1,2,0:0:0:0:
176,264,6281,1,2,0:0:0:0:
124,344,6656,1,0,3:0:0:0:
36,300,7031,6,0,L|28:216,1,80,4|8,0:0|0:0,0:0:0:0:
16,124,7781,2,0,P|56:128|96:124,1,80,2|8,0:0|0:0,0:0:0:0:
188,96,8531,1,2,0:0:0:0:
256,28,8906,1,8,0:0:0:0:
340,76,9281,2,0,L|332:156,1,80,2|12,0:0|0:0,0:0:0:0:
320,252,10031,6,0,P|268:240|192:304,1,160,4|2,0:0|0:0,0:0:0:0:
280,340,11156,1,8,0:0:0:0:
256,192,11531,12,6,13031,0:0:0:0:
412,128,13781,6,0,L|416:208,1,80,2|8,0:0|0:0,0:0:0:0:
460,296,14531,2,0,B|384:324|380:272|300:296,1,160,4|2,0:0|0:0,0:0:0:0:
216,336,15656,1,8,0:0:0:0:
120,328,16031,6,0,P|104:288|100:252,1,80,4|8,0:0|0:0,0:0:0:0:
100,156,16781,1,2,0:0:0:0:
184,200,17156,1,8,0:0:0:0:
280,192,17531,2,0,P|296:152|300:116,1,80,4|8,0:0|0:0,0:0:0:0:
380,60,18281,2,0,P|384:99|399:136,1,80,2|8,0:0|0:0,0:0:0:0:
480,192,19031,5,6,0:0:0:0:
480,192,19781,2,0,L|472:272,1,80,0|8,0:0|0:0,0:0:0:0:
396,332,20531,2,0,L|312:324,1,80,4|8,0:0|0:0,0:0:0:0:
240,268,21281,1,2,0:0:0:0:
228,364,21656,1,8,0:0:0:0:
148,308,22031,6,0,P|136:260|196:176,1,160,6|0,0:0|0:0,0:0:0:0:
292,180,23156,1,8,0:0:0:0:
356,252,23531,2,0,P|388:184|356:108,1,160,12|12,0:0|0:0,0:0:0:0:
176,52,25031,6,0,L|168:136,1,80,4|8,0:0|0:0,0:0:0:0:
112,208,25781,2,0,L|120:288,1,80,0|8,0:0|0:0,0:0:0:0:
192,352,26531,2,0,P|240:328|336:364,1,160,4|0,0:0|0:0,0:0:0:0:
396,288,27656,1,8,0:0:0:0:
472,348,28031,6,0,P|488:312|492:272,1,80,4|8,0:0|0:0,0:0:0:0:
428,200,28781,2,0,P|384:196|348:204,1,80,2|8,0:0|0:0,0:0:0:0:
256,220,29531,1,4,0:0:0:0:
172,172,29906,1,8,0:0:0:0:
148,80,30281,1,2,0:0:0:0:
56,104,30656,1,8,0:0:0:0:
24,196,31031,6,0,P|28:240|40:276,1,80,6|8,0:0|0:0,0:0:0:0:
116,332,31781,2,0,P|160:328|196:316,1,80,0|8,0:0|0:0,0:0:0:0:
272,264,32531,1,2,0:0:0:0:
316,180,32906,1,8,0:0:0:0:
396,232,33281,2,0,L|404:316,1,80,0|8,0:0|0:0,0:0:0:0:
316,356,34031,6,0,P|280:332|248:224,1,160,4|0,0:0|0:0,0:0:0:0:
300,144,35156,1,8,0:0:0:0:
256,60,35531,2,0,P|216:72|176:72,1,80,4|0,0:0|0:0,0:0:0:0:
88,40,36281,2,0,B|68:116|120:120|88:200,1,160,4|6,0:0|0:0,0:0:0:0:
60,304,43031,6,0,P|100:304|140:296,1,80,4|8,0:0|0:0,0:0:0:0:
224,248,43781,2,0,P|264:248|304:256,1,80,4|8,0:0|0:0,0:0:0:0:
384,312,44531,1,4,0:0:0:0:
464,264,44906,1,8,0:0:0:0:
440,172,45281,1,0,0:0:0:0:
344,168,45656,1,8,0:0:0:0:
304,256,46031,1,4,0:0:0:0:
256,192,46218,12,4,47531,0:0:0:0:
432,320,49031,6,0,P|392:320|352:312,1,80,4|8,0:0|0:0,0:0:0:0:
276,256,49781,1,4,0:0:0:0:
212,328,50156,1,8,0:0:0:0:
120,348,50531,2,0,L|100:188,1,160,4|4,0:0|0:0,0:0:0:0:
152,108,51656,1,8,0:0:0:0:
240,144,52031,6,0,L|236:228,1,80,4|8,0:0|0:0,0:0:0:0:
284,308,52781,2,0,P|324:320|364:320,1,80,4|8,0:0|0:0,0:0:0:0:
452,284,53531,1,4,0:0:0:0:
376,228,53906,1,8,0:0:0:0:
464,192,54281,1,4,0:0:0:0:
388,136,54656,1,8,0:0:0:0:
300,172,55031,6,0,P|256:176|176:96,1,160,4|4,0:0|0:0,0:0:0:0:
108,36,56156,1,8,0:0:0:0:
36,100,56531,2,0,P|32:140|36:180,1,80,4|8,0:0|0:0,0:0:0:0:
112,240,57281,2,0,L|108:320,1,80,4|8,0:0|0:0,0:0:0:0:
188,372,58031,6,0,P|268:372|320:312,1,160,4|4,0:0|0:0,0:0:0:0:
316,220,59156,1,12,0:0:0:0:
228,184,59531,2,0,P|264:140|392:276,1,320,4|4,0:0|0:0,0:0:0:0:
216,348,61781,6,0,L|132:340,1,80,4|8,0:0|0:0,0:0:0:0:
40,324,62531,2,0,P|24:284|24:244,1,80,4|8,0:0|0:0,0:0:0:0:
60,160,63281,1,4,0:0:0:0:
148,200,63656,1,8,0:0:0:0:
140,104,64031,6,0,B|212:80|224:128|300:104,1,160,4|4,0:0|0:0,0:0:0:0:
364,36,65156,1,8,0:0:0:0:
452,76,65531,2,0,P|460:116|456:156,1,80,4|8,0:0|0:0,0:0:0:0:
392,224,66281,2,0,P|352:231|312:228,1,80,4|8,0:0|0:0,0:0:0:0:
224,192,67031,6,0,P|256:256|240:344,2,160,4|4|4,0:0|0:0|0:0,0:0:0:0:
140,148,68906,1,8,0:0:0:0:
168,56,69281,2,0,P|204:48|248:48,1,80,4|8,0:0|0:0,0:0:0:0:
336,84,70031,5,4,0:0:0:0:
392,164,70406,1,8,0:0:0:0:
484,144,70781,2,0,P|496:104|496:64,2,80,4|12|4,0:0|0:0|0:0,0:0:0:0:
256,192,71718,12,4,73031,0:0:0:0:
204,112,85031,6,0,P|239:218|148:284,1,240,4|0,0:0|0:0,0:0:0:0:
144,188,86531,2,0,B|262:136|250:240|374:188,1,240,4|0,0:0|0:0,0:0:0:0:
312,112,88031,1,4,0:0:0:0:
312,112,88406,2,0,P|277:218|368:284,1,240,0|4,0:0|3:0,0:0:0:0:
256,192,89718,12,4,91031,0:0:0:0:
92,192,92531,6,0,P|92:272|144:332,2,160,4|0|4,0:0|0:0|0:0,0:0:0:0:
256,88,94781,1,4,0:0:0:0:
420,192,95531,2,0,P|420:272|368:332,1,160,4|0,0:0|0:0,0:0:0:0:
276,352,96656,1,0,0:0:0:0:
216,276,97031,6,0,L|224:196,1,80,4|8,0:0|0:0,0:0:0:0:
172,116,97781,2,0,L|92:108,1,80,0|8,0:0|0:0,0:0:0:0:
24,176,98531,2,0,P|8:228|52:320,1,160,4|0,0:0|0:0,0:0:0:0:
144,340,99656,1,8,0:0:0:0:
216,276,100031,5,4,0:0:0:0:
128,244,100406,2,0,P|216:184|308:260,1,240,8|4,0:0|0:0,0:0:0:0:
368,332,101906,1,8,0:0:0:0:
460,312,102281,1,0,0:0:0:0:
472,216,102656,1,8,0:0:0:0:
380,184,103031,5,4,0:0:0:0:
380,184,103781,2,0,P|368:144|368:104,1,80,0|8,0:0|0:0,0:0:0:0:
300,40,104531,2,0,P|224:56|144:40,1,160,4|4,0:0|0:0,0:0:0:0:
60,84,105656,1,8,0:0:0:0:
60,84,106031,6,0,L|64:168,1,80,4|8,0:0|0:0,0:0:0:0:
140,224,106781,2,0,L|136:308,1,80,0|8,0:0|0:0,0:0:0:0:
216,356,107531,2,0,B|242:330|290:334|290:334|313:292|354:291,2,160,4|4|4,0:0|0:0|0:0,0:0:0:0:
452,80,115031,6,0,P|412:80|372:88,1,80,4|8,0:0|0:0,0:0:0:0:
288,136,115781,2,0,P|248:136|208:128,1,80,4|8,0:0|0:0,0:0:0:0:
128,72,116531,1,4,0:0:0:0:
48,120,116906,1,8,0:0:0:0:
72,212,117281,1,0,0:0:0:0:
168,216,117656,1,8,0:0:0:0:
208,128,118031,1,4,0:0:0:0:
256,192,118218,12,4,119531,0:0:0:0:
228,328,121031,6,0,P|312:316|376:356,1,160,4|4,0:0|0:0,0:0:0:0:
460,308,122156,1,8,0:0:0:0:
380,252,122531,2,0,P|376:212|380:172,1,80,4|8,0:0|0:0,0:0:0:0:
412,84,123281,1,4,0:0:0:0:
348,12,123656,1,8,0:0:0:0:
348,12,124031,6,0,L|268:16,1,80,4|8,0:0|0:0,0:0:0:0:
176,44,124781,1,4,0:0:0:0:
124,124,125156,1,8,0:0:0:0:
32,96,125531,2,0,P|28:136|108:220,1,160,4|4,0:0|0:0,0:0:0:0:
196,196,126656,1,8,0:0:0:0:
284,156,127031,6,0,P|292:196|284:236,1,80,4|8,0:0|0:0,0:0:0:0:
208,292,127781,1,4,0:0:0:0:
296,332,128156,1,8,0:0:0:0:
376,276,128531,2,0,P|392:200|380:116,1,160,4|4,0:0|0:0,0:0:0:0:
324,44,129656,1,8,0:0:0:0:
228,52,130031,6,0,P|220:96|220:136,1,80,4|8,0:0|0:0,0:0:0:0:
284,204,130781,2,0,P|292:248|292:288,1,80,4|8,0:0|0:0,0:0:0:0:
224,348,131531,2,0,P|172:368|52:192,1,320,4|4,0:0|0:0,0:0:0:0:
196,64,133781,6,0,P|204:104|204:144,1,80,4|8,0:0|0:0,0:0:0:0:
172,232,134531,1,4,0:0:0:0:
268,220,134906,1,8,0:0:0:0:
352,268,135281,1,4,0:0:0:0:
396,352,135656,1,8,0:0:0:0:
484,312,136031,6,0,P|492:272|492:232,1,80,4|8,0:0|0:0,0:0:0:0:
424,168,136781,2,0,P|376:184|316:108,1,160,4|4,0:0|0:0,0:0:0:0:
352,20,137906,1,8,0:0:0:0:
256,32,138281,1,4,0:0:0:0:
216,120,138656,1,8,0:0:0:0:
248,212,139031,6,0,P|260:256|256:292,1,80,4|8,0:0|0:0,0:0:0:0:
200,368,139781,2,0,L|120:364,1,80,4|8,0:0|0:0,0:0:0:0:
24,356,140531,1,4,0:0:0:0:
72,272,140906,2,0,L|152:276,1,80,8|4,0:0|0:0,0:0:0:0:
248,280,141656,1,8,0:0:0:0:
256,192,142031,12,4,143531,0:0:0:0:
92,292,145031,6,0,P|132:300|172:300,1,80,4|8,0:0|0:0,0:0:0:0:
256,256,145781,1,0,0:0:0:0:
292,168,146156,1,8,0:0:0:0:
256,80,146531,5,4,0:0:0:0:
256,80,148031,5,4,0:0:0:0:
220,168,148406,1,8,0:0:0:0:
256,256,148781,1,0,0:0:0:0:
340,300,149156,1,8,0:0:0:0:
428,260,149531,6,0,L|436:176,1,80,4|8,0:0|0:0,0:0:0:0:
448,84,150281,1,0,0:0:0:0:
360,124,150656,1,8,0:0:0:0:
280,72,151031,2,0,P|264:116|316:208,1,160,4|4,0:0|0:0,0:0:0:0:
360,124,152156,1,8,0:0:0:0:
280,72,152531,6,0,L|200:80,1,80,4|8,0:0|0:0,0:0:0:0:
108,56,153281,2,0,P|108:100|120:136,1,80,0|8,0:0|0:0,0:0:0:0:
36,184,154031,2,0,P|67:215|176:212,1,160,4|4,0:0|0:0,0:0:0:0:
240,140,155156,1,12,0:0:0:0:
324,188,155531,6,0,P|324:228|316:268,1,80,4|8,0:0|0:0,0:0:0:0:
280,356,156281,1,0,0:0:0:0:
376,344,156656,1,8,0:0:0:0:
464,380,157031,1,4,0:0:0:0:
452,284,157406,2,0,P|444:244|444:204,1,80,8|4,0:0|0:0,0:0:0:0:
472,112,158156,1,8,0:0:0:0:
380,136,158531,5,4,0:0:0:0:
292,100,158906,1,8,0:0:0:0:
244,16,159281,2,0,L|164:28,1,80,4|8,0:0|0:0,0:0:0:0:
70,47,160031,5,4,0:0:0:0:
192,264,167531,6,0,P|192:308|208:340,1,80,4|8,0:0|0:0,0:0:0:0:
304,339,168281,2,0,P|321:303|320:264,1,80,0|8,0:0|0:0,0:0:0:0:
256,192,169031,1,4,0:0:0:0:
180,136,169406,1,8,0:0:0:0:
208,44,169781,1,0,0:0:0:0:
304,44,170156,1,8,0:0:0:0:
332,136,170531,1,4,0:0:0:0:
256,192,170718,12,4,172031,0:0:0:0:
392,124,173531,6,0,P|396:164|392:204,1,80,4|8,0:0|0:0,0:0:0:0:
480,244,174281,2,0,P|454:275|423:300,1,80,4|8,0:0|0:0,0:0:0:0:
332,280,175031,2,0,P|258:276|196:332,1,160,4|4,0:0|0:0,0:0:0:0:
112,376,176156,1,8,0:0:0:0:
60,296,176531,6,0,P|64:256|60:216,1,80,4|8,0:0|0:0,0:0:0:0:
20,128,177281,1,4,0:0:0:0:
116,140,177656,1,8,0:0:0:0:
184,72,178031,2,0,B|264:48|260:104|344:72,1,160,4|4,0:0|0:0,0:0:0:0:
424,24,179156,1,8,0:0:0:0:
496,88,179531,6,0,P|504:128|500:168,1,80,4|8,0:0|0:0,0:0:0:0:
492,264,180281,2,0,P|452:252|420:228,1,80,4|8,0:0|0:0,0:0:0:0:
408,136,181031,2,0,P|344:172|328:252,1,160,4|4,0:0|0:0,0:0:0:0:
394,321,182156,1,8,0:0:0:0:
420,228,182531,6,0,P|367:167|291:163,1,160,4|4,0:0|0:0,0:0:0:0:
232,240,183656,1,8,0:0:0:0:
328,252,184031,2,0,P|388:160|240:84,1,320,4|4,0:0|0:0,0:0:0:0:
108,224,186281,6,0,L|112:308,1,80,4|8,0:0|0:0,0:0:0:0:
188,360,187031,2,0,P|264:356|312:292,1,160,4|4,0:0|0:0,0:0:0:0:
220,268,188156,1,8,0:0:0:0:
284,196,188531,6,0,P|324:196|364:208,1,80,4|8,0:0|0:0,0:0:0:0:
408,292,189281,2,0,P|417:330|437:365,2,80,4|8|4,0:0|0:0|0:0,0:0:0:0:
460,212,190406,2,0,P|488:184|508:149,1,80,8|4,0:0|0:0,0:0:0:0:
484,56,191156,1,8,0:0:0:0:
388,52,191531,6,0,P|359:79|339:114,1,80,4|8,0:0|0:0,0:0:0:0:
248,88,192281,2,0,P|247:127|257:166,1,80,4|8,0:0|0:0,0:0:0:0:
340,212,193031,2,0,P|288:256|200:240,1,160,4|4,0:0|0:0,0:0:0:0:
156,160,194156,1,8,0:0:0:0:
76,216,194531,6,0,P|76:256|84:296,1,80,4|8,0:0|0:0,0:0:0:0:
156,360,195281,2,0,P|196:360|236:352,1,80,4|8,0:0|0:0,0:0:0:0:
308,288,196031,2,0,P|344:320|468:220,1,240,4|0,0:0|3:0,0:0:0:0:
428,140,197537,6,0,L|348:148,1,80,0|14,0:0|0:0,0:0:0:0:
260,188,198287,6,0,P|248:148|252:108,1,80,0|8,0:0|0:0,0:0:0:0:
280,20,199037,2,0,P|204:28|156:92,1,160,4|4,0:0|0:0,0:0:0:0:
164,188,200162,1,8,0:0:0:0:
212,272,200537,6,0,P|136:284|76:232,2,160,4|4|4,0:0|0:0|0:0,0:0:0:0:
264,192,202412,1,8,0:0:0:0:
356,216,202787,1,4,0:0:0:0:
360,312,203162,1,8,0:0:0:0:
448,337,203537,6,0,P|451:297|440:260,1,80,4|8,0:0|0:0,0:0:0:0:
356,216,204287,2,0,P|380:184|416:168,1,80,4|8,0:0|0:0,0:0:0:0:
512,156,205037,2,0,P|496:108|400:72,1,160,4|4,0:0|0:0,0:0:0:0:
320,128,206162,1,8,0:0:0:0:
224,108,206537,6,0,P|220:68|228:28,2,80,4|8|4,0:0|0:0|0:0,0:0:0:0:
256,200,207662,1,12,0:0:0:0:
320,128,208037,2,0,P|248:104|208:284,1,320,4|4,0:0|0:0,0:0:0:0:
392,328,210287,6,0,P|400:288|396:248,1,80,4|8,0:0|0:0,0:0:0:0:
332,176,211037,2,0,P|296:200|216:132,1,160,4|4,0:0|0:0,0:0:0:0:
224,44,212162,1,8,0:0:0:0:
136,80,212537,6,0,P|120:116|116:156,1,80,4|8,0:0|0:0,0:0:0:0:
56,232,213287,2,0,P|92:248|132:252,1,80,4|8,0:0|0:0,0:0:0:0:
228,236,214037,2,0,P|224:275|208:312,2,80,4|8|4,0:0|0:0|0:0,0:0:0:0:
216,140,215162,1,12,0:0:0:0:
304,176,215537,6,0,P|376:208|444:168,1,160,4|4,0:0|0:0,0:0:0:0:
456,76,216662,1,8,0:0:0:0:
372,124,217037,2,0,L|376:284,1,160,4|4,0:0|0:0,0:0:0:0:
304,348,218162,1,8,0:0:0:0:
212,316,218537,6,0,L|220:236,1,80,4|8,0:0|0:0,0:0:0:0:
168,156,219287,2,0,P|132:140|92:136,1,80,4|8,0:0|0:0,0:0:0:0:
256,192,220037,12,4,221537,0:0:0:0:
220,320,223037,6,0,P|264:308|364:360,2,160,4|4|4,0:0|0:0|0:0,0:0:0:0:
140,268,224912,1,2,0:0:0:0:
224,224,225287,2,0,P|232:184|232:144,2,80,4|2|4,0:0|0:0|0:0,0:0:0:0:
