osu file format v14

[General]
AudioFilename: Yureru Koi ha Nami no Gotoku.mp3
AudioLeadIn: 400
PreviewTime: 60150
Countdown: 0
SampleSet: Soft
StackLeniency: 0.7
Mode: 0
LetterboxInBreaks: 0
WidescreenStoryboard: 0

[Editor]
Bookmarks: 75140
DistanceSpacing: 1
BeatDivisor: 4
GridSize: 4
TimelineZoom: 1.5

[Metadata]
Title:Yureru Koi wa Nami no Gotoku
TitleUnicode:揺れる恋は波の如く
Artist:senya
ArtistUnicode:senya
Creator:Momovely
Version:Normal
Source:艦隊これくしょん~艦これ~
Tags:Kantai Collection~Kan Colle~ 砲雷撃戦、始め! kamasetora hizumi kancolle c85 hiroshi usami yuuhei catharsis wmtokok
BeatmapID:544907
BeatmapSetID:234999

[Difficulty]
HPDrainRate:3
CircleSize:3
OverallDifficulty:3
ApproachRate:4
SliderMultiplier:1
SliderTickRate:1

[Events]
//Background and Video events
0,0,"yureru bg.jpg",0,0
//Break Periods
2,49850,54330
//Storyboard Layer 0 (Background)
//Storyboard Layer 1 (Fail)
//Storyboard Layer 2 (Pass)
//Storyboard Layer 3 (Foreground)
//Storyboard Sound Samples

[TimingPoints]
1650,375,4,2,1,60,1,0
49650,-100,4,2,1,40,0,0
55650,-100,4,2,1,60,0,0
61650,-100,4,2,1,60,0,1
84150,-100,4,2,1,60,0,0
86775,-100,4,2,1,10,0,0

[Colours]
Combo1 : 0,128,128
Combo2 : 255,128,128
Combo3 : 0,128,255
Combo4 : 185,109,81
Combo5 : 128,128,192

[HitObjects]
112,64,1650,6,0,P|96:110|108:158,1,100,4|0,0:1|0:0,0:0:0:0:
196,112,2400,2,0,P|291:87|387:113,1,200,0|0,0:0|0:0,0:0:0:0:
460,184,3525,2,0,L|454:235,1,50
444,284,3900,2,0,P|395:271|347:282,1,100,0|0,0:0|0:0,0:0:0:0:
248,300,4650,6,0,L|237:196,1,100,4|0,0:1|0:0,0:0:0:0:
168,128,5400,2,0,P|119:115|71:127,1,100,4|0,0:1|0:1,0:0:0:0:
24,216,6150,2,0,L|12:323,2,100,2|2|2,0:0|0:0|0:0,0:0:0:0:
124,228,7275,1,2,0:0:0:0:
220,200,7650,6,0,P|267:187|315:201,1,100,4|8,0:0|0:0,0:0:0:0:
412,220,8400,2,0,L|427:121,1,100,2|8,0:0|0:0,0:0:0:0:
444,24,9150,1,2,0:0:0:0:
344,44,9525,2,0,L|272:55,1,50,8|0,0:0|0:0,0:0:0:0:
244,60,9900,2,0,P|194:61|149:41,1,100,2|8,0:0|0:0,0:0:0:0:
68,100,10650,6,0,L|78:199,1,100,4|8,0:0|0:0,0:0:0:0:
92,300,11400,1,2,0:0:0:0:
176,244,11775,1,8,0:0:0:0:
276,252,12150,2,0,L|287:140,1,100,4|8,0:0|0:0,0:0:0:0:
295,104,12712,2,0,P|365:79|435:104,1,150,0|8,0:0|0:0,0:0:0:0:
492,188,13650,6,0,L|480:295,1,100,4|8,0:0|0:0,0:0:0:0:
400,344,14400,2,0,L|300:333,1,100,2|8,0:0|0:0,0:0:0:0:
212,284,15150,1,2,0:0:0:0:
112,296,15525,2,0,L|120:366,2,50,8|0|2,0:0|0:0|0:0,0:0:0:0:
68,208,16275,1,8,0:0:0:0:
152,152,16650,6,0,P|199:164|247:150,1,100,4|8,0:0|0:0,0:0:0:0:
316,76,17400,2,0,L|435:88,1,100,2|8,0:0|0:0,0:0:0:0:
472,168,18150,2,0,P|480:217|472:266,2,100,2|8|2,0:0|0:0|0:0,0:0:0:0:
384,216,19275,1,8,0:0:0:0:
356,312,19650,6,0,L|241:293,1,100,4|8,0:0|0:0,0:0:0:0:
164,332,20400,2,0,L|145:213,1,100,2|8,0:0|0:0,0:0:0:0:
128,136,21150,2,0,L|68:145,2,50,2|0|8,0:0|0:0|0:0,0:0:0:0:
220,179,21900,2,0,P|232:131|221:83,1,100,2|8,0:0|0:0,0:0:0:0:
312,36,22650,6,0,L|411:46,1,100,4|8,0:0|0:0,0:0:0:0:
456,136,23400,2,0,P|442:184|444:233,1,100,2|8,0:0|0:0,0:0:0:0:
372,304,24150,2,2,B|212:340|232:260|76:302,1,300,2|8,0:0|0:0,0:0:0:0:
28,216,25650,6,0,P|25:166|38:118,2,100,4|8|2,0:0|0:0|0:0,0:0:0:0:
120,180,26775,1,8,0:0:0:0:
152,84,27150,2,0,P|240:44|327:85,1,200,2|2,0:0|0:0,0:0:0:0:
392,164,28275,1,8,0:0:0:0:
340,248,28650,5,4,0:0:0:0:
240,236,29025,2,0,P|231:186|241:138,2,100,8|2|8,0:0|0:0|0:0,0:0:0:0:
236,336,30150,2,0,L|136:325,1,100,2|8,0:0|0:0,0:0:0:0:
44,284,30900,2,0,P|31:235|42:187,1,100,2|8,0:0|0:0,0:0:0:0:
132,232,31650,6,0,B|156:124|96:144|130:35,1,200,4|2,0:0|0:0,0:0:0:0:
216,88,32775,1,8,0:0:0:0:
300,36,33150,2,0,L|403:46,1,100,2|8,0:0|0:0,0:0:0:0:
400,148,33900,2,0,L|284:135,1,100,2|8,0:0|0:0,0:0:0:0:
224,200,34650,6,0,P|211:248|222:296,1,100,4|8,0:0|0:0,0:0:0:0:
312,252,35400,2,0,L|426:233,1,100,2|8,0:0|0:0,0:0:0:0:
424,336,36150,2,0,P|459:324|486:299,2,75,4|4|4,0:0|0:0|0:0,0:0:0:0:
376,340,36900,2,0,L|276:330,1,100,4|8,0:0|0:0,0:0:0:0:
180,312,37650,6,0,P|151:217|179:122,1,200,4|2,0:0|0:0,0:0:0:0:
268,80,38775,1,8,0:0:0:0:
328,160,39150,2,0,L|337:260,2,100,2|8|2,0:0|0:0|0:0,0:0:0:0:
372,68,40275,1,8,0:0:0:0:
464,32,40650,5,4,0:0:0:0:
504,124,41025,2,0,P|500:173|496:223,1,100,8|2,0:0|0:0,0:0:0:0:
424,292,41775,2,0,L|317:275,1,100,8|2,0:0|0:0,0:0:0:0:
244,220,42525,2,0,P|252:170|244:121,2,100,8|2|8,0:0|0:0|0:0,0:0:0:0:
144,232,43650,6,0,P|194:313|290:310,1,200,4|2,0:0|0:0,0:0:0:0:
364,240,44775,1,8,0:0:0:0:
384,148,45150,2,0,P|432:135|480:148,1,100,2|8,0:0|0:0,0:0:0:0:
476,248,45900,2,0,L|463:363,1,100,2|8,0:0|0:0,0:0:0:0:
364,348,46650,6,0,L|244:335,1,100,4|8,0:0|0:0,0:0:0:0:
168,316,47400,1,2,0:0:0:0:
144,220,47775,1,8,0:0:0:0:
244,236,48150,2,0,P|280:228|314:213,2,75,4|0|0,0:0|0:0|0:0,0:0:0:0:
232,188,48900,2,0,P|224:138|219:88,1,100,2|8,0:0|0:0,0:0:0:0:
296,24,49650,1,4,0:0:0:0:
144,180,55650,6,0,B|256:152|228:220|339:181,1,200,4|0,0:0|0:0,0:0:0:0:
416,120,56775,2,0,L|421:64,2,50,8|0|4,0:0|0:0|0:0,0:0:0:0:
436,220,57525,1,8,0:0:0:0:
388,308,57900,2,0,L|276:284,1,100,0|8,0:0|0:0,0:0:0:0:
200,332,58650,6,0,P|187:283|198:235,1,100,4|8,0:0|0:0,0:0:0:0:
292,200,59400,2,0,L|347:208,2,50,8|8|8,0:0|0:0|0:0,0:0:0:0:
212,144,60150,6,0,L|200:36,1,100,4|2,0:0|0:0,0:0:0:0:
104,56,60900,2,0,L|114:155,1,100,2|2,0:0|0:0,0:0:0:0:
136,252,61650,6,0,P|179:276|228:275,1,100,4|8,0:0|0:0,0:0:0:0:
327,296,62400,2,0,P|325:246|302:202,1,100,2|8,0:0|0:0,0:0:0:0:
208,172,63150,2,0,L|218:72,1,100,2|8,0:0|0:0,0:0:0:0:
312,40,63900,1,2,0:0:0:0:
400,84,64275,2,0,L|394:139,1,50,8|0,0:0|0:0,0:0:0:0:
392,184,64650,6,0,L|281:201,1,100,4|8,0:0|0:0,0:0:0:0:
224,272,65400,1,2,0:0:0:0:
140,216,65775,2,0,L|134:160,1,50,8|0,0:0|0:0,0:0:0:0:
124,116,66150,2,0,P|74:111|28:130,2,100,2|10|2,0:0|0:0|0:0,0:0:0:0:
220,140,67275,2,0,L|269:132,1,50,8|2,0:0|0:0,0:0:0:0:
320,124,67650,6,0,P|328:173|318:221,1,100,4|8,0:0|0:0,0:0:0:0:
280,316,68400,1,2,0:0:0:0:
376,348,68775,2,0,P|423:334|460:301,1,100,8|2,0:0|0:0,0:0:0:0:
468,200,69525,2,0,L|456:88,1,100,8|2,0:0|0:0,0:0:0:0:
380,36,70275,1,8,0:0:0:0:
284,72,70650,6,0,B|180:100|200:40|87:69,1,200,4|2,0:0|0:0,0:0:0:0:
44,156,71775,1,8,0:0:0:0:
124,216,72150,2,0,P|172:228|220:216,1,100,2|4,0:0|0:0,0:0:0:0:
320,200,72900,2,4,L|329:291,2,75
316,152,73650,6,0,P|363:164|411:151,1,100,4|8,0:0|0:0,0:0:0:0:
360,64,74400,2,0,P|267:31|174:63,1,200,2|2,0:0|0:0,0:0:0:0:
124,152,75525,2,0,L|48:144,1,50,8|0,0:0|0:0,0:0:0:0:
28,164,75900,2,0,P|16:212|22:261,1,100,2|8,0:0|0:0,0:0:0:0:
100,328,76650,6,0,L|214:309,1,100,4|8,0:0|0:0,0:0:0:0:
280,256,77400,1,2,0:0:0:0:
376,280,77775,1,8,0:0:0:0:
452,216,78150,2,0,P|459:166|450:118,2,100,2|10|2,0:0|0:0|0:0,0:0:0:0:
364,168,79275,1,8,0:0:0:0:
348,68,79650,6,0,P|299:55|251:67,1,100,4|8,0:0|0:0,0:0:0:0:
212,160,80400,2,0,P|160:172|112:160,1,100,2|8,0:0|0:0,0:0:0:0:
28,112,81150,1,2,0:0:0:0:
36,212,81525,2,0,L|42:275,1,50,8|0,0:0|0:0,0:0:0:0:
52,312,81900,2,0,L|158:295,1,100,2|8,0:0|0:0,0:0:0:0:
244,335,82650,6,0,P|253:287|240:239,1,100,4|8,0:0|0:0,0:0:0:0:
204,144,83400,2,0,P|247:119|296:120,1,100,2|8,0:0|0:0,0:0:0:0:
384,168,84150,1,4,0:1:0:0:
256,192,84337,12,0,86775,0:0:0:0:
