osu file format v14

[General]
AudioFilename: Yureru Koi ha Nami no Gotoku.mp3
AudioLeadIn: 400
PreviewTime: 60150
Countdown: 0
SampleSet: Soft
StackLeniency: 0.7
Mode: 0
LetterboxInBreaks: 0
WidescreenStoryboard: 0

[Editor]
Bookmarks: 59312,73656,75140
DistanceSpacing: 2
BeatDivisor: 4
GridSize: 4
TimelineZoom: 1.7

[Metadata]
Title:Yureru Koi wa Nami no Gotoku
TitleUnicode:揺れる恋は波の如く
Artist:senya
ArtistUnicode:senya
Creator:Momovely
Version:Catharsis
Source:艦隊これくしょん~艦これ~
Tags:Kantai Collection~Kan Colle~ 砲雷撃戦、始め! kamasetora hizumi kancolle c85 hiroshi usami yuuhei catharsis wmtokok
BeatmapID:544837
BeatmapSetID:234999

[Difficulty]
HPDrainRate:6
CircleSize:4
OverallDifficulty:7
ApproachRate:9
SliderMultiplier:1.7
SliderTickRate:1

[Events]
//Background and Video events
0,0,"yureru bg.jpg",0,0
//Break Periods
//Storyboard Layer 0 (Background)
//Storyboard Layer 1 (Fail)
//Storyboard Layer 2 (Pass)
//Storyboard Layer 3 (Foreground)
//Storyboard Sound Samples

[TimingPoints]
1650,375,4,2,1,60,1,0
1650,-111.111111111111,4,2,1,60,0,0
6150,-100,4,2,1,60,0,0
24900,-100,4,2,1,40,0,0
25650,-100,4,2,1,60,0,0
36150,-111.111111111111,4,2,1,60,0,0
37650,-100,4,2,1,60,0,0
49650,-125,4,2,1,40,0,0
55650,-111.111111111111,4,2,1,60,0,0
61650,-100,4,2,1,60,0,1
84150,-100,4,2,1,60,0,0
86775,-100,4,2,1,10,0,0

[Colours]
Combo1 : 0,128,128
Combo2 : 255,128,128
Combo3 : 0,128,255
Combo4 : 185,109,81
Combo5 : 128,128,192

[HitObjects]
96,132,1650,6,0,P|166:104|240:117,1,152.999995330811,4|0,0:1|0:0,0:0:0:0:
190,348,2400,2,0,P|162:278|176:204,2,152.999995330811,0|2|0,0:0|2:0|0:0,0:0:0:0:
356,268,3525,6,0,L|375:194,1,76.4999976654053
260,96,3900,2,0,L|271:171,1,76.4999976654053
396,80,4275,1,0,0:0:0:0:
375,194,4462,1,0,0:0:0:0:
260,96,4650,2,0,B|204:80|156:116|156:116|121:90,1,152.999995330811,4|0,0:1|0:0,0:0:0:0:
224,259,5400,6,0,P|232:222|224:185,1,76.4999976654053,4|0,0:1|0:0,0:0:0:0:
120,304,5775,2,0,P|140:335|171:358,1,76.4999976654053,0|0,0:1|0:0,0:0:0:0:
328,220,6150,5,2,0:0:0:0:
300,328,6337,1,0,0:0:0:0:
144,224,6525,1,2,0:0:0:0:
256,184,6712,1,0,0:0:0:0:
200,344,6900,1,2,0:0:0:0:
52,192,7087,1,2,0:0:0:0:
60,168,7181,1,0,0:0:0:0:
78,148,7275,1,8,0:0:0:0:
99,137,7368,1,0,0:0:0:0:
124,132,7462,1,2,0:0:0:0:
148,130,7556,1,0,0:0:0:0:
171,135,7650,6,0,P|211:120|243:93,1,85,4|0,0:0|0:0,0:0:0:0:
414,180,8025,2,0,P|374:167|332:172,1,85,8|0,0:0|0:0,0:0:0:0:
274,358,8400,2,0,P|283:317|276:276,1,85,2|0,0:0|0:0,0:0:0:0:
200,192,8775,1,8,0:0:0:0:
276,276,8962,1,0,0:0:0:0:
116,244,9150,6,0,P|103:203|106:161,1,85,2|0,0:0|0:0,0:0:0:0:
196,36,9525,1,8,0:0:0:0:
284,116,9712,1,0,0:0:0:0:
112,80,9900,2,0,P|72:66|39:39,1,85,2|0,0:0|0:0,0:0:0:0:
68,196,10275,2,0,P|69:238|55:278,1,85,8|0,0:0|0:0,0:0:0:0:
24,116,10650,5,4,0:0:0:0:
144,156,10837,1,0,0:0:0:0:
24,348,11025,1,8,0:0:0:0:
68,196,11212,1,0,0:0:0:0:
192,304,11400,2,0,L|108:290,1,85,2|0,0:0|0:0,0:0:0:0:
285,139,11775,2,0,P|281:181|264:220,1,85,8|0,0:0|0:0,0:0:0:0:
240,40,12150,6,0,B|332:16|316:64|407:40,1,170,4|8,0:0|0:0,0:0:0:0:
488,128,12712,1,0,0:0:0:0:
429,232,12900,1,2,0:0:0:0:
285,139,13087,1,2,0:0:0:0:
192,304,13275,1,8,0:0:0:0:
166,310,13368,1,0,0:0:0:0:
143,306,13462,1,10,0:0:0:0:
118,300,13556,1,0,0:0:0:0:
97,287,13650,6,0,P|55:286|16:303,1,85,4|0,0:0|0:0,0:0:0:0:
176,208,14025,2,0,P|194:170|197:128,1,85,8|0,0:0|0:0,0:0:0:0:
24,120,14400,2,0,P|46:155|85:172,1,85,2|0,0:0|0:0,0:0:0:0:
256,36,14775,2,0,P|173:26|110:78,1,170,8|2,0:0|0:0,0:0:0:0:
176,208,15337,1,0,0:0:0:0:
284,112,15525,1,8,0:0:0:0:
260,256,15712,1,0,0:0:0:0:
196,116,15900,5,2,0:0:0:0:
364,148,16087,1,0,0:0:0:0:
244,180,16275,1,8,0:0:0:0:
348,304,16462,1,0,0:0:0:0:
204,364,16650,6,0,P|189:324|190:281,1,85,4|0,0:0|0:0,0:0:0:0:
284,112,17025,1,8,0:0:0:0:
344,228,17212,1,0,0:0:0:0:
164,192,17400,1,2,0:0:0:0:
236,28,17587,1,0,0:0:0:0:
95,64,17775,2,0,P|91:106|103:146,1,85,10|0,0:0|0:0,0:0:0:0:
228,265,18150,6,0,P|250:229|260:188,1,85,2|0,0:0|0:0,0:0:0:0:
176,96,18525,1,8,0:0:0:0:
92,224,18712,1,0,0:0:0:0:
260,188,18900,1,2,0:0:0:0:
148,292,19087,1,0,0:0:0:0:
104,144,19275,1,8,0:0:0:0:
229,265,19462,1,0,0:0:0:0:
336,156,19650,6,0,P|350:116|352:73,1,85,4|0,0:0|0:0,0:0:0:0:
224,24,20025,1,8,0:0:0:0:
352,74,20212,1,0,0:0:0:0:
176,96,20400,2,0,P|134:88|98:66,1,85,2|0,0:0|0:0,0:0:0:0:
176,200,20775,2,0,P|217:191|253:169,1,85,8|0,0:0|0:0,0:0:0:0:
100,268,21150,6,0,P|93:309|101:351,1,85,2|0,0:0|0:0,0:0:0:0:
291,307,21525,2,0,P|249:315|208:308,1,85,10|0,0:0|0:0,0:0:0:0:
344,208,21900,2,0,P|409:258|409:340,1,170,2|8,0:0|0:0,0:0:0:0:
252,224,22462,1,0,0:0:0:0:
100,268,22650,6,0,P|92:226|101:185,2,85,4|0|8,0:0|0:0|0:0,0:0:0:0:
192,344,23212,1,0,0:0:0:0:
244,132,23400,2,0,P|285:137|321:157,1,85,2|0,0:0|0:0,0:0:0:0:
344,300,23775,2,0,P|385:293|422:273,1,85,8|0,0:0|0:0,0:0:0:0:
360,52,24150,6,0,B|268:68|284:20|193:50,1,170,2|8,0:0|0:0,0:0:0:0:
80,176,24712,1,0,0:0:0:0:
244,132,24900,1,0,0:0:0:0:
256,156,24993,1,0,0:0:0:0:
264,180,25087,1,8,0:0:0:0:
268,204,25181,1,0,0:0:0:0:
264,228,25275,1,8,0:0:0:0:
260,252,25368,1,0,0:0:0:0:
252,276,25462,1,8,0:0:0:0:
240,300,25556,1,0,0:0:0:0:
224,320,25650,6,0,P|142:304|59:322,1,170,4|8,0:0|0:0,0:0:0:0:
8,204,26212,1,0,0:0:0:0:
132,232,26400,1,2,0:0:0:0:
228,108,26587,1,0,0:0:0:0:
327,282,26775,2,0,P|339:242|340:200,1,85,8|0,0:0|0:0,0:0:0:0:
228,108,27150,6,0,P|301:67|385:68,2,170,2|8|2,0:0|0:0|0:0,0:0:0:0:
180,228,28087,1,0,0:0:0:0:
61,201,28275,2,0,P|55:242|63:283,1,85,8|0,0:0|0:0,0:0:0:0:
108,92,28650,6,0,L|28:66,1,85,4|0,0:0|0:0,0:0:0:0:
180,228,29025,2,0,L|260:201,1,85,8|0,0:0|0:0,0:0:0:0:
384,112,29400,1,2,0:0:0:0:
452,208,29587,1,0,0:0:0:0:
292,192,29775,1,8,0:0:0:0:
440,292,29962,1,0,0:0:0:0:
440,291,30056,1,0,0:0:0:0:
440,291,30150,6,0,P|452:250|452:208,1,85,2|0,0:0|0:0,0:0:0:0:
320,328,30525,2,0,L|236:314,1,85,8|0,0:0|0:0,0:0:0:0:
80,232,30900,1,2,0:0:0:0:
106,107,31087,1,0,0:0:0:0:
202,193,31275,2,0,P|205:235|193:275,1,85,8|0,0:0|0:0,0:0:0:0:
100,356,31650,6,0,P|168:307|251:305,1,170,4|8,0:0|0:0,0:0:0:0:
388,348,32212,1,0,0:0:0:0:
421,164,32400,2,0,L|408:248,1,85,2|0,0:0|0:0,0:0:0:0:
252,304,32775,2,0,L|239:220,1,85,8|0,0:0|0:0,0:0:0:0:
296,88,33150,6,0,P|214:72|141:113,1,170,2|8,0:0|0:0,0:0:0:0:
64,204,33712,1,0,0:0:0:0:
169,346,33900,2,0,P|160:305|168:264,1,85,2|0,0:0|0:0,0:0:0:0:
228,160,34275,1,8,0:0:0:0:
336,292,34462,1,0,0:0:0:0:
456,208,34650,6,0,B|360:224|376:180|288:206,1,170,4|8,0:0|0:0,0:0:0:0:
180,256,35212,1,0,0:0:0:0:
140,144,35400,2,0,P|131:102|139:60,1,85,2|0,0:0|0:0,0:0:0:0:
308,160,35775,2,0,P|293:199|266:232,1,85,8|0,0:0|0:0,0:0:0:0:
196,336,36150,5,4,0:0:0:0:
16,196,36431,1,4,0:0:0:0:
232,108,36712,1,4,0:0:0:0:
248,216,36900,6,0,P|210:215|175:199,1,76.4999976654053,4|0,0:0|0:0,0:0:0:0:
16,292,37275,2,0,P|53:283|83:260,1,76.4999976654053,8|0,0:0|0:0,0:0:0:0:
104,28,37650,6,0,P|74:105|98:185,1,170,4|8,0:0|0:0,0:0:0:0:
200,300,38212,1,0,0:0:0:0:
316,264,38400,2,0,P|328:223|325:181,1,85,2|0,0:0|0:0,0:0:0:0:
325,181,38681,1,0,0:0:0:0:
325,181,38775,1,8,0:0:0:0:
280,72,38962,1,0,0:0:0:0:
93,192,39150,6,0,P|173:211|244:168,1,170,2|8,0:0|0:0,0:0:0:0:
156,88,39712,1,0,0:0:0:0:
20,160,39900,2,0,P|16:202|27:242,1,85,2|0,0:0|0:0,0:0:0:0:
44,260,40181,1,0,0:0:0:0:
68,272,40275,2,0,L|151:254,1,85,8|0,0:0|0:0,0:0:0:0:
332,144,40650,6,0,P|276:115|214:124,1,127.5,4|0,0:0|0:0,0:0:0:0:
165,172,41025,2,0,L|156:88,1,85,8|0,0:0|0:0,0:0:0:0:
256,232,41400,2,0,L|245:327,1,85,2|0,0:0|0:0,0:0:0:0:
447,281,41775,2,0,P|405:275|368:256,1,85,8|0,0:0|0:0,0:0:0:0:
260,156,42150,5,2,0:0:0:0:
436,188,42337,1,0,0:0:0:0:
436,188,42431,1,0,0:0:0:0:
435,187,42525,2,0,P|447:146|444:104,1,85,8|0,0:0|0:0,0:0:0:0:
312,44,42900,2,0,L|228:30,1,85,2|0,0:0|0:0,0:0:0:0:
104,144,43275,2,0,L|187:130,1,85,8|0,0:0|0:0,0:0:0:0:
360,124,43650,6,0,L|332:297,1,170,4|8,0:0|0:0,0:0:0:0:
200,352,44212,1,0,0:0:0:0:
111,235,44400,2,0,P|70:227|28:235,1,85,2|0,0:0|0:0,0:0:0:0:
232,228,44775,2,0,P|251:190|257:148,1,85,8|0,0:0|0:0,0:0:0:0:
192,28,45150,5,2,0:0:0:0:
148,128,45337,1,0,0:0:0:0:
286,69,45525,2,0,P|327:60|370:60,1,85,8|0,0:0|0:0,0:0:0:0:
472,204,45900,2,0,P|429:204|388:196,1,85,2|0,0:0|0:0,0:0:0:0:
288,152,46275,1,8,0:0:0:0:
356,296,46462,1,0,0:0:0:0:
232,228,46650,6,0,P|203:149|231:71,1,170,4|8,0:0|0:0,0:0:0:0:
388,16,47212,1,0,0:0:0:0:
360,148,47400,2,0,L|444:139,1,85,2|0,0:0|0:0,0:0:0:0:
232,228,47775,2,0,L|149:214,1,85,8|0,0:0|0:0,0:0:0:0:
36,136,48150,5,4,0:0:0:0:
20,272,48337,1,0,0:0:0:0:
20,272,48431,1,0,0:0:0:0:
20,272,48525,2,0,P|19:314|32:355,1,85,8|0,0:0|0:0,0:0:0:0:
232,228,48900,2,0,L|149:215,1,85,2|0,0:0|0:0,0:0:0:0:
128,200,49181,1,2,0:0:0:0:
116,176,49275,2,0,P|107:134|115:92,1,85,8|0,0:0|0:0,0:0:0:0:
336,184,49650,6,0,P|345:250|316:310,2,136,4|0|2,0:0|0:0|0:0,0:0:0:0:
140,296,50587,2,0,L|207:303,1,68,0|2,0:0|0:0,0:0:0:0:
316,310,50962,1,0,0:0:0:0:
420,380,51150,6,0,P|433:314|417:248,1,136,2|2,0:0|0:0,0:0:0:0:
364,124,51712,1,0,0:0:0:0:
308,200,51900,2,0,L|240:192,1,68,2|0,0:0|0:0,0:0:0:0:
140,296,52275,2,0,L|123:231,1,68,2|0,0:0|0:0,0:0:0:0:
248,352,52650,6,0,L|383:366,1,136,2|0,0:0|0:0,0:0:0:0:
456,296,53212,1,0,0:0:0:0:
388,176,53400,1,2,0:0:0:0:
268,268,53587,2,0,P|300:276|334:275,1,68,0|2,0:0|0:0,0:0:0:0:
180,292,53962,1,0,0:0:0:0:
124,172,54150,6,0,B|278:137|232:235|387:175,1,272,2|2,0:0|0:0,0:0:0:0:
308,96,55087,2,0,L|315:28,2,68,0|2|0,0:0|0:0|0:0,0:0:0:0:
456,216,55650,6,0,L|463:140,1,76.4999976654053,4|0,0:0|0:0,0:0:0:0:
352,268,56025,2,0,P|286:229|211:230,1,152.999995330811,8|0,0:0|0:0,0:0:0:0:
124,304,56587,1,0,0:0:0:0:
20,256,56775,1,8,0:0:0:0:
64,360,56962,1,0,0:0:0:0:
136,228,57150,6,0,L|144:151,1,76.4999976654053,4|0,0:0|0:0,0:0:0:0:
48,36,57525,2,0,L|55:112,1,76.4999976654053,8|0,0:0|0:0,0:0:0:0:
268,80,57900,2,0,L|169:64,1,76.4999976654053
276,184,58275,2,0,L|352:172,1,76.4999976654053,8|0,0:0|0:0,0:0:0:0:
464,80,58650,5,4,0:0:0:0:
496,196,58837,1,0,0:0:0:0:
364,260,59025,1,8,0:0:0:0:
424,152,59212,1,0,0:0:0:0:
276,184,59400,6,0,L|269:223,1,38.2499988327027,8|0,0:0|0:0,0:0:0:0:
201,281,59587,2,0,L|196:244,1,38.2499988327027,8|0,0:0|0:0,2:0:0:0:
152,180,59775,2,0,L|113:192,1,38.2499988327027,8|0,0:0|0:0,0:0:0:0:
68,252,59962,2,0,L|31:242,1,38.2499988327027,8|0,0:0|0:0,2:0:0:0:
8,168,60150,5,4,0:0:0:0:
288,48,60525,1,2,0:0:0:0:
376,344,60900,5,2,0:0:0:0:
400,344,60993,1,0,0:0:0:0:
420,336,61087,1,2,0:0:0:0:
436,320,61181,1,0,0:0:0:0:
448,300,61275,1,2,0:0:0:0:
452,276,61368,1,0,0:0:0:0:
448,252,61462,1,2,0:0:0:0:
440,228,61556,1,0,0:0:0:0:
432,204,61650,6,0,P|426:163|435:121,1,85,4|0,0:0|0:0,0:0:0:0:
348,248,62025,2,0,P|311:227|269:221,1,85,8|0,0:0|0:0,0:0:0:0:
56,160,62400,2,0,P|133:128|217:140,1,170,2|8,0:0|0:0,0:0:0:0:
348,248,62962,1,0,0:0:0:0:
428,128,63150,6,0,P|386:118|347:101,1,85,2|0,0:0|0:0,0:0:0:0:
236,24,63525,1,8,0:0:0:0:
348,102,63712,1,0,0:0:0:0:
252,224,63900,2,0,P|255:266|260:308,1,85,2|0,0:0|0:0,0:0:0:0:
440,260,64275,1,8,0:0:0:0:
360,128,64462,1,0,0:0:0:0:
216,220,64650,6,0,L|132:206,1,85,4|0,0:0|0:0,0:0:0:0:
52,356,65025,2,0,P|70:317|74:275,1,85,8|0,0:0|0:0,0:0:0:0:
22,149,65400,1,2,0:0:0:0:
74,275,65587,1,0,0:0:0:0:
216,220,65775,2,0,P|256:206|298:207,1,85,8|0,0:0|0:0,0:0:0:0:
448,324,66150,6,0,B|404:304|363:324|363:324|324:340|282:326,1,170,2|8,0:0|0:0,0:0:0:0:
172,156,66712,1,0,0:0:0:0:
320,244,66900,1,2,0:0:0:0:
172,328,67087,1,0,0:0:0:0:
172,156,67275,1,8,0:0:0:0:
194,145,67368,1,0,0:0:0:0:
220,142,67462,1,2,0:0:0:0:
244,148,67556,1,0,0:0:0:0:
268,156,67650,6,0,P|310:150|348:130,1,85,4|0,0:0|0:0,0:0:0:0:
424,36,68025,1,8,0:0:0:0:
468,148,68212,1,0,0:0:0:0:
280,80,68400,2,0,P|238:74|200:54,1,85,2|0,0:0|0:0,0:0:0:0:
76,189,68775,2,0,P|114:169|156:164,1,85,8|0,0:0|0:0,0:0:0:0:
348,344,69150,6,0,B|356:284|356:284|336:236|336:236|348:174,1,170,2|8,0:0|0:0,0:0:0:0:
436,228,69712,1,0,0:0:0:0:
256,292,69900,2,0,P|213:288|175:271,1,85,2|0,0:0|0:0,0:0:0:0:
24,352,70275,2,0,P|65:346|103:326,1,85,8|0,0:0|0:0,0:0:0:0:
120,180,70650,6,0,B|211:153|195:201|287:181,1,170,4|8,0:0|0:0,0:0:0:0:
388,28,71212,1,0,0:0:0:0:
248,72,71400,2,0,P|206:66|169:45,1,85,2|0,0:0|0:0,0:0:0:0:
148,32,71681,1,0,0:0:0:0:
124,28,71775,1,8,0:0:0:0:
100,28,71868,1,0,0:0:0:0:
76,36,71962,1,2,0:0:0:0:
56,52,72056,1,2,0:0:0:0:
188,269,72337,5,4,0:0:0:0:
314,153,72525,1,4,0:0:0:0:
452,344,72900,5,4,0:0:0:0:
212,256,73181,1,4,0:0:0:0:
408,92,73462,1,4,0:0:0:0:
460,200,73650,6,0,P|377:206|314:152,1,170,4|8,0:0|0:0,0:0:0:0:
264,28,74212,1,0,0:0:0:0:
192,124,74400,2,0,P|183:165|191:207,1,85,2|0,0:0|0:0,0:0:0:0:
326,341,74775,2,0,P|286:329|244:332,1,85,8|0,0:0|0:0,0:0:0:0:
76,304,75150,6,0,P|118:305|158:291,1,85,2|0,0:0|0:0,0:0:0:0:
268,224,75525,1,8,0:0:0:0:
192,124,75712,1,0,0:0:0:0:
360,172,75900,2,0,P|372:212|369:255,1,85,2|0,0:0|0:0,0:0:0:0:
452,336,76275,2,0,P|471:295|475:247,1,85,8|0,0:0|0:0,0:0:0:0:
268,224,76650,6,0,B|204:216|204:216|160:232|160:232|101:224,1,170,4|8,0:0|0:0,0:0:0:0:
144,104,77212,1,0,0:0:0:0:
24,188,77400,2,0,P|15:229|24:270,1,85,2|0,0:0|0:0,0:0:0:0:
219,345,77775,2,0,L|136:332,1,85,8|0,0:0|0:0,0:0:0:0:
340,344,78150,5,2,0:0:0:0:
420,244,78337,1,0,0:0:0:0:
260,144,78525,1,10,0:0:0:0:
328,252,78712,1,0,0:0:0:0:
464,148,78900,1,2,0:0:0:0:
468,124,78993,1,0,0:0:0:0:
472,100,79087,1,2,0:0:0:0:
476,76,79181,1,0,0:0:0:0:
480,52,79275,2,0,P|438:46|400:26,1,85,8|0,0:0|0:0,0:0:0:0:
136,64,79650,6,0,B|184:80|224:64|224:64|264:48|302:62,1,170,4|8,0:0|0:0,0:0:0:0:
388,180,80212,1,0,0:0:0:0:
260,227,80400,2,0,P|252:185|260:144,1,85,2|0,0:0|0:0,0:0:0:0:
412,268,80775,2,0,P|406:309|386:347,1,85,8|0,0:0|0:0,0:0:0:0:
197,342,81150,6,0,L|280:320,1,85,2|0,0:0|0:0,0:0:0:0:
148,248,81525,2,0,L|65:226,1,85,8|0,0:0|0:0,0:0:0:0:
176,140,81900,2,0,P|248:100|328:121,1,170,2|8,0:0|0:0,0:0:0:0:
432,236,82462,1,0,0:0:0:0:
337,311,82650,6,0,P|317:273|312:232,1,85,4|0,0:0|0:0,0:0:0:0:
416,108,83025,1,8,0:0:0:0:
304,32,83212,1,0,0:0:0:0:
176,140,83400,2,0,P|133:134|92:126,1,85,2|0,0:0|0:0,0:0:0:0:
232,260,83775,1,8,0:0:0:0:
328,120,83962,1,0,0:0:0:0:
424,324,84150,1,4,0:1:0:0:
256,192,84337,12,0,86775,0:0:0:0:
